#TITLE:Fake Promise;
#SUBTITLE:;
#ARTIST:DJ Sharpnel;
#TITLETRANSLIT:;
#SUBTITLETRANSLIT:;
#ARTISTTRANSLIT:;
#CREDIT:;
#BANNER:fake.png;
#BACKGROUND:fakeprm.png;
#LYRICSPATH:;
#CDTITLE:CBR.png;
#MUSIC:06 - fake promise.mp3;
#OFFSET:-0.120;
#SAMPLESTART:100.000;
#SAMPLELENGTH:11.900;
#SELECTABLE:YES;
#BPMS:0.000=190.800;
#STOPS:;
#BGCHANGES:;
// cache tags:
#FIRSTBEAT:3.000;
#LASTBEAT:1126.625;
#SONGFILENAME:Songs/Hard Songs Megapack Volume 9/Fake Promise/06 - fake promise.sm;
#HASMUSIC:1;
#HASBANNER:1;
#MUSICLENGTH:418.664;
// end cache tags

//---------------dance-single - ----------------
#NOTES:
     dance-single:
     :
     Hard:
     14:
     1.000,1.000,1.000,0.041,1.000,2818.000,1125.000,17.000,112.000,460.000:
0000
0000
0000
0000
0000
0000
1011
0100
,
0011
0100
0011
0100
0011
0100
0011
0100
,
0011
0000
0000
0000
0100
0000
0000
0000
0011
0000
0000
0000
0100
0000
0000
0000
0011
0000
0000
0000
1000
0001
0100
0010
1001
0000
0000
0000
0010
0000
0000
0000
,
1001
0010
1001
0010
1001
0010
1001
0010
,
1001
0000
0000
0000
0001
1000
0100
0010
1001
0000
0010
0000
0001
0000
0000
0000
0101
0000
0000
0000
0001
0000
0000
0000
1011
0000
0000
0000
0100
0000
0000
0000
,
0011
0100
0011
0100
0011
0100
0011
0100
,
0011
0000
0000
0000
0100
0000
0000
0000
0011
0000
0000
0000
0100
0000
0000
0000
0011
0000
0000
0000
1000
0001
0100
0010
1001
0000
0000
0000
0010
0000
0000
0000
,
1001
0010
1001
0010
1001
0010
1001
0010
,
1001
0000
0000
0000
0000
0000
0000
0000
0001
0000
1000
0000
0100
0000
0010
0000
1001
0000
0000
0000
0010
0000
0000
0000
0001
0000
0000
0000
0000
0000
0000
0000
0101
0000
0000
0000
0000
0000
0000
0000
0001
0000
0000
0000
0000
0000
0000
0000
0011
1000
0000
0000
0000
0000
0000
0000
0100
0000
0000
0000
0000
0000
0000
0000
,
0011
1000
0000
0000
0000
0000
0000
0000
0100
0000
0000
0000
0000
0000
0000
0000
0011
1000
0000
0000
0000
0000
0000
0000
0100
0000
0000
0000
0000
0000
0000
0000
0011
1000
0000
0000
0000
0000
0000
0000
0100
0000
0000
0000
0000
0000
0000
0000
0011
1000
0000
0000
0000
0000
0000
0000
0100
0000
0000
0000
0000
0000
0000
0000
,
0011
1000
0000
0000
0000
0000
0000
0000
0100
0000
0000
0000
0000
0000
0000
0000
0011
1000
0000
0000
0000
0000
0000
0000
0100
0000
0000
0000
0000
0000
0000
0000
0011
1000
0000
0000
0000
0000
0000
0000
1000
0000
0001
0000
0100
0000
0010
0000
1001
0100
0000
0000
0000
0000
0000
0000
0010
0000
0000
0000
0000
0000
0000
0000
,
1001
0100
0000
0000
0000
0000
0000
0000
0010
0000
0000
0000
0000
0000
0000
0000
1001
0100
0000
0000
0000
0000
0000
0000
0010
0000
0000
0000
0000
0000
0000
0000
1001
0100
0000
0000
0000
0000
0000
0000
0010
0000
0000
0000
0000
0000
0000
0000
1001
0100
0000
0000
0000
0000
0000
0000
0010
0000
0000
0000
0000
0000
0000
0000
,
1001
0100
0000
0000
0000
0000
0000
0000
0001
0000
1000
0000
0100
0000
0010
0000
1001
0100
0000
0000
0010
0000
0000
0000
0001
0000
0000
0000
0000
0000
0000
0000
0101
0010
0000
0000
0000
0000
0000
0000
0001
0000
0000
0000
0000
0000
0000
0000
0011
1000
0000
0000
0000
0000
0000
0000
0100
0000
0000
0000
0000
0000
0000
0000
,
0011
1000
0000
0000
0000
0000
0000
0000
0100
0000
0000
0000
0000
0000
0000
0000
0011
1000
0000
0000
0000
0000
0000
0000
0100
0000
0000
0000
0000
0000
0000
0000
0011
1000
0000
0000
0000
0000
0000
0000
0100
0000
0000
0000
0000
0000
0000
0000
0011
1000
0000
0000
0000
0000
0000
0000
0100
0000
0000
0000
0000
0000
0000
0000
,
0011
1000
0000
0000
0000
0000
0000
0000
0100
0000
0000
0000
0000
0000
0000
0000
0011
1000
0000
0000
0000
0000
0000
0000
0100
0000
0000
0000
0000
0000
0000
0000
0011
1000
0000
0000
0000
0000
0000
0000
1000
0000
0001
0000
0100
0000
0010
0000
1001
0100
0000
0000
0000
0000
0000
0000
0010
0000
0000
0000
0000
0000
0000
0000
,
1001
0100
0000
0000
0000
0000
0000
0000
0010
0000
0000
0000
0000
0000
0000
0000
1001
0100
0000
0000
0000
0000
0000
0000
0010
0000
0000
0000
0000
0000
0000
0000
1001
0100
0000
0000
0000
0000
0000
0000
0010
0000
0000
0000
0000
0000
0000
0000
1101
0000
0000
0000
0000
0000
0000
0000
0000
0000
0000
0000
0000
0000
0000
0000
,
0000
0000
0000
0000
0000
0000
0000
0000
0000
0000
0000
0000
0000
0000
0000
0000
0011
0000
0000
0000
0011
0000
0000
0000
0110
0000
0000
0000
0110
0000
0000
0000
1101
0000
0000
0000
0000
0000
0000
0000
0000
0000
0000
0000
0000
0000
0000
0000
0110
0000
0000
0000
0000
1000
0000
0000
0000
0100
0000
0000
0000
0010
0000
0000
,
0001
0000
0000
0000
0010
0000
0000
0000
0000
0100
0000
0000
0000
1000
0000
0000
0010
0000
0000
0000
0000
0000
0000
0000
0001
0000
0000
0000
0000
0000
0000
0110
0000
0000
0000
0000
0000
0000
0000
0000
0000
0000
0000
0000
0000
0000
0000
0000
0000
0001
0000
0000
0010
0000
0000
0100
0000
0000
0000
0000
0000
0000
0000
0000
,
0000
0000
0000
0010
0000
0000
0000
0000
0000
0000
0000
0000
0000
0000
0000
0000
0000
0000
0000
0000
0000
0000
0000
0000
0000
0000
0000
0100
0000
0000
0000
0000
0000
0000
0000
0000
0000
0000
0000
0000
0000
0000
0000
0000
0000
0000
0000
0000
0000
0000
0000
0000
1000
0000
0000
0000
0000
0000
0000
0000
0000
0000
0000
0000
0000
0000
0000
0000
0000
0000
0000
0000
0000
0000
0000
0000
1000
0000
0000
0000
0000
0000
0000
0000
0000
0000
0000
0000
0000
0000
0000
0000
0000
0110
0000
0000
0000
0000
0000
0000
0000
0000
0000
0000
0000
0000
0000
0000
0000
0000
0000
0000
0000
0000
0000
0000
0000
0000
0000
0000
0000
0000
0000
0000
0000
0000
0000
0000
0000
0000
0000
0000
0000
0000
0000
0000
0000
0000
0000
0000
0000
0000
0000
0000
0110
0000
0000
0000
0000
0000
0000
0000
0000
0000
0000
0000
0000
0000
0000
1000
0000
0000
0000
0000
0000
0000
0000
0000
0000
0000
0000
0100
0000
0000
0000
0000
0000
0000
0000
0000
0000
0000
0000
0010
0000
0000
0000
0000
0000
0000
0000
0000
,
0001
0000
0000
0000
0010
0000
0000
0000
0000
0100
0000
0000
0000
1000
0000
0000
0010
0000
0000
0000
0000
0000
0000
0000
0001
0000
0000
0000
0000
0000
0000
0110
0000
0000
0000
0000
0000
0000
0000
0000
0000
0000
0000
0000
0000
0000
0000
0000
0000
0001
0000
0000
0010
0000
0000
0100
0000
0000
0000
0000
0000
0000
0000
0000
,
0000
0010
0000
0000
0000
0000
0000
0000
0000
0100
0000
0000
0000
0000
0000
0000
0000
1001
0000
0000
0000
0000
0000
0000
0000
0000
0000
0000
0000
0000
0000
0000
1001
0000
0000
0000
0000
0000
0000
0000
0000
0000
0000
0000
0000
0000
0000
0000
0110
0000
0000
0000
0000
1000
0000
0000
0000
0100
0000
0000
0000
0010
0000
0000
,
0001
0000
0000
0000
0010
0000
0000
0000
0000
0100
0000
0000
0000
1000
0000
0000
0010
0000
0000
0000
0000
0000
0000
0000
0001
0000
0000
0000
0000
0000
0000
0110
0000
0000
0000
0000
0000
0000
0000
0000
0000
0000
0000
0000
0000
0000
0000
0000
0000
0001
0000
0000
0010
0000
0000
0100
0000
0000
0000
0000
0000
0000
0000
0000
,
0000
0000
0000
0010
0000
0000
0000
0000
0000
0000
0000
0000
0000
0000
0000
0000
0000
0000
0000
0000
0000
0000
0000
0000
0000
0000
0000
0100
0000
0000
0000
0000
0000
0000
0000
0000
0000
0000
0000
0000
0000
0000
0000
0000
0000
0000
0000
0000
0000
0000
0000
0000
1000
0000
0000
0000
0000
0000
0000
0000
0000
0000
0000
0000
0000
0000
0000
0000
0000
0000
0000
0000
0000
0000
0000
0000
1000
0000
0000
0000
0000
0000
0000
0000
0000
0000
0000
0000
0000
0000
0000
0000
0000
0110
0000
0000
0000
0000
0000
0000
0000
0000
0000
0000
0000
0000
0000
0000
0000
0000
0000
0000
0000
0000
0000
0000
0000
0000
0000
0000
0000
0000
0000
0000
0000
0000
0000
0000
0000
0000
0000
0000
0000
0000
0000
0000
0000
0000
0000
0000
0000
0000
0000
0000
0110
0000
0000
0000
0000
0000
0000
0000
0000
0000
0000
0000
0000
0000
0000
1000
0000
0000
0000
0000
0000
0000
0000
0000
0000
0000
0000
0100
0000
0000
0000
0000
0000
0000
0000
0000
0000
0000
0000
0010
0000
0000
0000
0000
0000
0000
0000
0000
,
0001
0000
0000
0000
0010
0000
0000
0000
0000
0100
0000
0000
0000
1000
0000
0000
0010
0000
0000
0000
0000
0000
0000
0000
0001
0000
0000
0000
0000
0000
0000
0110
0000
0000
0000
0000
0000
0000
0000
0000
0000
0000
0000
0000
0000
0000
0000
0000
0110
0000
0000
0000
0000
0000
0000
0000
0000
0000
0000
0000
0000
0000
0000
0000
,
0000
0110
0000
0000
0000
0000
0000
0000
0000
0000
0000
0000
0000
0000
0000
0000
0011
0100
0000
0000
0000
0000
0000
0000
0011
0100
0000
0000
0000
0000
0000
0000
1001
0100
0000
0000
0000
0000
0000
0000
0000
0000
0000
0000
0000
0000
0000
0000
0110
0000
0000
0000
0000
1000
0000
0000
0001
0100
0000
0000
0000
0010
0000
0000
,
0001
0000
0000
0000
0010
0000
0000
0000
1000
0100
0000
0000
0000
1000
0000
0000
0010
0000
0000
0000
0000
0000
0000
0000
0001
0000
0000
0000
0000
0000
0000
0110
1000
0000
0000
0000
0000
0000
0000
0000
0010
0000
0000
0000
0000
0000
0000
0000
1000
0001
0000
0000
0010
0000
0000
0100
0001
0000
0000
0000
0000
0000
0000
0000
,
1000
0000
0000
0010
0000
0000
0000
0000
0000
0000
0000
0000
0000
0000
0000
0000
0000
0000
0000
0000
0000
0000
0000
0000
0001
0000
0000
0100
0000
0000
0000
0000
0000
0000
0000
0000
0000
0000
0000
0000
0000
0000
0000
0000
0000
0000
0000
0000
0010
0000
0000
0000
1000
0000
0000
0000
0000
0000
0000
0000
0000
0000
0000
0000
0000
0000
0000
0000
0000
0000
0000
0000
0001
0000
0000
0000
1000
0000
0000
0000
0000
0000
0000
0000
0000
0000
0000
0000
0000
0000
0000
0000
0000
0110
0000
0000
1000
0000
0000
0000
0000
0000
0000
0000
0000
0000
0000
0000
0000
0000
0000
0000
0000
0000
0000
0000
0000
0000
0000
0000
0001
0000
0000
0000
0000
0000
0000
0000
0000
0000
0000
0000
0000
0000
0000
0000
0000
0000
0000
0000
0000
0000
0000
0000
0110
0000
0000
0000
0000
0000
0000
0000
0000
0000
0000
0000
0000
0000
0000
1000
0000
0000
0000
0000
0000
0000
0000
0000
0001
0000
0000
0100
0000
0000
0000
0000
0000
0000
0000
0000
0000
0000
0000
0010
0000
0000
0000
0000
0000
0000
0000
0000
,
0001
0000
0000
0000
0010
0000
0000
0000
1000
0100
0000
0000
0000
1000
0000
0000
0010
0000
0000
0000
0000
0000
0000
0000
0001
0000
0000
0000
0000
0000
0000
0110
1000
0000
0000
0000
0000
0000
0000
0000
0010
0000
0000
0000
0000
0000
0000
0000
0100
0001
0000
0000
0010
0000
0000
0100
1000
0000
0000
0000
0000
0000
0000
0000
,
0001
0010
0000
0000
0000
0000
0000
0000
0010
0100
0000
0000
0000
0000
0000
0000
0100
1001
0000
0000
0000
0000
0000
0000
0010
0000
0000
0000
0000
0000
0000
0000
1001
0000
0000
0000
0000
0000
0000
0000
0001
0000
0000
0000
0000
0000
0000
0000
0110
0000
0000
0000
0000
1000
0000
0000
0001
0100
0000
0000
0000
0010
0000
0000
,
0001
0000
0000
0000
0010
0000
0000
0000
1000
0100
0000
0000
0000
1000
0000
0000
0010
0000
0000
0000
0000
0000
0000
0000
0001
0000
0000
0000
0000
0000
0000
0110
1000
0000
0000
0000
0000
0000
0000
0000
0010
0000
0000
0000
0000
0000
0000
0000
1000
0001
0000
0000
0010
0000
0000
0100
0001
0000
0000
0000
0000
0000
0000
0000
,
1000
0000
0000
0010
0000
0000
0000
0000
0000
0000
0000
0000
0000
0000
0000
0000
0000
0000
0000
0000
0000
0000
0000
0000
0001
0000
0000
0100
0000
0000
0000
0000
0000
0000
0000
0000
0000
0000
0000
0000
0000
0000
0000
0000
0000
0000
0000
0000
0010
0000
0000
0000
1000
0000
0000
0000
0000
0000
0000
0000
0000
0000
0000
0000
0000
0000
0000
0000
0000
0000
0000
0000
0100
0000
0000
0000
1000
0000
0000
0000
0000
0000
0000
0000
0000
0000
0000
0000
0000
0000
0000
0000
0000
0110
0000
0000
0001
0000
0000
0000
0000
0000
0000
0000
0000
0000
0000
0000
0000
0000
0000
0000
0000
0000
0000
0000
0000
0000
0000
0000
1000
0000
0000
0000
0000
0000
0000
0000
0000
0000
0000
0000
0000
0000
0000
0000
0000
0000
0000
0000
0000
0000
0000
0000
0110
0000
0000
0000
0000
0000
0000
0000
0000
0000
0000
0000
0000
0000
0000
1000
0000
0000
0000
0000
0000
0000
0000
0000
0001
0000
0000
0100
0000
0000
0000
0000
0000
0000
0000
0000
0000
0000
0000
0010
0000
0000
0000
0000
0000
0000
0000
0000
,
0001
0000
0000
0000
0010
0000
0000
0000
0001
0100
0000
0000
0000
1000
0000
0000
0010
0000
0000
0000
0000
0000
0000
0000
0001
0000
0000
0000
0000
0000
0000
0110
1000
0000
0000
0000
0000
0000
0000
0000
0001
0000
0000
0000
0000
0000
0000
0000
0110
0000
0000
0000
0000
0000
0000
0000
1000
0000
0000
0000
0000
0000
0000
0000
,
1000
0110
0000
0000
0000
0000
0000
0000
0001
0000
0000
0000
0000
0000
0000
0000
0011
0000
0000
0000
0011
0000
0000
0000
0110
0000
0000
0000
0110
0000
0000
0000
1001
0000
0000
0000
0000
0000
0000
0000
0000
0000
0000
0000
0000
0000
0000
0000
0111
0000
0000
0000
0000
0000
0000
0000
0100
0000
0000
0000
0000
0000
0000
0000
,
0001
0100
0001
0100
0001
0100
0010
1000
,
0010
0000
0000
0000
1000
0000
0000
0000
0010
0000
0000
0000
1000
0000
0000
0000
0010
0000
0000
0000
1000
0100
0001
0010
0100
0000
0000
0000
0010
0000
0000
0000
,
0100
0010
0100
0010
0100
0010
1000
0100
,
1000
0000
0000
0000
0100
0001
0010
0100
1000
0000
0100
0000
1000
0000
0000
0000
1000
0000
0000
0000
0100
0000
0000
0000
0001
0000
0000
0000
0010
0000
0000
0000
,
0001
0010
0001
0010
0001
0010
0010
0100
,
0010
0000
0000
0000
0100
0000
0000
0000
0010
0000
0000
0000
0100
0000
0000
0000
0010
0000
0000
0000
0100
0001
1000
0010
0100
0000
0000
0000
0001
0000
0000
0000
,
0100
0001
0100
0001
0100
0001
1000
0100
,
1000
0000
0000
0000
0100
0001
0010
0100
1000
0000
0010
0000
1000
0000
0000
0000
1000
0000
0000
0000
0100
0000
0000
0000
0111
0000
0000
0000
1000
0000
0000
0000
,
0101
0010
0101
0101
1000
0110
1000
0001
,
0110
0000
0000
0000
1000
0000
0000
0000
0001
0000
0000
0000
0110
0000
0000
0000
1000
0000
0000
0000
0110
1000
0001
0100
1010
0000
0000
0000
0100
0000
0000
0000
,
1010
0001
0100
1010
0001
1100
0010
0001
,
1100
0000
0000
0000
0010
1000
0100
0010
0001
0000
0010
0000
1001
0000
0000
0000
0001
0000
0000
0000
0101
0000
0000
0000
0101
0000
0010
0000
0100
0000
1000
0000
,
0101
1000
0100
0010
0101
0010
0101
0010
0100
1000
0110
1000
0001
1000
0001
1000
,
0110
0000
0001
0000
0010
0000
0100
0000
1000
0000
0001
0000
0110
0000
0001
0000
0010
0000
0001
0000
0110
0000
0001
0000
1010
0100
0010
0001
1000
0100
0010
0001
,
1000
0100
0010
0001
1000
0100
0010
0001
1000
0001
0010
0100
1000
0001
0010
0100
1000
0001
0010
0100
1000
0001
0010
0100
1021
0000
0000
0000
0000
0000
0000
0000
,
0000
0000
0000
0000
1000
0000
0000
0000
0000
0000
0000
0000
0000
0000
0000
0000
0000
0000
0000
0000
0000
0000
0000
0000
0000
0000
0000
0000
0000
0000
0000
0000
0000
0000
0000
0000
0000
0000
0000
0000
0000
0000
0000
0000
0000
0000
0000
0000
0000
0000
0000
0001
0000
0000
0000
0000
0000
0000
0000
0000
0000
0000
0000
0000
0000
0000
0000
0000
0000
0000
0000
0000
0000
0000
0000
0001
0000
0000
0000
0000
0000
0000
0000
0000
0000
0000
0000
0000
0000
0000
0000
0000
0000
0000
0000
0000
0000
0000
0000
0000
1000
0000
0000
0000
0000
0000
0000
0000
0000
0000
0000
0000
0000
0000
0000
0000
0000
0000
0000
0000
0000
0000
0000
0000
0000
0000
0000
0000
0000
0000
0000
0000
0000
0000
0000
0000
0000
0000
0000
0000
0000
0000
0000
0000
1131
0000
0000
0000
0000
0000
0000
0000
0000
0000
0000
0000
0010
0000
0000
0000
0000
0000
0000
0000
0000
0000
0000
0000
1100
0000
0000
0000
0000
0000
0000
0000
0000
0000
0000
0000
0001
0000
0000
0000
0000
0000
0000
0000
0000
0000
0000
0000
,
1010
0001
0110
0001
1100
0001
0110
1000
0101
1000
0011
0100
0001
0100
1001
0010
,
1100
0011
1100
0010
1001
0100
0010
0100
0011
1000
0110
0001
1100
0001
0010
0100
,
0011
1000
0110
0001
1100
0010
0100
0001
0110
0001
1010
0001
1100
0010
0100
0001
,
1010
0001
0010
0100
1001
0010
0100
1000
0100
0010
0001
0010
1001
0010
1100
0001
,
1010
0001
0110
0001
1100
0001
0110
1000
0101
1000
0011
0100
0001
0100
1001
0010
,
1100
0011
1100
0010
1001
0100
0010
0100
0011
1000
0110
0001
1100
0001
0010
0100
,
0011
1000
0110
0001
1100
0001
0110
1000
0110
0001
1010
0100
1010
0001
0100
0010
,
0001
0100
0001
0100
0001
0010
0001
1000
0001
0010
0001
1000
1101
0010
1100
0001
,
1010
0001
0110
0001
1100
0001
0110
1000
0101
1000
0011
0100
0001
0100
1001
0010
,
1100
0011
1100
0010
1001
0100
0010
0100
0011
1000
0110
0001
1100
0001
0010
0100
,
0011
1000
0110
0001
1100
0010
0100
0001
0110
0001
1010
0001
1100
0010
0100
0001
,
1010
0001
0010
0100
1001
0010
0100
1000
0100
0010
0001
0010
1001
0010
1100
0001
,
1010
0001
0110
0001
1100
0001
0110
1000
0101
1000
0011
0100
0001
0100
1001
0010
,
1100
0011
1100
0010
1001
0100
0010
0100
0011
1000
0110
0001
1100
0001
0010
0100
,
0011
1000
0110
0001
1100
0001
0110
1000
0110
0001
1010
0100
1010
0001
0100
0010
,
0001
0100
0001
0100
0001
0010
0001
1000
0001
0010
0001
1000
1101
0010
1100
0001
,
1010
0001
0110
0001
1100
0001
0110
1000
0101
1000
0011
0100
0001
0100
1001
0010
,
1100
0011
1100
0010
1001
0100
0010
0100
0011
1000
0110
0001
1100
0001
0010
0100
,
0011
1000
0110
0001
1100
0010
0100
0001
0110
0001
1010
0001
1100
0010
0100
0001
,
1010
0001
0010
0100
1001
0010
0100
1000
0100
0010
0001
0010
1001
0010
1100
0001
,
1010
0001
0110
0001
1100
0001
0110
1000
0101
1000
0011
0100
0001
0100
1001
0010
,
1100
0011
1100
0010
1001
0100
0010
0100
0011
1000
0110
0001
1100
0001
0010
0100
,
0011
1000
0110
0001
1100
0001
0110
1000
0110
0001
1010
0100
1010
0001
0100
0010
,
0001
0100
0001
0100
0001
0010
0001
1000
0001
0010
0001
1000
1101
0010
1100
0001
,
1010
0001
0110
0001
1100
0001
0110
1000
0101
1000
0011
0100
0001
0100
1001
0010
,
1100
0011
1100
0010
1001
0100
0010
0100
0011
1000
0110
0001
1100
0001
0010
0100
,
0011
1000
0110
0001
1100
0010
0100
0001
0110
0001
1010
0001
1100
0010
0100
0001
,
1010
0001
0010
0100
1001
0010
0100
1000
0100
0010
0001
0010
1001
0010
1100
0001
,
1010
0001
0110
0001
1100
0001
0110
1000
0101
1000
0011
0100
0001
0100
1001
0010
,
1100
0011
1100
0010
1001
0100
0010
0100
0011
1000
0110
0001
1100
0001
0010
0100
,
0011
1000
0110
0001
1100
0001
0110
1000
0110
0001
1010
0100
1010
0001
0100
0010
,
1000
0000
0000
0000
0000
0000
0001
0000
0000
0000
0000
0000
0010
0000
0000
0000
0000
0000
0100
0000
0000
0000
0000
0000
1000
0000
0000
0000
0000
0000
0001
0000
0000
0000
0000
0000
0010
0000
0000
0000
0000
0000
0100
0000
0000
0000
0000
0000
1000
0000
0000
0000
0000
0000
0001
0000
0000
0000
0000
0000
0010
0000
0000
0000
0000
0000
0100
0000
0000
0000
0000
0000
1000
0000
0000
0000
0000
0000
0001
0000
0000
0000
0000
0000
0010
0000
0000
0000
0000
0000
0100
0000
0000
0000
0000
0000
1000
0000
0000
0000
0000
0000
0001
0000
0000
0000
0000
0000
0010
0000
0000
0000
0000
0000
0100
0000
0000
0000
0000
0000
1000
0000
0000
0000
0000
0000
0001
0000
0000
0000
0000
0000
0010
0000
0000
0000
0000
0000
0100
0000
0000
0000
0000
0000
1000
0022
0000
0000
0000
0000
0000
0000
0000
0000
0000
0000
0000
0000
0000
0000
0000
0000
0000
0000
0000
0000
0000
0000
0000
0000
0000
0000
0000
0000
0000
0000
0000
0000
0000
0000
0000
0000
0000
0000
0000
0000
0000
0000
0000
0000
0000
0000
,
0000
0030
0000
0000
,
0000
0000
0000
0000
,
0003
MMMM
M000
M000
,
M000
MMMM
0000
MMMM
,
M00M
M00M
M00M
MMMM
,
0000
MMMM
M000
M000
,
M000
MMMM
0000
M00M
,
M0M0
MM00
MM00
M0M0
,
M00M
0000
MMMM
M000
,
MMMM
000M
MMMM
0000
,
M000
M000
M000
M000
,
MMMM
0000
MMMM
M00M
,
M00M
M00M
MMMM
0000
,
M000
M000
M000
M000
,
MMMM
0000
0000
0000
0000
0000
0000
0000
M000
0M00
00M0
000M
M000
0M00
00M0
000M
,
M000
0M00
00M0
000M
M000
0M00
00M0
000M
M000
0M00
00M0
000M
1110
0000
0010
0000
,
1110
0100
0111
0010
1110
0111
0001
0111
,
1110
0100
0111
0001
1101
1000
1110
0010
,
0111
0001
1101
1000
1110
1011
0010
1011
,
1110
0100
0111
0001
1101
1000
1110
0010
,
1110
0100
0111
0100
1110
0111
0010
0111
,
1110
0100
0111
0001
1101
1000
1110
0010
,
0111
0100
1101
1000
1110
1011
0001
1011
,
1110
0010
0111
0100
1101
1000
1110
0010
,
1110
0100
0111
0010
1110
0111
0001
0111
,
1110
0100
0111
0001
1101
0100
1110
0010
,
0111
0100
1101
1000
1110
1011
0001
1011
,
1110
0100
0111
0001
1101
0100
1110
1000
,
1110
0010
0111
0100
1110
0111
0010
0111
,
1110
0100
0111
0001
1101
0100
1110
0010
,
0111
0001
1101
0100
1110
1011
0001
1011
,
1110
0100
0111
0001
1101
1000
1111
1010
,
1110
0000
0000
0000
0101
0000
0000
0000
0111
0000
0000
0000
1001
0100
0010
0001
1110
0000
0000
0000
0111
0000
0000
0000
1001
0000
0000
0000
0111
0000
0000
0000
,
1110
0000
0000
0000
0101
0010
1000
0000
0111
0000
0000
0000
1001
0000
0000
0000
1101
0010
0100
0001
1010
0000
0000
0000
1110
0000
0000
0000
1010
0000
0000
0000
,
0111
0000
0000
0000
0011
0000
0000
0000
1101
0000
0000
0000
1001
0100
0010
0001
1110
0000
0000
0000
1011
0000
0000
0000
0110
0000
0000
0000
1011
0000
0000
0000
,
1110
0000
0000
0000
0101
0010
1000
0000
0111
0000
0000
0000
0101
0000
0000
0000
1101
0010
0100
0001
1010
0000
0000
0000
0111
0000
0000
0000
1010
0000
0000
0000
,
1110
0000
0000
0000
0110
0000
0000
0000
0111
0000
0000
0000
1001
0100
0010
0001
1110
0000
0000
0000
0111
0000
0000
0000
1001
0000
0000
0000
0111
0000
0000
0000
,
1110
0000
0000
0000
0101
0010
1000
0000
0111
0000
0000
0000
1001
0000
0000
0000
1101
0010
0100
0001
1010
0000
0000
0000
1110
0000
0000
0000
1010
0000
0000
0000
,
0111
0000
0000
0000
0011
0000
0000
0000
1101
0000
0000
0000
1001
0100
0010
0001
1110
0000
0000
0000
1011
0000
0000
0000
0110
0000
0000
0000
1011
0000
0000
0000
,
1110
0000
0000
0000
0101
0010
1000
0000
0111
0000
0000
0000
0011
0000
0000
0000
1101
0010
0100
0001
1010
0000
0000
0000
0111
0000
0000
0000
0110
0000
0000
0000
,
1110
0000
0000
0000
0101
0000
0000
0000
0111
0000
0000
0000
1001
0100
0010
0001
1110
0000
0000
0000
0111
0000
0000
0000
1001
0000
0000
0000
0111
0000
0000
0000
,
1110
0000
0000
0000
0101
0010
1000
0000
0111
0000
0000
0000
1001
0000
0000
0000
1101
0010
0100
0001
1010
0000
0000
0000
1110
0000
0000
0000
0110
0000
0000
0000
,
0111
0000
0000
0000
0101
0000
0000
0000
1101
0000
0000
0000
1001
0100
0010
0001
1110
0000
0000
0000
1011
0000
0000
0000
0110
0000
0000
0000
1011
0000
0000
0000
,
1110
0000
0000
0000
0101
0010
1000
0000
0111
0000
0000
0000
0011
0000
0000
0000
1101
0010
0100
0001
1010
0000
0000
0000
1111
0000
0000
0000
0011
0000
0000
0000
,
1110
0000
0000
0000
1100
0000
0000
0000
0111
0000
0000
0000
1001
0100
0010
0001
1110
0000
0000
0000
0111
0000
0000
0000
1001
0000
0000
0000
0111
0000
0000
0000
,
1110
0000
0000
0000
0101
0010
1000
0000
0111
0000
0000
0000
0011
0000
0000
0000
1101
0010
0100
0001
1010
0000
0000
0000
1110
0000
0000
0000
0110
0000
0000
0000
,
1011
0000
0000
0000
1100
0000
0000
0000
1000
0010
0100
0001
1000
0010
0100
0001
1000
0010
0100
0001
1000
0010
0100
0001
1000
0010
0100
0001
1000
0010
0100
0001
,
1000
0010
0100
0001
1000
0010
0100
0001
1000
0010
0100
0001
1000
0010
0100
0001
1000
0010
0100
0001
1000
0010
0100
0001
1110
0000
0000
0000
0100
0000
0000
0000
,
0010
1000
0100
0010
0100
0001
0000
0010
,
0010
0001
0010
0100
0000
0000
1000
0000
0000
0000
0000
0000
0010
0000
0000
0010
0000
0000
0100
0000
0000
0000
0000
0000
,
0010
0010
0100
0000
0100
0100
1000
0000
,
0100
1000
0010
0000
1000
0000
1000
0100
,
0010
1000
0100
0010
0100
0001
0000
0010
,
0010
0001
0010
0100
0000
0000
1000
0000
0000
0000
0000
0000
0010
0000
0000
0010
0000
0000
0001
0000
0000
0000
0000
0000
,
0010
0010
0001
0000
0100
0100
0010
0000
,
0010
0100
0000
0010
0100
1000
1000
0100
,
0010
1000
0100
0010
0100
0001
0000
0010
,
0010
0001
0010
0100
0000
0000
1000
0000
0000
0000
0000
0000
0010
0000
0000
0010
0000
0000
0100
0000
0000
0000
0000
0000
,
0010
0010
0100
0000
0100
0100
1000
0000
,
0100
1000
0010
0000
1000
0000
1000
0100
,
0010
1000
0100
0010
0100
0001
0000
0010
,
0010
0001
0010
0100
0000
0000
1000
0000
0000
0000
0000
0000
0010
0000
0000
0010
0000
0000
0001
0000
0000
0000
0000
0000
,
0010
0010
0001
0000
0100
0100
0010
0000
,
0010
0100
0000
0010
0100
1000
1011
0100
,
0010
1000
0100
0010
0100
0001
0000
0010
,
0010
0001
0010
0100
0000
0000
1000
0000
0000
0000
0000
0000
0010
0000
0000
0010
0000
0000
0100
0000
0000
0000
0000
0000
,
0010
0010
0100
0000
0100
0100
1000
0000
,
0100
1000
0010
0000
1000
0000
1000
0100
,
0010
1000
0100
0010
0100
0001
0000
0010
,
0010
0001
0010
0100
0000
0000
1000
0000
0000
0000
0000
0000
0010
0000
0000
0010
0000
0000
0001
0000
0000
0000
0000
0000
,
0010
0000
0000
0000
0010
0000
0000
0000
0001
0010
0100
1000
0001
0010
0100
1000
0001
0010
0100
1000
0001
0010
0100
1000
0001
0010
1000
0100
0001
0010
1000
0100
,
0001
0010
1000
0100
0001
0010
1000
0100
0010
0001
1000
0100
0010
0001
1000
0100
0010
0001
1000
0100
0010
0001
1000
0100
0011
0000
0000
0000
0011
0000
0000
0000
,
1001
1001
1100
1100
0110
0110
0011
0011
,
0110
0110
0011
0011
0110
0110
1100
1100
,
1010
1010
0110
0110
0011
0011
1001
1001
,
1010
0000
1010
0000
0101
0000
0101
0000
0110
0000
0110
0000
1100
0010
1100
0010
,
1001
0010
1001
0100
0011
0100
0011
1000
0101
1000
0101
0010
1100
0010
1100
0001
,
0110
0000
0001
0000
0110
0000
1000
0000
0011
0000
1000
0000
0011
0000
1000
0000
0101
0000
0010
0000
0101
0000
0010
0000
1001
0010
0100
1000
0001
0010
0100
1000
,
0001
0010
0100
1000
0001
0010
0100
1000
0001
0010
0100
1000
0001
0010
0100
1000
0001
0010
0100
1000
0001
0010
0100
1000
0001
1000
0100
0010
0001
1000
0100
0010
,
0001
1000
0100
0010
0001
1000
0100
0010
0001
1000
0100
0010
0001
1000
0100
0010
0001
1000
0100
0010
0001
1000
0100
0010
1101
0000
0000
0000
1101
0000
0000
0000
,
1101
1121
0000
0000
0000
0000
1131
0100
,
0111
0010
1110
0100
0111
1110
1000
1110
,
0111
0000
0000
0000
0010
0000
0000
0000
1110
0000
0000
0000
1000
0000
0000
0000
1011
0000
0000
0000
2111
3000
0000
0000
0111
0000
0000
0000
0100
0000
0000
0000
,
1110
1000
1011
0001
0111
1101
0100
1101
,
0111
0000
0000
0000
0010
0000
0000
0000
1110
0000
0000
0000
1000
0000
0000
0000
1011
0000
0000
0000
2111
3000
0000
0000
0111
0000
0000
0000
0100
0000
0000
0000
,
0111
0010
1110
0010
0111
1110
0100
1110
,
0111
0000
0000
0000
0010
0000
0000
0000
1110
0000
0000
0000
1000
0000
0000
0000
1011
0000
0000
0000
2111
3000
0000
0000
0111
0000
0000
0000
0100
0000
0000
0000
,
1110
0010
1011
0001
0111
1101
1000
1101
,
0111
0000
0000
0000
0100
0000
0000
0000
1110
0000
0000
0000
0010
0000
0100
0000
1011
0000
0000
0000
1112
0003
1000
0000
0111
0000
0000
0000
0100
0000
0000
0000
,
0111
0010
1110
0100
0111
1110
1000
1110
,
0111
0000
0000
0000
0010
0000
0000
0000
1110
0000
0000
0000
1000
0000
0000
0000
1011
0000
0000
0000
2111
3000
0000
0000
0111
0000
0000
0000
0100
0000
0000
0000
,
1110
0010
1011
0001
0111
1101
1000
1101
,
0111
0000
0000
0000
0010
0000
0000
0000
1110
0000
0000
0000
1000
0000
0000
0000
1011
0000
0000
0000
2111
3000
0000
0000
0111
0000
0000
0000
0001
0000
0000
0000
,
0111
0100
1110
0010
0111
1110
0100
1110
,
0111
0000
0000
0000
0010
0000
0000
0000
1110
0000
0000
0000
1000
0000
0000
0000
1011
0000
0000
0000
0010
0000
0000
0000
0111
0000
0000
0000
2111
3000
0000
0000
,
1110
0000
0000
0000
1000
0000
0000
0000
1011
0000
0000
0000
0010
0000
0000
0000
0111
0000
0000
0000
1101
0000
0000
0000
1121
0030
0000
0000
1101
0000
0000
0000
,
0111
0000
0010
0000
1110
0000
1000
0100
1011
0000
0001
0010
1101
0000
0010
0000
,
1110
0100
0111
0010
1110
0111
0001
0111
,
1110
0000
0000
0000
0100
0000
0000
0000
0111
0000
0000
0000
0001
0000
0000
0000
1101
0000
0000
0000
2111
3000
0000
0000
1110
0000
0000
0000
0010
0000
0000
0000
,
0111
0001
1101
1000
1110
1011
0010
1011
,
1110
0100
0111
0001
1101
1000
1110
0010
,
1110
0100
0111
0100
1110
0111
0010
0111
,
1110
0100
0111
0001
1101
1000
1110
0010
,
0111
0100
1101
1000
1110
1011
0001
1011
,
1110
0000
0010
0000
0111
0000
0100
0010
1101
0000
1000
0001
1110
0000
0010
0000
,
1110
0100
0111
0010
1110
0111
0001
0111
,
1110
0100
0111
0001
1101
0100
1110
0010
,
0111
0100
1101
1000
1110
1011
0001
1011
,
1110
0100
0111
0001
1101
0100
1110
1000
,
1110
0010
0111
0100
1110
0111
0010
0111
,
1110
0100
0111
0001
1101
0100
1110
0010
,
0111
0001
1101
0100
1110
1011
0001
1011
,
1110
0000
0100
0000
0111
0000
0001
0010
1101
0000
0010
0001
1110
0000
0011
0000
,
1110
0110
0111
0011
1110
0111
0011
0111
,
1110
0001
0010
1100
0000
0000
0111
0000
0000
0001
0000
0000
1101
0000
0000
1100
0000
0000
1110
0000
0000
0010
0000
0000
,
0111
0011
1101
1000
1110
1011
0110
1011
,
1110
0110
0111
0001
1101
1100
1110
0010
,
1110
0101
0111
0110
1110
0111
1010
0111
,
1110
0001
0010
1100
0000
0000
0111
0000
0000
0001
0000
0000
1101
0000
0000
1100
0000
0000
1110
0000
0000
0010
0000
0000
,
0111
0110
1101
1000
1110
1011
0101
1011
,
1110
0011
0111
0110
1101
1100
1110
0011
,
1110
0110
0111
1010
1110
0111
1001
0111
,
1110
0001
1000
0110
0000
0000
0111
0000
0000
0001
0000
0000
1101
0000
0000
0110
0000
0000
1110
0000
0000
0010
0000
0000
,
0111
0101
1101
1000
1110
1011
0101
1011
,
1110
0110
0111
0001
1101
0100
1110
1010
,
1110
0011
0111
1100
1110
0111
0010
0111
,
1110
0001
1000
0110
0000
0000
0111
0000
0000
0001
0000
0000
1101
0000
0000
0110
0000
0000
1110
0000
0000
0010
0000
0000
,
0111
0011
1101
0100
1110
1011
0101
1011
,
1110
0000
0100
1000
0111
0000
0001
0010
1101
0000
1000
0001
1110
0000
0011
0000
,
1110
0110
0111
0011
1110
0111
0011
0111
,
1110
0001
0010
1100
0000
0000
0111
0000
0000
0001
0000
0000
1101
0000
0000
1100
0000
0000
1110
0000
0000
0010
0000
0000
,
0111
0011
1101
1000
1110
1011
0110
1011
,
1110
0110
0111
0001
1101
1000
1110
0011
,
1110
0110
0111
1100
1110
0111
0110
0111
,
1110
0001
0010
1100
0000
0000
0111
0000
0000
0001
0000
0000
1101
0000
0000
1001
0000
0000
1110
0000
0000
0010
0000
0000
,
0111
0110
1101
1000
1110
1011
0101
1011
,
1110
0000
1010
0000
0111
0000
1100
0010
1101
0000
1010
0001
1110
0000
0011
0000
,
1110
0110
0111
0110
1110
0111
1001
0111
,
1110
0001
1000
0110
0000
0000
0111
0000
0000
0001
0000
0000
1101
0000
0000
0101
0000
0000
1110
0000
0000
0010
0000
0000
,
0111
0110
1101
1000
1110
1011
0101
1011
,
1110
0110
0111
0001
1101
0100
1110
1110
,
1110
0111
0111
0111
1101
1101
1101
1011
,
1011
0000
0000
0000
1011
0000
0000
0000
1110
0000
0000
0000
1011
0000
0000
0000
1101
0000
0000
0000
0111
0000
0000
0000
0001
0100
0010
1000
0001
0100
0010
1000
,
0001
0100
0010
1000
0001
0100
0010
1000
0001
0100
0010
1000
0001
0100
0010
1000
0001
0100
0010
1000
0001
0100
0010
1000
0001
0100
0010
1000
0001
0100
0010
1000
,
0001
0100
0010
1000
0001
0100
0010
1000
0001
0100
0010
1000
0001
0100
0010
1000
0001
0100
0010
1000
0001
0100
0010
1000
0101
0000
0000
0000
0010
0000
0000
0000
,
1001
0010
1100
0001
0110
1000
0011
0100
,
1001
0100
1010
0001
1100
0001
0110
1000
,
0011
0100
1001
0100
1010
0001
1100
0001
,
0110
1000
0011
0100
1010
0001
1100
1100
,
0110
0110
0011
0011
1001
1001
0101
0101
,
0110
0000
0110
0000
1010
0000
1010
0000
0101
0000
0101
0000
0011
0100
0011
0100
,
0011
0100
0011
0100
1001
0100
1001
0100
1001
0100
1001
0100
1011
0000
1011
0000
,
0000
0000
0000
0000
0000
0000
0000
0000
0000
0000
0000
0000
0000
0000
0000
0000
0000
0000
0000
0000
0000
0000
0000
0000
0000
0000
0000
0000
0000
0000
0000
0000
0000
0000
0000
0000
0000
0000
0000
0000
0000
0000
0000
0000
0000
0000
0000
0000
0111
0000
0000
0000
0000
1000
0000
0000
0000
0100
0000
0000
0000
0010
0000
0000
,
0001
0000
0000
0000
0010
0000
0000
0000
0000
0100
0000
0000
0000
1000
0000
0000
0111
0000
0000
0000
0000
0000
0000
0000
0001
0000
0000
0000
0000
0000
0000
0110
0000
0000
0000
0000
0000
0000
0000
0000
0000
0000
0000
0000
0000
0000
0000
0000
1110
0001
0000
0000
0010
0000
0000
0100
0000
0000
0000
0000
0000
0000
0000
0000
,
0000
0000
0000
0010
0000
0000
0000
0000
0000
0000
0000
0000
0000
0000
0000
0000
0000
0000
0000
0000
0000
0000
0000
0000
0000
0000
0000
0100
0000
0000
0000
0000
0000
0000
0000
0000
0000
0000
0000
0000
0000
0000
0000
0000
0000
0000
0000
0000
0111
0000
0000
0000
1000
0000
0000
0000
0000
0000
0000
0000
0000
0000
0000
0000
0000
0000
0000
0000
0000
0000
0000
0000
0000
0000
0000
0000
1000
0000
0000
0000
0000
0000
0000
0000
0000
0000
0000
0000
0000
0000
0000
0000
0000
0110
0000
0000
0000
0000
0000
0000
0000
0000
0000
0000
0000
0000
0000
0000
0000
0000
0000
0000
0000
0000
0000
0000
0000
0000
0000
0000
0000
0000
0000
0000
0000
0000
0000
0000
0000
0000
0000
0000
0000
0000
0000
0000
0000
0000
0000
0000
0000
0000
0000
0000
0110
0000
0000
0000
0000
0000
0000
0000
0000
0000
0000
0000
0000
0000
0000
1000
0000
0000
0000
0000
0000
0000
0000
0000
0000
0000
0000
0100
0000
0000
0000
0000
0000
0000
0000
0000
0000
0000
0000
0010
0000
0000
0000
0000
0000
0000
0000
0000
,
0001
0000
0000
0000
0010
0000
0000
0000
0000
0100
0000
0000
0000
1000
0000
0000
0011
0000
0000
0000
0000
0000
0000
0000
0001
0000
0000
0000
0000
0000
0000
0110
0000
0000
0000
0000
0000
0000
0000
0000
0000
0000
0000
0000
0000
0000
0000
0000
1100
0001
0000
0000
0010
0000
0000
0100
0000
0000
0000
0000
0000
0000
0000
0000
,
0000
0010
0000
0000
0000
0000
0000
0000
0000
0100
0000
0000
0000
0000
0000
0000
0010
1001
0000
0000
0000
0000
0000
0000
0000
0000
0000
0000
0000
0000
0000
0000
1001
0000
0000
0000
0000
0000
0000
0000
0000
0000
0000
0000
0000
0000
0000
0000
0110
0000
0000
0000
0000
1000
0000
0000
0000
0100
0000
0000
0000
0010
0000
0000
,
0001
0000
0000
0000
0010
0000
0000
0000
0000
0100
0000
0000
0000
1000
0000
0000
0010
0000
0000
0000
0000
0000
0000
0000
0001
0000
0000
0000
0000
0000
0000
0110
0000
0000
0000
0000
0000
0000
0000
0000
0000
0000
0000
0000
0000
0000
0000
0000
0000
0001
0000
0000
0010
0000
0000
0100
0000
0000
0000
0000
0000
0000
0000
0000
,
0000
0000
0000
0010
0000
0000
0000
0000
0000
0000
0000
0000
0000
0000
0000
0000
0000
0000
0000
0000
0000
0000
0000
0000
0000
0000
0000
0100
0000
0000
0000
0000
0000
0000
0000
0000
0000
0000
0000
0000
0000
0000
0000
0000
0000
0000
0000
0000
0000
0000
0000
0000
1000
0000
0000
0000
0000
0000
0000
0000
0000
0000
0000
0000
0000
0000
0000
0000
0000
0000
0000
0000
0000
0000
0000
0000
1000
0000
0000
0000
0000
0000
0000
0000
0000
0000
0000
0000
0000
0000
0000
0000
0000
0110
0000
0000
0000
0000
0000
0000
0000
0000
0000
0000
0000
0000
0000
0000
0000
0000
0000
0000
0000
0000
0000
0000
0000
0000
0000
0000
0000
0000
0000
0000
0000
0000
0000
0000
0000
0000
0000
0000
0000
0000
0000
0000
0000
0000
0000
0000
0000
0000
0000
0000
0110
0000
0000
0000
0000
0000
0000
0000
0000
0000
0000
0000
0000
0000
0000
1000
0000
0000
0000
0000
0000
0000
0000
0000
0000
0000
0000
0100
0000
0000
0000
0000
0000
0000
0000
0000
0000
0000
0000
0010
0000
0000
0000
0000
0000
0000
0000
0000
,
0001
0000
0000
0000
0010
0000
0000
0000
0000
0100
0000
0000
0000
1000
0000
0000
0010
0000
0000
0000
0000
0000
0000
0000
0001
0000
0000
0000
0000
0000
0000
0110
0000
0000
0000
0000
0000
0000
0000
0000
0000
0000
0000
0000
0000
0000
0000
0000
0110
0000
0000
0000
0000
0000
0000
0000
0000
0000
0000
0000
0000
0000
0000
0000
,
0000
0110
0000
0000
0000
0000
0000
0000
0000
0000
0000
0000
0000
0000
0000
0000
0011
0000
0000
0000
0011
0000
0000
0000
0110
0000
0000
0000
0110
0000
0000
0000
1001
0000
0000
0000
0000
0000
0000
0000
0000
0000
0000
0000
0000
0000
0000
0000
0110
0001
0000
0000
0000
0000
0000
0000
0000
0000
0000
0000
0000
0000
0000
0000
,
0110
1000
0000
0000
0000
0000
0000
0000
0000
0000
0000
0000
0000
0000
0000
0000
0110
0001
0000
0000
0000
0000
0000
0000
0000
0000
0000
0000
0000
0000
0000
0000
0110
1000
0000
0000
0000
0000
0000
0000
0110
0000
0000
0000
1000
0000
0000
0000
0110
0001
0000
0000
0000
0000
0000
0000
0000
0000
0000
0000
0000
0000
0000
0000
,
0110
1000
0000
0000
0000
0000
0000
0000
0000
0000
0000
0000
0000
0000
0000
0000
0110
0001
0000
0000
0000
0000
0000
0000
0000
0000
0000
0000
0000
0000
0000
0000
0110
1000
0000
0000
0000
0000
0000
0000
0110
0000
0000
0000
1000
0000
0000
0000
0110
0001
0000
0000
0000
0000
0000
0000
0000
0000
0000
0000
0000
0000
0000
0000
,
0110
1000
0000
0000
0000
0000
0000
0000
0000
0000
0000
0000
0000
0000
0000
0000
0110
0001
0000
0000
0000
0000
0000
0000
0000
0000
0000
0000
0000
0000
0000
0000
0110
1000
0000
0000
0000
0000
0000
0000
0110
0000
0000
0000
1000
0000
0000
0000
0110
0001
0000
0000
0000
0000
0000
0000
0000
0000
0000
0000
0000
0000
0000
0000
,
0110
1000
0000
0000
0000
0000
0000
0000
0000
0000
0000
0000
0000
0000
0000
0000
0110
0001
0000
0000
1000
0000
0000
0000
0010
0000
0000
0000
0001
0000
0000
0000
0110
1000
0000
0000
0000
0000
0000
0000
0110
0000
0000
0000
1000
0000
0000
0000
0110
0001
0000
0000
0000
0000
0000
0000
0000
0000
0000
0000
0000
0000
0000
0000
,
0110
1000
0000
0000
0000
0000
0000
0000
0000
0000
0000
0000
0000
0000
0000
0000
0110
0001
0000
0000
0000
0000
0000
0000
0000
0000
0000
0000
0000
0000
0000
0000
0110
1000
0000
0000
0000
0000
0000
0000
0110
0000
0000
0000
1000
0000
0000
0000
0110
0001
0000
0000
0000
0000
0000
0000
0000
0000
0000
0000
0000
0000
0000
0000
,
0110
1000
0000
0000
0000
0000
0000
0000
0000
0000
0000
0000
0000
0000
0000
0000
0110
0001
0000
0000
0000
0000
0000
0000
0000
0000
0000
0000
0000
0000
0000
0000
0110
1000
0000
0000
0000
0000
0000
0000
0110
0000
0000
0000
1000
0000
0000
0000
0110
0001
0000
0000
0000
0000
0000
0000
0000
0000
0000
0000
0000
0000
0000
0000
,
0110
1000
0000
0000
0000
0000
0000
0000
0000
0000
0000
0000
0000
0000
0000
0000
0110
0001
0000
0000
0000
0000
0000
0000
0000
0000
0000
0000
0000
0000
0000
0000
0110
1000
0000
0000
0000
0000
0000
0000
0110
0000
0000
0000
0001
0000
0000
0000
1110
0001
0000
0000
0000
0000
0000
0000
0000
0000
0000
0000
0000
0000
0000
0000
,
0000
1000
0000
0000
0000
0000
0000
0000
0000
0000
0000
0000
0000
0000
0000
0000
0110
0000
0000
0000
0110
0000
0000
0000
1010
0000
0000
0000
1010
0000
0000
0000
1100
0000
0000
0000
0000
0000
0000
0000
0000
0000
0000
0000
0000
0000
0000
0000
1001
0000
0000
0000
0000
0000
0000
0000
0000
0000
0000
0000
0000
0000
0000
0000
,
1001
0000
0011
0011
0000
0101
0000
0000
,
0101
0000
0001
0110
0000
0001
1010
0000
,
1010
0000
0000
1010
0000
1100
0000
0000
,
1100
0000
0000
1100
0000
1100
1001
0000
,
1001
0000
0011
0011
0000
0101
0000
0000
,
0101
0000
0001
0110
0000
0001
1010
0000
,
1010
0000
0000
1010
0000
1100
0000
0000
,
1100
0000
0010
0000
0001
0000
1100
0010
0001
0000
1100
0010
1001
0000
0000
0000
,
1001
0000
0011
0011
0000
0101
0000
0000
,
0101
0000
0001
0110
0000
0001
1010
0000
,
1010
0000
0000
1010
0000
1100
0000
0000
,
1100
0000
0000
1100
0000
1100
1001
0000
,
1001
0000
0011
0011
0000
0101
0000
0000
,
0101
0000
0001
0110
0000
0001
1010
0000
,
1010
0000
0000
1010
0000
1100
0000
0000
,
1100
0000
0000
0000
0000
0000
0000
0000
0010
0000
0000
0000
0000
0000
0000
0000
0001
0000
0000
0000
0000
0000
0000
0000
1100
0000
0000
0000
0010
0000
0000
0000
0001
0000
0000
0000
0000
0000
0000
0000
1100
0000
0000
0000
0010
0000
0000
0000
1101
0000
0000
0000
0000
1000
0000
0000
0000
0100
0000
0000
0000
0010
0000
0000
,
0001
0000
0000
0000
0010
0000
0000
0000
0000
0100
0000
0000
0000
1000
0000
0000
0010
0000
0000
0000
0000
0000
0000
0000
0001
0000
0000
0000
0000
0000
0000
0110
0000
0000
0000
0000
0000
0000
0000
0000
0000
0000
0000
0000
0000
0000
0000
0000
0000
0001
0000
0000
0010
0000
0000
0100
0000
0000
0000
0000
0000
0000
0000
0000
,
0000
0000
0000
0010
0000
0000
0000
0000
0000
0000
0000
0000
0000
0000
0000
0000
0000
0000
0000
0000
0000
0000
0000
0000
0000
0000
0000
0100
0000
0000
0000
0000
0000
0000
0000
0000
0000
0000
0000
0000
0000
0000
0000
0000
0000
0000
0000
0000
0000
0000
0000
0000
1000
0000
0000
0000
0000
0000
0000
0000
0000
0000
0000
0000
0000
0000
0000
0000
0000
0000
0000
0000
0000
0000
0000
0000
1000
0000
0000
0000
0000
0000
0000
0000
0000
0000
0000
0000
0000
0000
0000
0000
0000
0110
0000
0000
0000
0000
0000
0000
0000
0000
0000
0000
0000
0000
0000
0000
0000
0000
0000
0000
0000
0000
0000
0000
0000
0000
0000
0000
0000
0000
0000
0000
0000
0000
0000
0000
0000
0000
0000
0000
0000
0000
0000
0000
0000
0000
0000
0000
0000
0000
0000
0000
0110
0000
0000
0000
0000
0000
0000
0000
0000
0000
0000
0000
0000
0000
0000
1000
0000
0000
0000
0000
0000
0000
0000
0000
0000
0000
0000
0100
0000
0000
0000
0000
0000
0000
0000
0000
0000
0000
0000
0010
0000
0000
0000
0000
0000
0000
0000
0000
,
0001
0000
0000
0000
0010
0000
0000
0000
0000
0100
0000
0000
0000
1000
0000
0000
0010
0000
0000
0000
0000
0000
0000
0000
0001
0000
0000
0000
0000
0000
0000
0110
0000
0000
0000
0000
0000
0000
0000
0000
0000
0000
0000
0000
0000
0000
0000
0000
0000
0001
0000
0000
0010
0000
0000
0100
0000
0000
0000
0000
0000
0000
0000
0000
,
0000
0010
0000
0000
0000
0000
0000
0000
0000
0100
0000
0000
0000
0000
0000
0000
0000
1001
0000
0000
0000
0000
0000
0000
0000
0000
0000
0000
0000
0000
0000
0000
1001
0000
0000
0000
0000
0000
0000
0000
0000
0000
0000
0000
0000
0000
0000
0000
0110
0000
0000
0000
0000
1000
0000
0000
0000
0100
0000
0000
0000
0010
0000
0000
,
0001
0000
0000
0000
0010
0000
0000
0000
0000
0100
0000
0000
0000
1000
0000
0000
0010
0000
0000
0000
0000
0000
0000
0000
0001
0000
0000
0000
0000
0000
0000
0110
0000
0000
0000
0000
0000
0000
0000
0000
0000
0000
0000
0000
0000
0000
0000
0000
0000
0001
0000
0000
0010
0000
0000
0100
0000
0000
0000
0000
0000
0000
0000
0000
,
0000
0000
0000
0010
0000
0000
0000
0000
0000
0000
0000
0000
0000
0000
0000
0000
0000
0000
0000
0000
0000
0000
0000
0000
0000
0000
0000
0100
0000
0000
0000
0000
0000
0000
0000
0000
0000
0000
0000
0000
0000
0000
0000
0000
0000
0000
0000
0000
0000
0000
0000
0000
1000
0000
0000
0000
0000
0000
0000
0000
0000
0000
0000
0000
0000
0000
0000
0000
0000
0000
0000
0000
0000
0000
0000
0000
1000
0000
0000
0000
0000
0000
0000
0000
0000
0000
0000
0000
0000
0000
0000
0000
0000
0110
0000
0000
0000
0000
0000
0000
0000
0000
0000
0000
0000
0000
0000
0000
0000
0000
0000
0000
0000
0000
0000
0000
0000
0000
0000
0000
0000
0000
0000
0000
0000
0000
0000
0000
0000
0000
0000
0000
0000
0000
0000
0000
0000
0000
0000
0000
0000
0000
0000
0000
0110
0000
0000
0000
0000
0000
0000
0000
0000
0000
0000
0000
0000
0000
0000
1000
0000
0000
0000
0000
0000
0000
0000
0000
0000
0000
0000
0100
0000
0000
0000
0000
0000
0000
0000
0000
0000
0000
0000
0010
0000
0000
0000
0000
0000
0000
0000
0000
,
0001
0000
0000
0000
0010
0000
0000
0000
0000
0100
0000
0000
0000
1000
0000
0000
0010
0000
0000
0000
0000
0000
0000
0000
0001
0000
0000
0000
0000
0000
0000
0110
0000
0000
0000
0000
0000
0000
0000
0000
0000
0000
0000
0000
0000
0000
0000
0000
0110
0000
0000
0000
0000
0000
0000
0000
0000
0000
0000
0000
0000
0000
0000
0000
,
0000
0110
0000
0000
0000
0000
0000
0000
0000
0000
0000
0000
0000
0000
0000
0000
0011
0100
0000
0000
0000
0000
0000
0000
0011
0100
0000
0000
0000
0000
0000
0000
1001
0100
0000
0000
0000
0000
0000
0000
0000
0000
0000
0000
0000
0000
0000
0000
1011
0000
0000
0000
0000
0000
0000
0000
1010
0000
0000
0000
0000
0000
0000
0000
,
0110
0000
0000
0000
0000
0000
0000
0000
0110
0000
0000
0000
0000
0000
0000
0000
0101
0000
0000
0000
0000
0000
0000
0000
0101
0000
0000
0000
0000
0000
0000
0000
0011
0000
0000
0000
0000
0000
0000
0011
0000
0000
0000
0000
0000
0000
0000
0000
0001
0000
0000
0000
0000
0000
0000
0000
0101
0000
0000
0000
0000
0000
0000
0000
,
0110
1000
0100
1010
0000
0000
1100
0000
0000
0010
0000
0000
0101
0000
0000
0110
0000
0000
1010
0000
0000
0010
0000
0000
,
0101
0110
1010
0001
1100
0011
1100
0100
,
0110
0010
0011
0001
0010
0100
1101
0010
,
1000
0100
0010
0100
0010
0001
0000
0001
,
0010
0000
0000
0000
0000
0000
0000
0000
0100
0000
0000
0000
0000
0000
0000
0000
1000
0000
0000
0000
0000
0000
0000
0000
0100
0000
0000
0000
0000
0000
0000
0000
0000
0000
0000
0000
0000
0000
0000
0000
0000
0000
0000
0000
0000
0000
0000
0000
0010
0000
0000
0000
0000
0000
0000
0000
0000
0000
0000
0000
0100
0000
0000
0000
0000
0000
0000
0000
0000
0000
0000
0000
0010
0000
0000
0000
0000
0000
0000
0000
0000
0000
0000
0000
0100
0000
0000
0000
0000
0000
0000
0000
0000
0000
0000
0000
0010
0000
0000
0000
0000
0000
0000
0000
0000
0000
0000
0000
0100
0000
0000
0000
0000
0000
0000
0000
0000
0000
0000
0000
0010
0000
0000
0000
0000
0000
0000
0000
0000
0000
0000
0000
0100
0000
0000
0000
0000
0000
0000
0000
0000
0000
0000
0000
0010
0000
0000
0000
0000
0000
0100
0000
0000
0000
0000
0000
0010
0000
0000
0000
0000
0000
0100
0000
0000
0000
0000
0000
0010
0000
0000
0000
0000
0000
0100
0000
0000
0000
0000
0000
0010
0000
0000
0000
0000
0000
0100
0000
0000
0000
0000
0000
,
0010
0100
0010
0100
0010
0100
0010
0100
0010
0100
0010
0100
0010
0100
0010
0100
0010
0100
0010
0100
0010
0100
0010
0100
1011
0000
0000
0000
0002
0003
0000
0000
,
0000
0000
0000
0000
0002
0003
0000
0000
0000
0000
0000
0000
0002
0003
0000
0000
0000
0000
0000
0000
0002
0003
0000
0000
0000
0000
0000
0000
0000
0000
0000
0000
;
