#TITLE:Haunted Woods;
#SUBTITLE:[Seph Cut];
#ARTIST:Diddy Kong Racing 64;
#TITLETRANSLIT:;
#SUBTITLETRANSLIT:;
#ARTISTTRANSLIT:;
#CREDIT:;
#BANNER:../thisandthat-bn.png;
#BACKGROUND:../thisnthat-bg.png;
#LYRICSPATH:;
#CDTITLE:;
#MUSIC:Diddy Kong Racing Music Haunted Woods.ogg;
#OFFSET:-0.647;
#SAMPLESTART:47.522;
#SAMPLELENGTH:12.000;
#SELECTABLE:YES;
#BPMS:0.000=128.000;
#STOPS:;
#BGCHANGES:;
// cache tags:
#FIRSTBEAT:16.000;
#LASTBEAT:263.000;
#SONGFILENAME:Songs/Seph, Gson & Shpadoinkle's Pack of This 'n That/Haunted Woods [11]/Haunted Woods - [Seph Cut].sm;
#HASMUSIC:1;
#HASBANNER:1;
#MUSICLENGTH:105.000;
// end cache tags

//---------------dance-single - Blank----------------
#NOTES:
     dance-single:
     Blank:
     Challenge:
     11:
     1.000,1.000,0.029,1.000,1.000,764.000,3.000,351.000,24.000,0.000:

0000
0000
0000
0000
,
0000
0000
0000
0000
,
0000
0000
0000
0000
,
0000
0000
0000
0000
,
2000
0000
3000
0000
0000
0000
0000
0000
0200
0000
0300
0000
0000
0000
0000
0000
0020
0000
0030
0000
0000
0000
0000
0000
0000
0000
0000
0000
0002
0000
0003
0000
0020
0000
0030
0000
0000
0000
0000
0000
0200
0300
0000
0000
0000
0000
0000
0000
2000
3000
0000
0000
0000
0000
0000
0000
0000
0000
0000
0000
0020
0000
0030
0000
,
0200
0300
0000
0000
0002
0003
0000
0000
0020
0030
0000
0000
0200
0300
0000
0000
2000
3000
0000
0000
0001
0000
1000
0000
0001
0000
1000
0000
0001
0000
1000
0000
,
0020
0030
0000
0000
2000
3000
0000
0000
0200
0300
0000
0000
0000
0000
0020
0030
0200
0300
0000
0000
2000
3000
0000
0000
0200
0300
0000
0000
0000
0000
2000
3000
,
0002
0003
0000
0000
0002
0003
0000
0000
0020
0030
0000
0000
0200
0300
0000
0000
2000
3000
0000
0000
0001
0000
1000
0000
0001
0000
0000
0000
1001
0000
0000
0000
,
0001
1000
0001
0100
0001
1000
0001
0010
0100
1000
0001
1000
0001
0100
0001
1000
0001
1000
0001
0010
0001
0010
0100
1000
,
0100
0010
0001
0100
0010
1000
0100
0010
0001
0010
0001
1000
0010
0100
0001
0010
0001
0010
0100
1000
0010
0100
0001
0010
,
0002
0003
0000
0000
0020
0030
0000
0000
0200
0300
0000
0000
0000
0000
2000
3000
0200
0300
0000
0000
0020
0030
0000
0000
0002
0003
0000
0000
0020
0030
0000
0000
,
0002
0003
0100
0000
0010
0000
1000
0000
0100
0000
1000
0000
0001
0000
1000
0000
0010
0000
1000
0000
0010
0000
0100
0000
0001
0000
1000
0000
0100
0000
0010
0000
,
0002
0003
0020
0030
0200
0300
0000
0000
2000
3000
0200
0300
0000
0000
0020
0030
0002
0000
0000
0000
0023
0000
0000
0000
0230
0000
0000
0000
0300
0000
0000
0000
,
2000
3000
0200
0300
2000
3000
0000
0000
0002
0003
0020
0030
0000
0000
0001
0000
0100
0000
1000
0000
0100
0000
0001
0000
0010
0000
0100
0000
1000
0000
0100
0000
,
0020
0030
0002
0003
0020
0030
0000
0000
0200
0300
2000
3000
0000
0000
2000
3000
0020
0000
0000
0000
0032
0000
0000
0000
0023
0000
0000
0000
0030
0000
0000
0000
,
1000
0000
0100
0000
1000
0000
0001
0000
1000
0000
0100
0000
1000
0000
0001
0000
1000
0000
0100
0000
1000
0000
0002
0003
2000
3000
0002
0003
0020
0030
0200
0300
,
2000
3000
0000
0000
0000
0000
0000
0000
MMM1
0000
0000
0000
0000
0000
0000
0000
1000
0000
0000
0000
1000
0000
0100
0000
1000
0000
0000
0000
0100
0000
0000
0000
,
2000
3000
0010
0000
0200
0300
0001
0000
2000
3000
0100
0000
1000
0000
0200
0300
0020
0030
0001
0000
0020
0030
0100
0000
2000
3000
0001
0000
1000
0000
0020
0030
,
2000
3000
0100
0000
1000
0000
0100
0000
0020
0000
0000
0000
0030
0000
0002
0003
0200
0300
0000
0000
0020
0030
0200
0000
0000
0000
0000
0000
0300
0000
0000
0000
,
0002
0003
0000
0000
0020
0030
0000
0000
0200
0300
0000
0000
0000
0000
2000
3000
0200
0300
0000
0000
2000
3000
0000
0000
0200
0300
0000
0000
0000
0000
1000
0000
,
0001
0000
0000
0100
0000
0000
0001
0000
0000
1000
0000
0000
0001
0000
0000
0010
0000
0000
0001
0000
0000
1000
0000
0000
0001
0000
2000
3000
0020
0030
2000
3000
0002
0003
2000
3000
0002
0003
2000
3000
0020
0030
2000
3000
0200
0300
0020
0030
,
0002
0003
0000
0000
0020
0030
0000
0000
0200
0300
0000
0000
0000
0000
2000
3000
0200
0300
0000
0000
0020
0030
0000
0000
0002
0003
0000
0000
0000
0000
0200
0300
,
0020
0030
0000
0000
2000
3000
0000
0000
0200
0300
0000
0000
0020
0030
0000
0000
0002
0003
0000
0000
1000
0000
0010
0000
1000
0000
0010
0000
1000
0000
0010
0000
,
2000
3000
0000
0000
0002
0003
0000
0000
0200
0300
0000
0000
0000
0000
0020
0030
2000
3000
0000
0000
0200
0300
0000
0000
2000
3000
0000
0000
0000
0000
0020
0030
,
0200
0300
0000
0000
2000
3000
0000
0000
0200
0300
0000
0000
0002
0003
0000
0000
2000
3000
0000
0000
0001
0000
0010
0000
0100
0000
0000
0000
1100
0000
0000
0000
,
1000
0010
1000
0001
1000
0001
1000
0100
1000
0010
0100
0001
0010
0100
1000
0010
1000
0001
1000
0100
1000
0001
1000
0100
,
0010
0001
0010
0100
1000
0010
0100
0001
0100
0010
1000
0100
1000
0100
0010
0001
0010
0100
1000
0010
1000
0001
1000
0001
,
2000
3000
0000
0000
0200
0300
0000
0000
0020
0030
0000
0000
0000
0000
0002
0003
0020
0030
0000
0000
0200
0300
0000
0000
2000
3000
0000
0000
0020
0030
0000
0000
,
2000
3000
0100
0000
1000
0000
0000
0000
0001
0000
0010
0000
0001
0000
0000
0000
1000
0000
0100
0000
0010
0000
0001
0000
1000
0000
0001
0000
1000
0000
0010
0000
,
2000
3000
0010
0000
0100
0000
0001
0000
1000
0000
0010
0000
1000
0000
0001
0000
2000
3000
0001
0000
1000
0000
0100
0000
1000
0000
0001
0000
1000
0000
0001
0000
,
2000
3000
0100
0000
1000
0000
0100
0000
0010
0000
0001
0000
0010
0000
0001
0000
0020
0030
0100
0000
1000
0000
0100
0000
1000
0000
0001
0000
1000
0000
0010
0000
,
2000
3000
0020
0030
0200
0300
0002
0003
2000
3000
0200
0300
0020
0030
0002
0003
0200
0300
0020
0030
2000
3000
0200
0300
0020
0030
0002
0003
2000
3000
0200
0300
,
0020
0030
0002
0003
0020
0030
0002
0003
2000
3000
0020
0030
2000
3000
0002
0003
2000
3000
0200
0300
2000
3000
0002
0003
0020
0030
0200
0300
2000
3000
0000
0000
,
0200
0000
0320
0000
0032
0000
0003
0001
0020
0000
0230
0000
2300
0000
3000
0100
,
0020
0000
0032
0000
2003
0000
3000
0100
2000
0000
3010
2000
0000
0000
3000
0000
,
0002
0003
0000
0000
0020
0030
0000
0000
0200
0300
0000
0000
0000
0000
2000
3000
0200
0300
0000
0000
2000
3000
0000
0000
0020
0030
0000
0000
0000
0000
1000
0000
,
0100
0000
0000
1000
0000
0000
0100
0000
0000
0010
0000
0000
0001
0000
0000
1000
0000
0000
0010
0000
0000
1000
0000
0000
0002
0003
0020
0030
0200
0300
2000
3000
0002
0003
2000
3000
0020
0030
2000
3000
0020
0030
2000
3000
0002
0003
2000
3000
,
0200
0300
0000
0000
2000
3000
0000
0000
0002
0003
0000
0000
2000
3000
0000
0000
0020
0030
0000
0000
0200
0300
0000
0000
0002
0003
0000
0000
2000
3000
0200
0300
,
0000
0000
0100
0000
0100
1000
0100
0000
1000
0000
0100
0000
0010
0000
0001
0010
,
0002
0003
0020
0030
0002
0003
0000
0000
2000
3000
0000
0000
0020
0030
0000
0000
2000
3000
0000
0000
0200
0300
0000
0000
0020
0030
0000
0000
0002
0003
0200
0300
,
0000
0000
0000
0000
0000
0000
MMMM
0000
0000
M000
0M00
00M0
000M
00M0
0M00
M000
0M00
00M0
000M
00M0
0M00
M000
0000
0000
,
2000
3000
0000
0000
0200
0300
0000
0000
2000
3000
0000
0000
0000
0000
0200
0300
2000
3000
0000
0000
0002
0003
0000
0000
2000
3000
0000
0000
0000
0000
0200
0300
,
0020
0030
0000
0000
0002
0003
0000
0000
2000
3000
0000
0000
0002
0003
0000
0000
0200
0300
0000
0000
0001
0000
1000
0000
0010
0000
1000
0000
0010
0000
1000
0000
,
0002
0003
0000
0000
2000
3000
0000
0000
0020
0030
0000
0000
0000
0000
2000
3000
0200
0300
0000
0000
2000
3000
0000
0000
0200
0300
0000
0000
0000
0000
0020
0030
,
0002
0003
0000
0000
0020
0030
0000
0000
0200
0300
0000
0000
2000
3000
0000
0000
0200
0300
0000
0000
2000
3000
0200
0300
2000
3000
0000
0000
0020
0030
0000
0000
,
1000
0001
1000
0010
1000
0100
0010
0001
1000
0010
1000
0001
0010
0100
1000
0100
1000
0100
0010
0001
1000
0100
1000
0001
,
1000
0010
1000
0001
0010
0100
1000
0001
1000
0010
1000
0001
1000
0010
1000
0001
1000
0001
1000
0100
1000
0100
0010
0001
,
2000
3000
0000
0000
0200
0300
0000
0000
0020
0030
0000
0000
0000
0000
0002
0003
0020
0030
0000
0000
0002
0003
0000
0000
0020
0030
0000
0000
0200
0300
0000
0000
,
2000
3000
0100
0000
1000
0000
0000
0000
1000
0000
0100
0000
1000
0000
0000
0000
0010
0000
0100
0000
0001
0000
1000
0000
0001
0000
0010
0000
0100
0000
1000
0000
,
0200
0300
2000
3000
0200
0300
0000
0000
0200
0300
2000
3000
0000
0000
2000
3000
0200
0000
0000
0000
0302
0000
0000
0000
0203
0000
0000
0000
0300
0000
0000
0000
,
2000
3000
0200
0300
2000
3000
0000
0000
0002
0003
0020
0030
0000
0000
0020
0030
0002
0003
0010
0000
1000
0000
0010
0000
0001
0000
0010
0000
1000
0000
0010
0000
,
0002
0003
2000
3000
0002
0003
0000
0000
0002
0003
2000
3000
0000
0000
2000
3000
0002
0000
0000
0000
0023
0000
0000
0000
0230
0000
0000
0000
0300
0000
0000
0000
,
1000
0000
0001
0000
1000
0000
0010
0000
1000
0000
0001
0000
1000
0000
0010
0000
1000
0000
0001
0000
1000
0000
0020
0030
2000
3000
0200
0300
0020
0030
0002
0003
,
2000
3000
0000
0000
1000
0000
0001
0000
1000
0000
0000
0000
1000
0000
0000
0000
0001
0000
0000
0000
0001
0000
0010
0000
0001
0000
0000
0000
0001
0000
0000
0000
,
2000
3000
0100
0000
0020
0030
0001
0000
2000
3000
0010
0000
1000
0000
0002
0003
2000
3000
0001
0000
2000
3000
0010
0000
0200
0300
0001
0000
1000
0000
0200
0300
,
2000
0000
3020
0000
2030
0000
0000
3001
2000
0000
3010
2000
0000
0000
3000
0000
,
0002
0000
0023
0000
0230
0000
0300
0100
0020
0000
0032
0000
2003
0000
0000
3100
,
0010
0000
0000
0001
0000
0000
1000
0000
0000
0001
0000
0000
1000
0000
0000
0010
0000
0000
1000
0000
0000
0001
0000
0000
2000
3000
0200
0300
2000
3000
0200
0300
0020
0030
0002
0003
2000
3000
0200
0300
2000
3000
0002
0003
2000
3000
0020
0030
,
2000
3000
0000
0000
0200
0300
0000
0000
2000
3000
0000
0000
0000
0000
0002
0003
2000
3000
0000
0000
0020
0030
0000
0000
2000
3000
0000
0000
0000
0000
0002
0003
,
2000
3000
0000
0000
0200
0300
0000
0000
0020
0030
0000
0000
0002
0003
0000
0000
2000
3000
0000
0000
0100
0000
1000
0000
0100
0000
1000
0000
0001
0000
1000
0000
,
0200
0300
0000
0000
2000
3000
0000
0000
0020
0030
0000
0000
0000
0000
0200
0300
0002
0003
0000
0000
2000
3000
0000
0000
0200
0300
0000
0000
0000
0000
2000
3000
,
0020
0030
0000
0000
2000
3000
0000
0000
0002
0003
0000
0000
0020
0030
0000
0000
0002
0003
0000
0000
1000
0000
0100
0000
0010
0000
0000
0000
0011
0000
0000
0000
,
0001
1000
0010
1000
0001
1000
0100
1000
0100
0010
0001
0010
0100
1000
0001
1000
0010
1000
0001
1000
0001
1000
0100
1000
,
0100
0010
0001
1000
0010
1000
0010
1000
0001
1000
0100
0010
0001
0010
0100
1000
0100
1000
0001
1000
0010
1000
0010
1000
,
0002
0003
0000
0000
0020
0030
0000
0000
0200
0300
0000
0000
0000
0000
2000
3000
0200
0300
0000
0000
2000
3000
0000
0000
0200
0300
0000
0000
0020
0030
0000
0000
,
M002
0M00
00M0
M003
;
