#TITLE:Klung kung 1655;
#SUBTITLE:;
#ARTIST:simon;
#TITLETRANSLIT:;
#SUBTITLETRANSLIT:;
#ARTISTTRANSLIT:;
#CREDIT:;
#BANNER:;
#BACKGROUND:klungkung-1655.png;
#LYRICSPATH:;
#CDTITLE:zingekirogo.png;
#MUSIC:klungkung-1655.mp3;
#OFFSET:-1.140;
#SAMPLESTART:14.453;
#SAMPLELENGTH:18.000;
#SELECTABLE:YES;
#BPMS:0.000=180.000;
#STOPS:;
#BGCHANGES:;
// cache tags:
#FIRSTBEAT:0.000;
#LASTBEAT:300.000;
#SONGFILENAME:Songs/toune 3/klungkung1655/klungkung-1655.sm;
#HASMUSIC:1;
#HASBANNER:0;
#MUSICLENGTH:104.903;
// end cache tags

//---------------dance-single - ----------------
#NOTES:
     dance-single:
     :
     Hard:
     7:
     0.842,0.894,0.753,0.048,0.305,534.000,79.000,5.000,0.000,0.000:
1000
0000
0000
0000
0100
0000
0000
0000
0010
0000
0000
0100
1000
0000
0100
0000
,
0010
0000
0000
0000
1000
0000
0000
0000
0100
0000
0000
0010
0001
0000
0010
0000
,
0100
0000
0000
0000
0010
0000
0000
0000
0100
0000
0000
1000
0010
0000
0100
0000
,
1000
0000
0000
0000
0100
0000
0000
0000
0010
0000
0000
0100
1000
0000
0010
0000
,
1001
0000
0000
0000
0010
0000
0000
0000
0100
0000
0000
0100
1000
0000
0100
0000
,
0010
0000
0000
0000
1000
0000
0000
0000
0001
0000
0000
0001
0010
0000
0100
0000
,
1000
0100
0010
1000
0100
0010
1000
0100
,
0010
0100
1000
0010
0100
1000
0010
0100
,
0010
0001
0010
0000
0010
0001
0010
0000
0010
0001
0010
0000
0010
0001
0010
0000
,
0100
1000
0100
0000
0100
1000
0100
0000
0100
1000
0100
0000
1000
0000
0010
0001
,
0010
0100
1000
0100
1000
0010
1000
0010
,
0100
0010
0011
0000
0110
0000
1100
0000
,
0100
0001
0100
1000
0100
0001
0100
1000
,
0100
0010
0100
1000
0001
0010
1000
0100
,
0010
0001
0010
1000
0010
1000
0100
0010
,
0100
0001
0100
0010
0001
0010
0100
0010
,
1010
0001
0100
1000
0100
0001
0100
1000
,
0100
0010
0100
1000
0010
0100
1000
0100
,
0010
0001
0010
1000
0100
1000
0100
0010
,
0010
0000
0001
0010
0100
0000
1000
0000
0010
0000
1000
0000
0010
0000
0000
0100
,
1001
1010
0110
0101
,
0110
1010
0011
0110
,
1000
1000
1000
1000
1000
1000
1010
1000
,
0001
0001
0001
0001
0001
0001
1001
0001
,
0000
0100
0110
0001
0100
0000
1010
0000
,
0000
0100
0110
0001
0100
0001
0110
0001
,
0000
0100
0110
1000
0100
0000
0110
0000
,
0100
0010
1010
0000
0100
0010
1010
0000
,
0000
1000
1001
0010
0100
0000
1001
0000
,
0000
0100
0101
0010
0100
0010
0101
0010
,
0000
0001
0011
1000
0100
0000
0011
0000
,
0100
0001
1001
0000
1000
0100
1001
0000
,
0000
0100
0110
0001
0100
0000
1010
0000
,
0000
1001
1001
0010
1001
0010
1001
0010
,
0000
0010
0010
0001
0100
0000
1000
0000
,
0000
0011
0011
1000
0101
1000
0101
1000
,
0000
0010
0100
0001
0010
0000
0100
0000
,
0000
1010
0110
0001
0110
0001
0110
0001
,
0000
0010
0010
1000
0010
0000
1000
0000
,
0000
0000
0011
0000
1100
0000
0000
0000
0000
0000
1000
0100
0010
0000
0000
0000
,
1000
0000
0100
1000
0000
0100
1000
0000
0100
1000
0000
0100
1000
0000
1000
0100
,
0010
0000
0001
0010
0000
0001
0010
0000
0001
0010
0000
0001
0010
0000
0001
0010
,
0100
0000
0010
0100
0000
0010
0100
0000
0010
0100
0000
0010
0100
0000
0100
0010
,
0001
0000
0100
0001
0000
0100
0001
0000
0100
0001
0000
0100
0001
0000
0001
0100
,
1000
0000
0010
0001
0010
0000
0001
0000
0100
0000
0010
0001
0010
0000
0001
0000
,
0010
0000
0100
1000
0100
0000
0001
0000
0010
0000
0100
1000
0100
0000
0010
0000
,
1000
0100
1000
0010
1000
0001
1000
0010
,
0100
0000
1000
0000
0100
0000
0010
0000
0100
0000
0001
0000
1000
0100
0010
0001
,
0100
0000
0000
0100
0100
0000
0001
0000
0010
0000
0010
0000
0100
0000
1000
0000
,
0000
0000
0100
0000
0000
0000
0001
0000
0010
0000
0000
0100
1000
0000
0100
0000
,
0010
0000
0001
0000
0000
0000
0010
0000
0001
0000
0000
0001
0100
0000
0001
0000
,
0100
0000
0000
0010
0001
0000
0100
0000
0000
0010
0001
0000
1000
0000
0001
0000
,
0000
0000
0100
0010
0001
0010
0200
0000
0000
0000
0000
0000
0000
0000
0000
0000
,
0000
0000
0000
0000
0000
0000
0000
0000
0000
0000
0000
0000
0000
0000
0000
0300
,
1000
0000
0000
0000
0010
0000
0000
0100
1000
0000
1000
0000
0010
0000
0000
0100
,
1000
1100
0110
0011
,
0100
0001
0100
1000
0100
0001
0100
0001
,
0010
0100
0010
1000
0100
0001
0100
1000
,
0011
0100
1001
0100
0010
0001
0100
1000
,
0100
0001
0100
0001
0010
1000
0010
0100
,
0010
0001
0010
0100
0011
0100
1001
0100
,
0010
1000
0010
0100
1000
0001
1000
0001
,
0010
1000
0010
1000
0100
0001
0010
1000
,
0011
0100
1001
0010
0100
0001
1000
0100
,
0010
0001
1000
0001
0010
1000
0010
0100
,
0010
0001
0100
1000
0011
0100
1001
0100
,
1010
0110
1100
0011
,
0110
1010
1100
1010
,
0110
0011
1100
0011
,
0110
1010
1100
0110
,
2000
0000
0000
0010
0001
0000
0010
0001
0000
0010
0001
0000
0100
0000
0100
3000
,
0002
0000
0000
0100
1000
0000
0100
1000
0000
0100
1000
0000
0010
0000
0010
0003
,
1000
0000
0000
0100
0010
0000
0001
0000
0000
0010
0100
0000
1010
0000
0101
0000
,
1000
0100
1000
0100
1000
0100
1000
0100
1000
0000
0100
0000
0010
0000
0001
0000
,
0000
1100
0110
0022
,
0033
0000
0000
0000
;

//---------------dance-single - ----------------
#NOTES:
     dance-single:
     :
     Challenge:
     14:
     1.000,1.000,1.000,0.038,0.620,647.000,255.000,4.000,0.000,1.000:
1001
0000
0000
0000
0100
0000
0000
0000
0010
0000
0000
0100
0001
0000
0010
0000
,
1100
0000
0000
0000
0010
0000
0000
0000
0100
0000
0000
0001
0010
0000
0100
0000
,
1010
0000
0000
0000
0001
0000
0000
0000
1000
0000
0000
0010
0001
0000
0100
0000
,
0011
0000
0000
0000
1000
0000
0000
0000
0100
0000
0000
0001
1000
0000
0010
0000
,
0101
0000
0000
0000
0100
0000
0000
0000
1001
0000
0000
0001
0001
0000
0001
0000
,
0101
0000
0000
0000
0110
0000
0000
0000
1010
0000
0000
1000
1001
0000
1000
0000
,
0101
0110
1001
1100
0110
0011
1010
0110
,
0011
0101
1100
0011
0110
1010
1100
0011
,
0100
1000
0100
0001
0100
1000
0100
0001
0100
1000
0100
0001
0100
1000
0100
0001
,
0100
1000
0100
0010
0100
1000
0100
0010
0100
1000
0100
0010
0100
1000
0100
0010
,
1100
0001
1010
0100
1001
0010
0101
0010
,
1100
0110
0011
0000
0110
0000
1100
0000
,
1100
0001
0101
1000
0110
0001
0100
1000
,
1100
0010
0100
1000
1001
0010
1000
0100
,
1010
0001
0010
1000
0011
1000
0100
0010
,
0110
0001
0100
0010
1001
0010
0100
0010
,
1010
0001
0101
1000
0110
0001
0100
1000
,
0101
0010
0100
1000
1010
0100
1000
0100
,
0011
0001
0010
1000
1100
1000
0100
0010
,
1010
0000
0001
0010
0100
0000
1000
0000
0011
0000
1000
0000
0010
0000
0000
0100
,
1001
1000
1100
1000
0011
1000
1010
1000
,
0011
1000
0110
1000
1010
1000
0110
1000
,
1100
0100
0101
0100
0110
0100
0101
0100
,
0011
0010
1010
0010
0110
0010
0011
0010
,
1000
0100
0110
0001
1100
0000
1010
0000
,
1000
0100
0110
0001
1100
0001
0010
0001
,
0000
0100
0110
1000
0100
0000
0110
0000
,
0100
0010
1010
0000
0100
0010
1010
0000
,
0000
1000
1001
0010
0100
0000
1001
0000
,
0000
0100
0101
0010
0100
0010
0101
0010
,
0000
0001
0011
1000
0100
0000
0011
0000
,
0110
0001
1001
0000
1010
0100
1001
0000
,
0000
0001
0011
0100
0001
0000
0110
0000
,
0000
1100
1100
1010
1100
1010
1100
1010
,
0000
0010
0011
1000
0110
1000
0101
1000
,
0000
0101
0101
1001
0101
1001
0101
1001
,
0000
1000
0100
0001
0100
0000
1000
0000
,
0000
0110
1010
0101
1010
0101
0110
1001
,
0000
1001
1001
1100
1001
0000
1100
0000
,
0000
0000
0000
0110
0000
0000
1010
0000
0000
0000
0000
0000
0000
0000
0000
0001
0010
0100
1000
0000
0000
0000
0000
0000
,
1100
0000
0010
0100
1001
0010
0100
1000
0011
0100
1000
0010
0101
1000
0100
0010
,
1001
0000
0001
0010
1100
0001
0010
0100
1001
0010
0100
0001
1010
0100
0010
0100
,
1001
0000
0100
0010
1001
0100
0010
0001
1100
0010
0001
0100
1010
0001
0010
0100
,
1010
0000
1000
0100
0011
1000
0100
0001
1010
0100
0001
1000
0110
0001
1000
0100
,
1010
1000
0100
0010
0101
0100
0010
0010
1001
1000
0100
0010
1100
0100
0010
0010
,
0101
0100
0010
0001
1010
0010
0001
0001
0110
0100
0010
0001
1010
0010
0001
0001
,
1100
0010
0101
1000
0101
0010
0101
1000
0101
0010
1001
0010
1100
0010
0101
1000
,
0011
0100
0011
1000
0011
0100
0011
1000
0011
0100
1001
0010
1000
0100
0010
0000
,
0110
0000
0000
0110
0110
0000
0011
0000
0110
0000
1100
0000
1010
0000
1001
0000
,
0000
0000
0011
0000
0000
0000
0110
0000
1100
0000
0000
0110
0101
0000
0110
0000
,
0110
0000
1001
0000
0000
0000
1100
0000
0011
0000
0000
0110
0101
0000
0110
0000
,
0110
0000
0000
1010
0101
0000
1010
0000
0000
0101
1010
0000
0000
0000
0000
0000
,
0000
0000
1100
0110
0011
0110
1100
0000
1000
0001
1000
0001
1000
0001
1000
0001
,
1000
0000
0000
0000
0000
0000
0000
0000
0001
0000
0000
0000
0000
0000
0000
0000
1000
0000
0000
0000
0000
0000
0000
0000
0001
0000
0000
0000
0000
0000
0000
0000
1000
0000
0000
0000
0000
0000
0000
0000
0001
0000
0000
0000
0000
0000
0000
0000
1000
0000
0000
0000
0000
0000
0000
0000
0001
0000
0000
0000
0000
0000
0000
0000
1000
0000
0000
0000
0000
0000
0000
0000
0001
0000
0000
0000
0000
0000
0000
0000
1000
0000
0000
0000
0000
0000
0000
0000
0001
0000
0000
0000
0000
0000
0000
0000
1000
0000
0000
0000
0000
0000
0001
0000
0000
0000
0000
0000
1000
0000
0000
0000
0000
0000
0001
0000
0000
0000
0000
0000
1000
0000
0000
0000
0000
0000
0001
0000
0000
0000
0000
0000
1000
0000
0000
0000
0000
0000
0001
0000
0000
0000
0000
0000
1000
0000
0000
0000
0000
0000
0001
0000
0000
0000
0000
0000
1000
0000
0000
0000
0000
0000
0001
0000
0000
0000
0000
0000
1000
0000
0000
0000
0000
0000
0001
0000
0000
0000
0000
0000
1000
0000
0000
0000
0000
0000
0001
0000
0000
0000
0000
0000
,
1000
0000
0000
0000
0101
0000
0000
0010
1000
0000
1000
0000
0011
0000
0000
0100
,
1000
1100
0110
0011
,
1100
0001
0101
1000
0110
0001
0100
0001
,
1010
0100
0010
1000
0101
0001
0110
1000
,
0011
0100
1001
0100
0011
0001
0110
1000
,
1100
0001
0100
0001
1010
1000
0001
0100
,
0110
0001
1010
0100
0011
0100
1001
0100
,
0011
1000
0110
0100
1000
0001
1100
0001
,
0010
1000
0011
1000
0100
0001
0110
1000
,
0011
0100
1001
0010
0101
0001
1010
0100
,
0010
0001
1100
0001
0010
1000
0011
0100
,
0010
0001
1100
1000
0011
0100
1001
0100
,
0110
0100
0101
0001
1001
1000
1100
0100
,
0101
0100
0110
0010
1010
1000
1001
1000
,
1010
0010
0011
0010
1010
1000
1100
0100
,
0101
0100
1100
0100
0110
0010
0011
0001
,
1200
0000
0000
0010
0001
0000
0010
0001
0000
0010
0001
0000
1000
0000
1000
0300
,
0002
0000
0000
0010
0100
0000
0010
0100
0000
0010
0100
0000
1000
0000
0100
0003
,
1100
0000
0000
0010
0101
0000
1000
0000
0100
0010
0001
0000
0110
0000
0001
0000
,
1100
0010
0100
0010
0101
0010
0100
0010
1100
0000
0011
0000
1111
0000
1100
0000
,
0000
0110
1100
0022
,
0033
0000
0000
0000
;
