#TITLE:Red-rize;
#SUBTITLE:"B172 mix";
#ARTIST:wint;
#TITLETRANSLIT:;
#SUBTITLETRANSLIT:;
#ARTISTTRANSLIT:;
#CREDIT:;
#BANNER:Red-rize ''B172 mix''.png;
#BACKGROUND:Red-rize ''B172 mix'' bg.png;
#LYRICSPATH:;
#CDTITLE:cdtitle.png;
#MUSIC:Red-rize ''B172 mix''.mp3;
#OFFSET:0.120;
#SAMPLESTART:45.930;
#SAMPLELENGTH:12.020;
#SELECTABLE:YES;
#BPMS:0.000=172.000;
#STOPS:;
#BGCHANGES:;
// cache tags:
#FIRSTBEAT:20.000;
#LASTBEAT:377.500;
#SONGFILENAME:Songs/Japanese Collaboration Mix/Red-rize ''B172 mix''/Red-rize ''B172 mix'.sm;
#HASMUSIC:1;
#HASBANNER:1;
#MUSICLENGTH:133.120;
// end cache tags

//---------------dance-single - ----------------
#NOTES:
     dance-single:
     :
     Hard:
     9:
     0.662,0.673,0.293,0.060,0.116,570.000,39.000,8.000,0.000,0.000:
0000
0000
0000
0000
,
0000
0000
0000
0000
,
0000
0000
0000
0000
,
0000
0000
0000
0000
,
0000
0000
0000
0000
,
1010
0000
0000
0000
,
0101
0000
0000
0000
,
0110
0000
1010
0000
,
1000
0001
1000
0010
,
0001
0010
0100
0010
,
0100
1000
0100
0010
,
0100
0001
0010
0001
,
1000
0001
1000
0000
0001
0000
1000
0000
0000
0000
0010
0000
0100
0000
0001
0000
,
0011
0010
1000
0001
,
0010
1000
0010
0001
,
1000
0100
0001
0100
,
0010
0001
0010
0000
0001
0000
0010
0000
0000
0000
1000
0000
0100
0000
0001
0000
,
1000
0100
1000
0010
0100
0001
0100
0010
,
0001
1000
0001
0100
0001
1000
0001
0010
,
0100
0001
0100
0010
1000
0001
0010
0100
,
0001
0100
0001
0000
0100
0000
1000
0000
0000
0000
0100
0000
1000
0000
0001
0000
,
0110
0010
0100
0010
1000
0001
0100
1000
,
0010
1000
0010
1000
0001
0010
0100
0001
,
0010
1000
0100
1000
0001
0010
0100
0001
,
0010
0100
0010
0000
0100
0000
0010
0000
0000
0000
0010
0000
0100
0000
0001
0000
,
1000
0010
1000
0010
1000
0010
1000
0010
,
0100
0010
0100
0010
0100
0010
0100
0010
,
0001
0100
0001
0100
0001
0100
0001
0100
,
0010
1000
0010
1000
0100
0001
0100
0001
,
1000
1000
0100
0100
0010
0001
0010
0000
,
0001
0010
0001
0010
1000
0100
0010
0000
,
0001
0010
0100
1000
0001
0010
0100
1000
,
0010
0100
0001
1000
0020
0130
0110
0000
,
1000
0001
1000
0001
0100
0001
0010
0001
,
0100
0010
0100
0001
0100
0010
1000
0001
,
1000
0100
0010
0001
0100
0010
1000
0001
,
0100
0000
0001
0000
0100
0000
0001
0000
1000
0010
1000
0000
0010
0000
0100
0000
,
0001
1000
0001
1000
0010
1000
0100
1000
,
0010
0100
0010
1000
0010
0100
0001
1000
,
0001
0010
0100
1000
0010
0100
0001
1000
,
0010
0000
1000
0000
0010
0000
1000
0000
0001
0100
0001
0000
0100
0000
0010
0000
,
0110
0000
0000
1001
0000
0000
0110
0000
0000
0000
0000
0000
1010
0000
0000
0000
,
0101
0000
0000
1001
0000
0000
1010
0000
0000
0000
0000
0000
0011
0000
0000
0000
,
1000
0000
0001
1000
0000
0001
1000
0000
0100
0000
0010
0000
0100
0000
0010
0000
,
1000
0000
0001
1000
0000
0001
1000
0000
0100
0000
0010
0000
0100
0000
0010
0000
,
1001
0000
0000
0110
0000
0000
1001
0000
0000
0000
0000
0000
1100
0000
0000
0000
,
0011
0000
0000
0110
0000
0000
1100
0000
0000
0000
0000
0000
1010
0000
0000
0000
,
0001
0000
1000
0001
0000
1000
0001
0000
0010
0000
0100
0000
0010
0000
0100
0000
,
0001
0000
1000
0001
0000
1000
0001
0000
0010
0000
0100
0000
0010
0000
0100
0000
,
0001
0000
0100
0001
0000
0100
0001
0000
1000
0000
0001
0000
1000
0000
0001
0000
,
1000
1000
0001
0001
0100
0000
0101
0000
,
2000
0000
0000
0000
,
3002
0000
0000
0000
,
0203
0000
0000
0000
,
0320
0000
0000
0000
0000
0000
0000
0000
0000
0000
0000
0000
0000
0030
0000
0000
,
1001
1000
1000
0100
,
0001
0010
0001
0001
,
0100
0001
0100
1000
,
0010
0100
0001
1001
,
1000
0100
1000
0001
1000
0010
1000
0100
,
0001
0100
0010
1000
0010
1000
0100
0001
,
0010
0100
0010
1000
0001
0010
0001
0100
,
0010
0100
1000
0100
1000
0010
1000
0010
,
1000
1000
0001
0001
0100
0100
0010
0010
,
1000
0100
0010
0001
1000
0100
0010
0001
,
0100
0010
1000
0001
0010
1000
0100
0001
,
1000
1000
0010
0100
0001
0100
1000
0100
,
0001
0001
1000
0001
,
0100
0001
1000
0001
,
1100
0020
0130
0001
,
0100
1001
0100
0110
,
1001
0001
1000
0001
,
0101
0010
0100
0010
,
1100
0100
0110
0010
,
2002
0000
0000
0000
0000
0000
0000
3003
0000
0000
0000
0000
0110
0000
0000
0000
,
0010
0100
0010
1000
0010
0100
0010
0001
,
1000
0100
0010
0100
0001
0010
0100
1000
,
0001
0100
0001
1000
0010
0001
0100
1000
,
0001
0100
0001
0000
0010
0000
1000
0000
0000
0000
0010
0000
0001
0000
0010
0000
,
1000
0100
1000
0100
1000
0001
1000
0010
,
0100
0001
0100
0001
0100
0010
0100
0010
,
1000
0001
1000
0001
0100
0010
0100
0010
,
1000
0100
1000
0000
0001
0000
1000
0000
0000
0000
0100
0000
0010
0000
0100
0000
,
1000
0010
1000
0010
1000
0010
1000
0010
,
0100
0010
0100
0010
0100
0010
0100
0010
,
0001
0100
0001
0100
0001
0100
0001
0100
,
0010
1000
0010
0000
1000
0000
0001
0000
0000
0000
0100
0000
0001
0000
0100
0000
,
0001
0100
0010
1000
0001
0100
0010
1000
,
0001
0010
0001
0010
1000
0100
0010
0000
,
0001
0010
0100
1000
0001
0010
0100
1000
,
0010
0100
0001
1000
0010
0100
0011
0000
,
1000
0000
0000
0001
0000
0000
1000
0000
0000
0001
0000
0000
1000
0000
0001
0000
,
0010
0000
0000
0100
0000
0000
0010
0000
0000
0100
0000
0000
0010
0000
0100
0000
,
1000
0000
0001
1000
0000
0001
1000
0000
0001
1000
0000
0000
0010
0000
1000
0000
,
1001
0000
0000
0110
0000
0000
1001
0000
0000
0000
0000
0000
0000
0000
0000
0000
;

//---------------dance-single - ----------------
#NOTES:
     dance-single:
     :
     Easy:
     5:
     0.372,0.390,0.210,0.015,0.000,317.000,28.000,2.000,0.000,0.000:
0000
0000
0000
0000
,
0000
0000
0000
0000
,
0000
0000
0000
0000
,
0000
0000
0000
0000
,
0000
0000
0000
0000
,
1001
0000
0000
0000
,
0110
0000
0000
0000
,
1000
0000
0001
0000
,
0010
0100
0010
0000
,
1000
0001
1000
0001
,
0100
0001
0100
0001
,
0010
1000
0010
1000
,
1001
1001
0000
0100
,
0010
0001
0010
0001
,
0100
0010
0100
0010
,
0100
1000
0100
1000
,
0001
0010
0100
1000
,
0001
1000
0001
0100
,
0010
1000
0010
0100
,
1000
0001
1000
0010
,
0100
0100
0010
0010
,
1001
0001
0001
0100
,
1001
1000
0010
0100
,
1000
0100
0010
0100
,
0001
0100
0001
0100
,
1000
1000
1000
0001
,
0010
0010
0010
0100
,
1000
0100
0001
0010
,
1000
0100
0001
0010
,
0001
0100
0001
0100
,
0010
0100
0010
0001
,
1000
0100
0010
0001
,
0001
0010
0100
1001
,
0010
0010
0010
0010
,
0100
0100
0100
0100
,
0001
0010
0100
1000
,
1000
0100
0010
0001
,
1001
1000
1000
1000
,
0110
0001
0001
0010
,
0100
1000
0100
0010
,
0010
0100
0001
1000
,
1001
0000
0110
0000
,
1001
0000
0110
0000
,
0010
0010
0001
0001
,
1000
1000
0100
0100
,
1001
0000
0110
0000
,
1001
0000
0010
0100
,
0010
0010
0100
1000
,
0100
0100
1000
0100
,
0001
0001
0001
0001
,
0010
0010
0010
1001
,
0001
0000
0000
0000
,
1000
0000
0000
0000
,
0100
0000
0000
0000
,
0010
0000
0000
0000
,
1000
0100
0100
0100
,
0010
0001
0010
0001
,
0010
0100
1000
0100
,
0001
0010
0100
1000
,
0010
0100
0010
0001
,
1000
0100
1000
0100
,
0010
0001
0010
0001
,
1000
0100
0010
0100
,
1001
0100
0010
0100
,
1000
0001
0010
0100
,
1000
0001
1000
0100
,
1000
0001
0010
0001
,
0100
0100
0100
0010
,
0010
0100
0010
0100
,
1001
0100
1000
0001
,
0010
0001
0010
0100
,
1001
0100
0010
0100
,
1001
0100
1000
0001
,
0011
0000
1100
0000
,
2002
0000
0000
3003
,
0010
0100
1000
0001
,
0100
0010
0100
0001
,
1000
0001
1000
0001
,
0010
0100
0000
0100
,
0010
0001
1000
0100
,
0001
0100
0010
0100
,
0001
1000
0010
0100
,
0001
1000
0000
0100
,
0001
1000
0001
1000
,
0100
0010
0100
0010
,
1000
0001
1000
0001
,
1001
0100
0100
0000
,
1001
1000
0100
0010
,
0001
0100
0010
0001
,
1000
0100
0010
0001
,
0100
0010
0100
1000
,
0100
0000
0100
0000
,
0100
0000
0001
0000
,
0010
0100
0010
0100
,
1001
0000
0000
0110
0000
0000
0000
0000
;

//---------------dance-single - ----------------
#NOTES:
     dance-single:
     :
     Medium:
     6:
     0.406,0.461,0.323,0.015,0.000,333.000,43.000,2.000,0.000,0.000:
0000
0000
0000
0000
,
0000
0000
0000
0000
,
0000
0000
0000
0000
,
0000
0000
0000
0000
,
0000
0000
0000
0000
,
1001
0000
0000
0000
,
0110
0000
0000
0000
,
0101
0000
1010
0000
,
0100
0010
0100
0000
,
0001
1000
0001
1000
,
0010
1000
0010
1000
,
0100
0001
0100
0001
,
1000
0001
1000
0000
0000
0000
0010
0000
,
0100
1000
0100
1000
,
0010
0100
0010
0100
,
0010
0001
0010
0001
,
1000
0100
1000
0000
0001
0000
0011
0000
,
1000
0000
0001
0000
1000
0100
0010
0000
,
0100
0001
0100
0010
,
0001
0000
1000
0000
0001
0010
0100
0000
,
0010
0010
0100
0100
,
1001
1000
1000
0010
,
1001
0001
0100
0010
,
0011
0011
0100
0010
,
1000
0010
1000
0010
,
0001
0001
0001
1000
,
0100
0000
0100
0000
0100
0010
0010
0000
,
0001
0010
1000
0100
,
0001
0010
1000
0100
,
1000
0010
1000
0010
,
0100
0000
0010
0000
0100
0001
1000
0000
,
0001
0010
0100
1000
,
1000
0100
0010
1001
,
0100
0000
0100
0000
0100
0010
0100
0000
,
0010
0000
0010
0000
0010
0100
0010
0000
,
1000
0100
0010
0001
,
0001
0010
0100
1000
,
1001
0001
0001
0001
,
0110
1000
1000
0100
,
0010
0001
0010
0100
,
0100
0010
1000
0001
,
1001
0000
0110
0000
,
1001
0000
0110
0000
,
0100
0100
1000
1000
,
0001
0000
0001
0000
0010
0100
0010
0000
,
1001
0000
0110
0000
,
1001
0000
0100
0010
,
0100
0000
0100
0000
0010
1000
0001
0000
,
0010
0000
0010
0000
0001
0010
0110
0000
,
1000
0010
0010
0010
,
1000
1000
1000
0110
,
0010
0000
0000
0000
,
0100
0000
0000
0000
,
0001
0000
0000
0000
,
1000
0000
0000
0000
,
0101
0000
0001
0000
0001
0100
0001
0000
,
1000
0000
0010
0000
1000
0100
0010
0000
,
1001
0000
0001
0000
0100
0001
0011
0000
,
0010
1000
0001
0110
,
1000
0001
1000
0010
,
0100
0001
0100
0001
,
1000
0010
1000
0010
,
0100
0001
1000
0001
,
0110
0001
1000
0001
,
0100
0010
1000
0001
,
0100
0010
0100
0001
,
0100
0010
1000
0010
,
0001
0001
0001
1000
,
1000
0001
1000
0001
,
0110
0001
0100
0010
,
1000
0010
1000
0001
,
0110
0001
1000
0001
,
0110
0001
0100
0010
,
1010
0000
0101
0000
,
0220
0000
0000
0330
,
1000
0001
0100
0010
,
0001
1000
0001
0010
,
0100
0010
0100
0010
,
1100
0000
0001
0100
0000
0000
0001
0000
,
1000
0010
0100
0001
,
0010
0001
1000
0001
,
0010
0100
1000
0001
,
0010
0010
0100
0000
0000
0000
0001
0000
,
0010
0100
0010
0100
,
0001
1000
0001
1000
,
0100
0010
0100
0010
,
0110
0110
0001
0000
,
0110
0100
0100
0010
,
0001
1000
0001
0100
,
0010
1000
0001
0100
,
1000
0001
1000
0110
,
1010
0000
1100
0000
,
1010
0000
1100
0000
,
0001
1000
0001
1000
,
0110
0000
0000
0110
0000
0000
0000
0000
;
