#TITLE:Winnipeg is Fucking Over;
#SUBTITLE:;
#ARTIST:Venetian Snares;
#TITLETRANSLIT:;
#SUBTITLETRANSLIT:;
#ARTISTTRANSLIT:;
#CREDIT:;
#BANNER:WIFO-banner.jpg;
#BACKGROUND:WIFO-bg.jpg;
#LYRICSPATH:;
#CDTITLE:cdtitle.jpg;
#MUSIC:Winnipeg is Fucking Over.mp3;
#OFFSET:-6.900;
#SAMPLESTART:23.960;
#SAMPLELENGTH:12.000;
#SELECTABLE:YES;
#BPMS:0.000=245.021;
#STOPS:;
#BGCHANGES:;
// cache tags:
#FIRSTBEAT:0.000;
#LASTBEAT:573.750;
#SONGFILENAME:Songs/hard shit/Winnipeg is Fucking Over [dantheman650]/Winnipeg is Fucking Over.sm;
#HASMUSIC:1;
#HASBANNER:1;
#MUSICLENGTH:148.506;
// end cache tags

//---------------dance-single - ----------------
#NOTES:
     dance-single:
     :
     Hard:
     14:
     1.000,1.000,1.000,0.707,0.650,1204.000,331.000,105.000,0.000,2.000:
1001
0000
1001
0000
,
0000
0000
0000
1001
,
1001
1001
1001
0000
,
0000
0000
0000
0000
0000
0000
0000
0000
1000
0000
0100
0000
0010
0000
0001
0010
,
0001
0010
0001
0000
0000
0000
0000
0000
1001
0000
0000
0000
0010
0000
0100
0000
,
0000
0000
1000
0100
0010
0000
0100
0000
1010
0000
1000
0100
1000
0100
0010
0001
,
0010
0000
1000
0001
1000
0100
0010
0100
0010
0001
0010
0001
0010
0000
1001
0000
,
0100
0000
1010
0000
1010
0000
1000
0100
1000
0000
1010
0000
0001
0010
0100
1000
,
0100
0000
1010
0000
0100
0000
0011
0000
1000
0001
1000
0000
0100
0000
0011
0000
,
1010
0000
1010
0000
0100
0010
0001
0000
1000
0100
0010
0000
0101
0000
0101
0000
,
0101
1010
0100
1000
0220
0330
0220
0330
,
1000
0010
1000
0000
0000
0000
0000
0000
1100
0000
0000
0000
1010
0000
0101
0000
,
0000
0000
1010
0000
0101
0000
0010
0100
0010
0100
0010
0000
1000
0010
0100
0010
,
1000
0000
1000
0000
0100
0010
0001
0010
0001
1000
0001
1000
0100
0000
0001
1000
,
0001
0000
1100
0000
1100
0000
0010
0000
0011
0000
0011
0000
1000
0100
0010
0100
,
1000
0000
1100
0000
0011
0000
0100
0000
1000
0100
0010
0001
0010
0000
0100
0000
,
1001
0000
1000
0100
0010
0001
0010
0000
0010
0100
1000
0000
1010
0000
1010
0000
,
1010
0000
0001
0000
0001
0000
0010
0100
1000
0000
0100
0000
1010
0000
0001
0000
,
0010
0100
1010
0100
0010
0100
1001
0010
,
0100
1010
0100
0001
1010
0100
1000
0100
,
0011
0100
1000
0100
1010
0001
0010
0101
,
0010
1000
0110
0001
0010
0001
0110
1000
,
0100
0010
0101
0010
0100
1001
0010
0100
,
1001
0100
0010
0001
0110
1000
0100
0010
,
1001
0000
1000
0001
1000
0010
0100
0000
2020
0000
3030
0000
2020
0000
0000
3030
,
0001
0010
0001
0000
0010
0000
0100
0000
1001
0000
0000
0000
1010
0000
0100
0000
,
0000
0000
0110
0000
1000
0000
0100
0000
0001
1000
0010
0000
0100
0001
1000
0001
,
1000
0000
1000
0000
0010
0100
0010
0100
0001
1000
0001
1000
0100
0000
1000
0100
,
0010
0000
0110
0000
0110
0000
1000
0000
0001
0000
1000
0100
1000
0100
1000
0000
,
1001
0000
1001
0000
0010
1000
0100
0000
0001
0100
0010
0000
0010
0000
0100
0000
,
1001
0000
1001
0000
0010
0100
0010
0000
0100
0001
0100
0000
0110
0000
0110
0000
,
0110
0000
0001
0010
0001
0010
0100
1000
0100
0000
1000
0000
0110
0000
0001
0000
,
0001
0100
1010
0100
0010
1000
0110
0100
,
0010
1001
0100
0010
1001
0100
0010
0001
,
1010
0100
0010
0001
1010
0100
0001
1010
,
0100
0010
1100
0010
0100
0010
0101
0010
,
1000
0100
1010
0001
0100
1010
0100
0010
,
0101
0010
1000
0001
0110
0001
1100
0010
,
0101
0000
0020
0030
1000
0000
0110
0000
1000
0100
1000
0000
0110
0000
1000
0000
,
0010
0100
1001
0010
0100
1000
0101
0010
,
0001
1100
0010
0100
1010
0100
0010
0100
,
1001
0100
0010
0001
1010
0100
0010
0100
,
0001
0010
0100
0000
1010
0000
0100
0000
0010
0000
0001
0000
1010
0000
0100
0000
,
0010
0100
1010
0100
0010
0101
0010
0100
,
1010
0100
1000
0100
0011
0100
1000
0100
,
0200
0000
0000
0300
0200
0000
0000
0300
0001
1000
0001
0000
0110
0000
1000
0000
,
0100
0010
1001
0100
1000
0100
1001
0100
,
1000
0110
0001
0010
1100
0010
0100
1000
,
0110
1000
0100
0010
1001
0100
0010
0101
,
0010
0100
1000
0000
0110
0000
1000
0000
0100
0000
0010
0000
1001
0000
0010
0000
,
1000
0100
1001
0100
0010
1001
0100
0010
,
0101
0010
1000
0100
0011
1000
0100
0001
,
1010
0000
0100
0000
0010
0000
0001
0000
0010
0100
0010
0000
1100
0000
0010
0000
,
0001
0010
1100
0010
0100
1000
0110
0001
,
0010
1001
0100
0010
0101
0010
0100
1000
,
0110
1000
0100
0010
1100
0010
0100
0011
,
1000
0001
1000
0000
0101
0000
0010
0000
1000
0000
0100
0000
0011
0000
0100
0000
,
1000
0100
1010
0100
0010
0101
0010
1000
,
0110
1000
0001
0010
0101
0010
1000
0110
,
0001
0000
1000
0010
1000
0010
1000
0010
2000
0000
0000
0000
0000
0000
0002
3000
,
0000
0000
0203
0000
0000
0300
0010
0001
,
0200
0300
0020
0030
2000
0000
0000
0000
0000
0000
3200
0000
0000
0000
0000
0000
,
0320
0000
0000
0000
0000
0000
0000
0000
0030
0000
0000
0000
0002
0003
2000
3000
,
0100
0010
0100
0000
0100
0000
0100
0000
1000
0100
0010
0100
1001
0000
0000
0000
,
2000
3000
0110
0000
0002
0023
1230
2300
,
3000
0000
2010
0000
0000
3000
0000
0000
0102
0000
0000
0000
0003
0000
0000
0000
,
0000
0000
0000
0000
2020
0000
0000
3030
0101
0000
0000
0000
1010
0000
0101
0000
,
0000
0000
0000
0110
0000
0000
1001
0000
0100
0000
0100
0000
1001
0000
0000
0100
0000
0000
0010
0000
0000
0100
0000
0000
,
2001
3002
1003
0000
1100
0011
0000
0101
,
1010
0000
0100
0000
0011
0000
0100
0000
1000
0001
1000
0000
2000
0000
3200
0000
,
0321
0000
0030
0000
1100
0000
1100
0000
0001
0010
0001
0010
0100
0000
2000
0000
,
3001
0000
0000
0000
1100
0000
0010
0000
2000
0000
0000
3000
0002
0000
0000
0000
,
0003
0000
2000
0000
3002
0000
1003
0010
1000
0000
0010
0000
1100
0000
1100
0000
,
0010
0100
0010
0000
1001
0000
1000
0100
0010
0100
1000
0000
0101
0000
0010
0000
,
2000
0100
3020
0000
0031
0000
0101
0000
0010
0000
0010
0000
0010
0000
1100
0000
,
0001
0010
0100
0000
1000
0000
0220
0000
0000
0330
2002
3003
1000
0000
0100
0000
,
0010
0000
0020
0000
0000
0000
0000
0030
0000
0000
0100
0000
1000
0000
0010
0000
,
1000
0000
0100
0010
0000
0100
0010
0000
0100
0010
0000
0100
0010
0000
0001
1000
,
0000
0001
1000
0000
0001
1000
0001
1000
0002
0000
0000
0003
1000
0000
0100
0000
,
0011
0100
0010
0001
0110
2000
3000
0002
,
2003
0000
0000
0000
3000
0000
0000
0000
0020
0000
0000
0000
0030
0000
0000
0000
2020
0000
0000
0000
0000
0000
3030
0000
0000
0000
0000
0000
0201
0000
0000
0300
,
0002
0000
0000
0003
1000
0000
0010
0000
0100
0000
0010
0000
0100
0000
0000
0000
0001
0000
0000
0000
0110
0000
0000
0000
1000
0000
0100
0000
0010
0000
0000
0000
,
0101
0000
0010
1000
0100
0000
0001
0010
0001
0000
1000
0100
1000
0010
0100
0000
,
0001
0010
0100
0000
1000
0010
0100
0010
0100
0001
0010
0001
0010
0000
1000
0100
,
1000
0010
0100
0010
0100
0000
1001
0000
0001
1000
0001
0000
0110
0000
0000
0110
,
0000
0000
0110
0000
0000
0110
0000
0000
1001
0000
0000
0110
0000
0000
0011
0000
,
0000
1100
0000
0000
0110
0000
1001
0000
0110
0000
1000
0000
0100
0000
0011
0000
,
0011
0000
2020
0000
0000
0000
0000
0000
3030
0000
0100
0000
0011
0000
0100
1000
,
0100
1000
0100
0000
1001
0000
1001
0000
0210
0000
0010
0300
0120
0000
0100
0030
,
0210
0000
0010
0300
1000
0000
0100
0000
0011
0000
0010
0100
1000
0100
0010
0000
,
1001
0000
0010
0100
0010
0000
1000
0100
0000
0010
0001
0000
0000
1000
0100
0000
,
0001
0000
0000
0001
0100
0000
1000
0100
0010
0001
0010
0000
0001
1000
0001
0000
,
0010
0000
0100
0000
1010
0000
1000
0001
1000
0001
0010
0000
1000
0000
1000
0000
,
0110
0000
1000
0100
0010
0100
0010
0000
1010
0000
1010
0000
0202
0000
0000
0000
,
0000
0000
0303
0000
0110
0000
0000
0000
0010
0000
0010
0000
1001
0000
0100
0010
,
0001
0010
0100
0000
0010
0000
0010
0000
2200
0000
0000
3300
2200
0000
0000
3300
,
2200
0000
0000
3300
2100
0000
0100
3000
0010
0000
0001
0010
0001
0010
0100
0000
,
0102
0000
0000
0003
2100
0000
0000
3000
0201
0000
0000
0300
0001
0000
1000
0100
,
0010
0000
0000
1000
0100
0000
1001
0000
0000
0000
1001
0000
0000
0000
1001
0000
,
0000
1001
0000
1001
0110
0000
1000
0100
,
1001
0000
0000
0000
0000
0000
1000
0000
0000
0001
0000
0000
1000
0000
0000
0100
0000
0000
0010
0000
0000
0000
0000
0000
0011
0000
0000
0000
0000
0000
1100
0000
0000
0000
0000
0000
1000
0000
0000
0000
0100
0000
0000
0000
0010
0000
0000
0000
,
0001
0000
0010
0000
0100
0000
0100
0000
1001
0000
0010
0000
0010
0000
0000
1000
0000
0000
0110
0000
0000
1000
0000
0000
,
0100
0010
0101
0010
0100
1000
0110
0001
,
0100
0000
1001
0000
0100
0000
1000
0100
0010
0000
0001
0000
0001
0000
0001
0000
,
1010
0000
0100
1000
0100
0000
0001
0010
0001
0000
1000
0000
0010
0000
0100
0000
,
1001
0000
0100
0000
0011
0000
0100
0000
1000
0000
0001
1000
0001
0000
0100
0000
,
1000
0100
0011
0100
0010
1001
0100
0010
,
1100
0000
0010
0000
0010
0000
0010
0000
1010
0000
0001
0010
0100
0000
1000
0100
,
0000
0000
1001
0000
0000
1000
0100
0010
0001
0000
0001
0000
0110
0000
1000
0000
,
1000
0000
0100
0010
0001
0000
0010
0000
0100
0000
0010
0000
0101
0000
0010
0000
,
0100
1001
0010
0010
1001
0100
0100
0100
,
1000
0000
1000
0100
1000
0000
0000
0020
0030
0000
2002
3003
0000
1001
0000
0000
,
1000
0100
0010
0001
0010
0000
0001
0010
0100
0010
0001
0000
1000
0100
1000
0000
,
0102
0000
0010
0003
1010
0000
1000
0100
0010
0100
0010
0000
0011
0000
1100
0000
,
0110
0000
0010
0100
0010
0100
0010
0000
0101
0000
0101
0000
0202
0000
0000
0303
,
1000
0200
0000
0300
0001
0020
0000
0030
1100
0000
0010
0000
0101
0000
0010
0000
,
1100
0010
0101
0010
0110
0001
1001
1000
,
0110
0001
0110
1000
0110
0001
0110
1000
,
0101
0000
0010
0000
1000
0100
0020
0030
0001
0010
0200
0300
1000
0100
0020
0030
,
1001
0100
1010
0100
0011
1000
0101
0010
,
1100
0010
0101
0010
1001
0100
0011
0100
,
0011
0000
0100
0000
1010
0000
0100
0000
1001
0000
0010
0000
1000
0001
0020
0030
,
0100
1000
0020
0030
0100
0010
0002
0003
1010
0000
0100
0000
1010
0000
0100
0000
,
0011
0100
0011
0100
1010
0100
1010
0100
,
0011
0100
0011
0100
1001
0010
1001
0010
,
1100
0000
0010
0000
0001
1000
0200
0300
0100
0010
0200
0300
1000
0001
2000
3000
,
0110
0001
0110
1000
0110
0001
0110
1000
,
0101
0010
1100
0010
0101
0010
1100
0010
,
0101
0000
0010
0000
1001
0000
1001
0000
1001
0000
1001
0000
1000
0200
0000
0300
,
0010
0002
0000
0003
1000
0002
0000
0003
1010
0000
0100
0000
1010
0000
0100
0000
,
0011
0000
0100
0000
1010
0000
0100
0000
1000
0001
1000
0001
1000
0000
0100
0000
,
0100
0100
0101
0010
1100
0010
0101
0010
,
1001
0000
0100
0000
1000
0010
1000
0010
1000
0001
1000
0001
0100
0001
0100
0001
,
0010
0000
0010
0000
0001
0010
0100
1000
0100
0000
0100
0000
0011
0000
0011
0000
,
1100
0000
1100
0000
0010
0100
0010
0100
0010
0000
1001
0000
1001
0000
1001
0000
,
0110
0000
1000
0000
0101
0000
0010
0000
1100
0000
0010
0000
0001
0020
0100
0030
,
1000
0200
0010
0300
0001
0020
0100
0030
1100
0000
1100
0000
1100
0000
1100
0000
,
1000
0100
0010
0001
0110
0000
0110
0000
1100
0000
0010
0000
0101
0000
0010
0000
,
1001
0000
0100
0000
1010
0000
0001
0000
1100
0000
0010
0000
1000
0010
0100
0001
,
0010
0000
0100
0000
1000
0200
0010
0300
0001
0020
0100
0030
1000
0002
1000
0003
,
1100
0010
0101
0101
1010
0100
1010
1010
,
1001
0010
1001
0100
1001
0010
1001
1001
,
0110
0000
0110
0000
0110
0000
0110
0000
0110
0000
0110
0000
2002
0000
0000
3003
,
2002
0000
0000
3003
2002
0000
0000
3003
0000
0000
0000
0000
0000
0000
0000
0000
;

//---------------dance-single - Copied from----------------
#NOTES:
     dance-single:
     Copied from:
     Challenge:
     15:
     1.000,1.000,1.000,0.687,0.805,1254.000,339.000,102.000,0.000,2.000:
1001
0000
1001
0000
,
0000
0000
0000
1001
,
1001
1001
1001
0000
,
0000
0000
0000
0000
0000
0000
0000
0000
1000
0000
0100
0000
0010
0000
0001
0010
,
0001
0010
0001
0000
0000
0000
0000
0000
1001
0000
0000
0000
0010
0000
0100
0000
,
0000
0000
1000
0100
0010
0000
0100
0000
1010
0000
1000
0100
1000
0100
0010
0001
,
0010
0000
0000
0000
1000
0100
1000
0100
1000
0000
0100
0000
0010
0000
0100
0000
0010
0000
0001
0000
0010
0000
0001
0000
0010
0000
0000
0000
1001
0000
0000
0000
,
0100
0000
0000
0000
1010
0000
0000
0000
1010
0000
0000
0000
1000
0100
0010
0001
0010
0000
0000
0000
1010
0000
0000
0000
0001
0010
0100
1000
0001
0010
0100
0000
,
1000
0000
0000
0000
1010
0000
0000
0000
0100
0000
0000
0000
0011
0000
0000
0000
1000
0010
1000
0010
1000
0000
0000
0000
0100
0000
0000
0000
0011
0000
0000
0000
,
1010
0000
1010
0000
0100
0010
0001
0000
1000
0100
0010
0000
0101
0000
0101
0000
,
0101
1010
0100
1000
0220
0330
0220
0330
,
1000
0010
1000
0000
0000
0000
0000
0000
1100
0000
0000
0000
1010
0000
0101
0000
,
0000
0000
1010
0000
0101
0000
0010
0100
0010
0100
0010
0000
1000
0010
0100
0010
,
1000
0000
0000
0000
1000
0000
0000
0000
0100
0000
0010
0000
0001
0000
0010
0000
0001
0000
1000
0000
0001
0000
1000
0000
0100
0000
0000
0000
0001
1000
0001
1000
,
0001
0000
0000
0000
1100
0000
0000
0000
1100
0000
0000
0000
0010
0000
0000
0000
0011
0000
0000
0000
0011
0000
0000
0000
0001
0100
0001
0100
0001
0000
0010
0000
,
1100
0000
0000
0000
1100
0000
0000
0000
0011
0000
0000
0000
0100
0000
0000
0000
1000
0100
0010
0001
0010
0000
0100
0000
1000
0000
0000
0000
0100
0000
0000
0000
,
1001
0000
1000
0100
0010
0001
0010
0000
0010
0100
1000
0000
1010
0000
1010
0000
,
1010
0000
0001
0000
0001
0000
0010
0100
1000
0000
0100
0000
1010
0000
0001
0000
,
0010
0100
1010
0100
0010
0100
1001
0010
,
0100
1010
0100
0001
1010
0100
1000
0100
,
0011
0100
1000
0100
1010
0001
0010
0101
,
0010
1000
0110
0001
0010
0001
0110
1000
,
0100
0010
0101
0010
0100
1001
0010
0100
,
1001
0100
0010
0001
0110
1000
0100
0010
,
1001
0000
1000
0001
1000
0010
0100
0000
2020
0000
3030
0000
2020
0000
0000
3030
,
0001
0010
0001
0000
0010
0000
0100
0000
1001
0000
0000
0000
1010
0000
0100
0000
,
0000
0000
0110
0000
1000
0000
0100
0000
0001
1000
0010
0000
0100
0001
1000
0001
,
1000
0000
0000
0000
1000
0000
0000
0000
0010
0000
0100
0000
0010
0000
0100
0000
0001
0000
1000
0000
0001
0000
1000
0000
0100
0000
0000
0000
1000
0010
1000
0010
,
1000
0000
0000
0000
0110
0000
0000
0000
0110
0000
0000
0000
1000
0000
0000
0000
0001
0000
0000
0000
1000
0000
0100
0000
1000
0100
1000
0100
1000
0000
0000
0000
,
1001
0000
0000
0000
1001
0000
0000
0000
0010
0000
1000
0000
0100
0000
0000
0000
0001
0010
0100
1000
0100
0000
0000
0000
0010
0000
0000
0000
0100
0000
0000
0000
,
1001
0000
1001
0000
0010
0100
0010
0000
0100
0001
0100
0000
0110
0000
0110
0000
,
0110
0000
0000
0000
0001
0000
0010
0000
0001
0000
0010
0000
0100
0010
0100
0010
0100
0000
0000
0000
1000
0000
0000
0000
0110
0000
0000
0000
0001
0000
0000
0000
,
0001
0100
1010
0100
0010
1000
0110
0100
,
0010
1001
0100
0010
1001
0100
0010
0001
,
1010
0100
0010
0001
1010
0100
0001
1010
,
0100
0010
1100
0010
0100
0010
0101
0010
,
1000
0100
1010
0001
0100
1010
0100
0010
,
0101
0010
1000
0001
0110
0001
1100
0010
,
0101
0000
0020
0030
1000
0000
0110
0000
1000
0100
1000
0000
0110
0000
1000
0000
,
0010
0100
1001
0010
0100
1000
0101
0010
,
0001
1100
0010
0100
1010
0100
0010
0100
,
1001
0100
0010
0001
1010
0100
0010
0100
,
0001
0010
0100
0000
1010
0000
0100
0000
0010
0000
0001
0000
1010
0000
0100
0000
,
0010
0100
1010
0100
0010
0101
0010
0100
,
1010
0100
1000
0100
0011
0100
1000
0100
,
0200
0000
0000
0300
0200
0000
0000
0300
0001
1000
0001
0000
0110
0000
1000
0000
,
0100
0010
1001
0100
1000
0100
1001
0100
,
1000
0110
0001
0010
1100
0010
0100
1000
,
0110
1000
0100
0010
1001
0100
0010
0101
,
0010
0100
1000
0000
0110
0000
1000
0000
0100
0000
0010
0000
1001
0000
0010
0000
,
1000
0100
1001
0100
0010
1001
0100
0010
,
0101
0010
1000
0100
0011
1000
0100
0010
,
1010
0000
0100
0000
0010
0000
0001
0000
0010
0100
0010
0000
1100
0000
0010
0000
,
0001
0010
1100
0010
0100
1000
0110
0001
,
0010
1001
0100
0010
0101
0010
0100
1000
,
0110
1000
0100
0010
1100
0010
0100
0011
,
1000
0001
1000
0000
0101
0000
0010
0000
1000
0000
0100
0000
0011
0000
0100
0000
,
1000
0100
1010
0100
0010
0101
0010
1000
,
0110
1000
0001
0010
0101
0010
1000
0110
,
0001
0000
0000
0000
1000
0100
0010
0001
1000
0100
0010
0001
1000
0100
0010
0001
2000
0000
0000
0000
0000
0000
0000
0000
0000
0000
0000
0000
0002
0000
3000
0000
,
0000
0000
0203
0000
0000
0300
0010
0001
,
0200
0300
0020
0030
2000
0000
0000
0000
0000
0000
3200
0000
0000
0000
0000
0000
,
0320
0000
0000
0000
0000
0000
0000
0000
0030
0000
0000
0000
0002
0003
2000
3000
,
0100
0010
0100
0000
0100
0000
0100
0000
1000
0100
0010
0100
1001
0000
0000
0000
,
2000
3000
0110
0000
0002
0023
1230
2300
,
3000
0000
2010
0000
0000
3000
0000
0000
0102
0000
0000
0000
0003
0000
0000
0000
,
0000
0000
0000
0000
2020
0000
0000
3030
0101
0000
0000
0000
1010
0000
0101
0000
,
0000
0000
0000
0110
0000
0000
1001
0000
0100
0000
0100
0000
1001
0000
0000
0100
0000
0000
0010
0000
0000
0100
0000
0000
,
2001
3002
1003
0000
1100
0011
0000
0101
,
1010
0000
0100
0000
0011
0000
0100
0000
1000
0001
1000
0000
2000
0000
3200
0000
,
0321
0000
0030
0000
1100
0000
1100
0000
0001
0010
0001
0010
0100
0000
2000
0000
,
3001
0000
0000
0000
0000
0000
1100
0000
0000
0010
0000
0000
0001
0010
0001
0010
0001
0010
0002
0000
0000
0000
0000
0000
,
0003
0000
0000
0000
2000
0000
0000
0000
3002
0000
0000
0000
1003
0100
0010
0000
0001
0000
0010
0000
0001
0000
0000
0000
1100
0000
0000
0000
1100
0000
0000
0000
,
0010
0100
0010
0000
1001
0000
1000
0100
0010
0100
1000
0000
0101
0000
0010
0000
,
2000
0100
3020
0000
0031
0000
0101
0000
0010
0000
0010
0000
0010
0000
1100
0000
,
0001
0010
0100
0000
1000
0000
0220
0000
0000
0330
2002
3003
1000
0000
0100
0000
,
0010
0000
0020
0000
0000
0000
0000
0030
0000
0000
0100
0000
1000
0000
0010
0000
,
1000
0000
0100
0010
0000
0100
0010
0000
0100
0010
0000
0100
0010
0000
0001
1000
,
0000
0001
1000
0000
0001
1000
0001
1000
0002
0000
0000
0003
1000
0000
0100
0000
,
0011
0100
0010
0001
0110
2000
3000
0002
,
2003
0000
0000
0000
3000
0000
0000
0000
0020
0000
0000
0000
0030
0000
0000
0000
2020
0000
0000
0000
0000
0000
3030
0000
0000
0000
0000
0000
0201
0000
0000
0300
,
0002
0000
0000
0003
1000
0100
1000
0000
0100
0000
0010
0000
0100
0000
0000
0000
0001
0000
0000
0000
0110
0000
0000
0000
1000
0000
0100
0000
0010
0000
0000
0000
,
0101
0000
0010
1000
0100
0000
0001
0010
0001
0000
1000
0100
1000
0010
0100
0000
,
0001
0010
0100
0000
1000
0010
0100
0010
0100
0001
0010
0001
0010
0000
1000
0100
,
1000
0010
0100
0010
0100
0000
1001
0000
0001
1000
0001
0000
0110
0000
0000
0110
,
0000
0000
0110
0000
0000
0110
0000
0000
1001
0000
0000
0110
0000
0000
0011
0000
,
0000
1100
0000
0000
0110
0000
1001
0000
0110
0000
1000
0000
0100
0000
0011
0000
,
0011
0000
0000
0000
0000
0000
0001
0000
0010
0000
0001
0000
0010
0000
0100
0000
1000
0000
0100
0000
1000
0000
0100
0000
1000
0000
0000
0000
0000
0000
0100
0000
0000
0000
0000
0000
0011
0000
0000
0000
0000
0000
0100
0000
0000
1000
0000
0000
,
0100
1000
0100
0000
1001
0000
1001
0000
0210
0000
0010
0300
0120
0000
0100
0030
,
0210
0000
0010
0300
1000
0000
0100
0000
0011
0000
0010
0100
1000
0100
0010
0000
,
1001
0000
0010
0100
0010
0000
1000
0100
0000
0010
0001
0000
0000
1000
0100
0000
,
0001
0000
0000
0001
0100
0000
1000
0100
0010
0001
0010
0000
0001
1000
0001
0000
,
0010
0000
0100
0000
1010
0000
1000
0001
1000
0001
0010
0000
1000
0000
1000
0000
,
0110
0000
1000
0100
0010
0100
0010
0000
1010
0000
1010
0000
0202
0000
0000
0000
,
0000
0000
0000
0000
0303
0000
0000
0000
0110
0000
0000
0000
0000
0000
1000
0100
0010
0000
0000
0000
0010
0000
0000
0000
1001
0000
0000
0000
0100
0000
0010
0000
,
0001
0010
0100
0000
0010
0000
0010
0000
2200
0000
0000
3300
2200
0000
0000
3300
,
2200
0000
0000
3300
2100
0000
0100
3000
0010
0000
0001
0010
0001
0010
0100
0000
,
0102
0000
0000
0003
2100
0000
0000
3000
0201
0000
0000
0300
0001
0000
1000
0100
,
0010
0000
0000
1000
0100
0000
1001
0000
0000
0000
1001
0000
0000
0000
1001
0000
,
0000
1001
0000
1001
0110
0000
1000
0100
,
1001
0000
0000
0000
0000
0000
1000
0000
0000
0001
0000
0000
1000
0000
0000
0100
0000
0000
0010
0000
0000
0000
0000
0000
0011
0000
0000
0000
0000
0000
1100
0000
0000
0000
0000
0000
1000
0000
0000
0000
0100
0000
0000
0000
0010
0000
0000
0000
,
0001
0000
0010
0000
0100
0000
0100
0000
1001
0000
0010
0000
0010
0000
0000
1000
0000
0000
0110
0000
0000
1000
0000
0000
,
0100
0010
0101
0010
0100
1000
0110
0001
,
0100
0000
0000
0000
1001
0000
0000
0000
0100
0000
0000
0000
1000
0100
1000
0100
0010
0000
0000
0000
0001
0000
0000
0000
0001
0000
0000
0000
0001
0000
0000
0000
,
1010
0000
0100
1000
0100
0000
0001
0010
0001
0000
1000
0000
0010
0000
0100
0000
,
1001
0000
0100
0000
0011
0000
0100
0000
1000
0000
0001
1000
0001
0000
0100
0000
,
1000
0100
0011
0100
0010
1001
0100
0010
,
1100
0000
0010
0000
0010
0000
0010
0000
1010
0000
0001
0010
0100
0000
1000
0100
,
0000
0000
1001
0000
0000
1000
0100
0010
0001
0000
0001
0000
0110
0000
1000
0000
,
1000
0000
0100
0010
0001
0000
0010
0000
0100
0000
0010
0000
0101
0000
0010
0000
,
0100
1001
0010
0010
1001
0100
0100
0100
,
1000
0000
1000
0100
1000
0000
0000
0020
0030
0000
2002
3003
0000
1001
0000
0000
,
1000
0100
0010
0001
0010
0000
0001
0010
0100
0010
0001
0000
1000
0100
1000
0000
,
0102
0000
0010
0003
1010
0000
1000
0100
0010
0100
0010
0000
0011
0000
1100
0000
,
0110
0000
0010
0100
0010
0100
0010
0000
0101
0000
0101
0000
0202
0000
0000
0303
,
1000
0200
0000
0300
0001
0020
0000
0030
1100
0000
0010
0000
0101
0000
0010
0000
,
1100
0010
0101
0010
0110
0001
1001
1000
,
0110
0001
0110
1000
0110
0001
0110
1000
,
0101
0000
0010
0000
1000
0100
0020
0030
0001
0010
0200
0300
1000
0100
0020
0030
,
1001
0100
1010
0100
0011
1000
0101
0010
,
1100
0010
0101
0010
1001
0100
0011
0100
,
0011
0000
0100
0000
1010
0000
0100
0000
1001
0000
0010
0000
1000
0001
0020
0030
,
0100
1000
0020
0030
0100
0010
0002
0003
1010
0000
0100
0000
1010
0000
0100
0000
,
0011
0100
0011
0100
1010
0100
1010
0100
,
0011
0100
0011
0100
1001
0010
1001
0010
,
1100
0000
0010
0000
0001
1000
0200
0300
0100
0010
0200
0300
1000
0001
2000
3000
,
0110
0001
0110
1000
0110
0001
0110
1000
,
0101
0010
1100
0010
0101
0010
1100
0010
,
0101
0000
0010
0000
1001
0000
1001
0000
1001
0000
1001
0000
1000
0200
0000
0300
,
0010
0002
0000
0003
1000
0002
0000
0003
1010
0000
0101
0000
1010
0000
0110
0000
,
0011
0000
0110
0000
1100
0000
0101
0000
1000
0001
1000
0001
1000
0000
0100
0000
,
0100
0100
0101
0110
1010
0101
1010
0110
,
1001
0000
0110
0000
1000
0010
1000
0010
1000
0001
1000
0001
0100
0001
0100
0001
,
0010
0000
0010
0000
0001
0010
0100
1000
0100
0000
0100
0000
0011
0000
0011
0000
,
1100
0000
1100
0000
0010
0100
0010
0100
0010
0000
1001
0000
1001
0000
1001
0000
,
0110
0000
1000
0000
0101
0000
0010
0000
1100
0000
0010
0000
0001
0020
0100
0030
,
1000
0200
0010
0300
0001
0020
0100
0030
1100
0000
1100
0000
1100
0000
1100
0000
,
1000
0100
0010
0001
0110
0000
0110
0000
1100
0000
0010
0000
0101
0000
0010
0000
,
1001
0000
0100
0000
1010
0000
0001
0000
1100
0000
0010
0000
1000
0010
0100
0001
,
0010
0000
0100
0000
1000
0200
0010
0300
0001
0020
0100
0030
1000
0002
1000
0003
,
1100
0010
0101
0101
1010
0100
1010
1010
,
1001
0010
1001
0100
1001
0010
1001
1001
,
0110
0000
0110
0000
0110
0000
0110
0000
0110
0000
0110
0000
2002
0000
0000
3003
,
2002
0000
0000
3003
2002
0000
0000
3003
0000
0000
0000
0000
0000
0000
0000
0000
;
