#TITLE:Overcome;
#SUBTITLE:;
#ARTIST:All That Remains;
#TITLETRANSLIT:;
#SUBTITLETRANSLIT:;
#ARTISTTRANSLIT:;
#CREDIT:B. Abear;
#BANNER:Bn-Overcome.png;
#BACKGROUND:Bg-Overcome.png;
#LYRICSPATH:;
#CDTITLE:;
#MUSIC:10 Overcome.ogg;
#OFFSET:-0.205;
#SAMPLESTART:48.160;
#SAMPLELENGTH:19.800;
#SELECTABLE:YES;
#BPMS:0.000=416.000,2.000=208.000;
#STOPS:0.000=0.144
,1.000=0.144
,98.000=0.288
;
#BGCHANGES:;
// cache tags:
#FIRSTBEAT:0.000;
#LASTBEAT:533.000;
#SONGFILENAME:Songs/SSSC PACK/[Cosmic Pope] - Overcome/Overcome.sm;
#HASMUSIC:1;
#HASBANNER:1;
#MUSICLENGTH:158.884;
// end cache tags

//---------------dance-single - B. Abear----------------
#NOTES:
     dance-single:
     B. Abear:
     Challenge:
     15:
     1.000,1.000,0.428,0.170,1.000,1472.000,68.000,27.000,10.000,11.000:

MMMM
0000
MMMM
0000
0001
1000
0100
0010
,
0001
1000
0001
0000
0001
0100
0001
0000
0100
0000
0100
0000
0001
0000
0010
0000
,
0001
0010
0100
1000
0001
0100
0001
1000
0100
0000
0010
0000
0001
0000
0010
0000
,
0001
0100
0001
0000
0001
1000
0001
0000
0010
0000
0010
0000
0001
0000
1000
0000
,
0001
0100
0010
0100
0001
1000
0100
0010
0001
0000
1000
0000
0100
0000
0010
0000
,
0100
0010
0100
0000
0100
1000
0100
0000
0010
0000
0010
0000
0001
0000
1000
0000
,
0010
0000
0100
0000
0001
0000
0001
0000
1000
0010
1000
0010
1000
0001
1000
0001
,
0010
0001
0010
0001
0010
0100
0010
0100
1000
0010
0100
0001
0010
0100
1000
0001
,
0100
0010
1000
0001
0010
0000
0011
0000
1001
0000
1000
0000
0100
0000
0010
0000
,
0001
0010
0001
0000
0001
1000
0001
0000
1000
0000
1000
0000
0010
0000
0100
0000
,
0001
0100
0010
1000
0100
0010
0100
1000
0001
0000
0010
0000
0100
0000
0010
0000
,
0001
0100
0010
0000
1010
0000
0000
0000
0010
0000
0100
0000
0001
0000
1000
0000
,
0100
0010
0001
1000
0010
0100
0010
1000
0100
0000
0010
0000
0001
0000
1000
0000
,
0010
1000
0100
0000
1100
0000
0000
0000
0100
0000
0100
0000
0010
0000
0100
0000
,
1000
0010
0100
0001
1000
0100
1000
0001
0010
0000
0010
0000
0100
1000
0001
1000
,
0100
0000
0100
0000
1000
0010
0100
0001
0100
0000
0100
0000
0010
1000
0001
0010
,
0100
0000
1001
0000
0010
0000
0000
0000
0100
0010
1000
0001
0010
0100
1000
0010
,
1000
0001
0100
0010
0100
0001
1000
0100
0010
0001
0010
0100
1000
0001
0100
0010
,
1000
0001
0100
0001
0100
0010
1000
0100
0010
0001
0010
0001
1000
0010
0100
0001
,
0010
0100
0010
0001
1000
0010
0100
0010
1000
0001
0100
0010
1000
0100
0010
0001
,
1000
0001
1000
0010
0100
0001
0010
0001
0100
0010
1000
0010
0100
0010
1000
0001
,
1000
0100
0010
0100
1000
0001
0100
0010
0100
0010
1000
0001
0010
0100
1000
0001
,
0100
0010
1000
0100
1000
0001
0010
0001
0100
0010
1000
0010
0100
0001
1000
0001
,
0010
0100
1000
0100
1000
0001
0100
0010
0100
0001
1000
0010
1000
0001
0010
0100
,
1000
0001
0100
0010
0100
0001
1000
0100
0010
0000
0000
0000
2MM2
0000
0000
0000
,
3013
0000
0000
0000
1000
0000
0100
0000
0010
0000
0100
0000
0010
0001
0010
0000
,
0010
0100
0010
0000
0100
0000
0100
0000
1000
0000
0001
0000
0100
0010
1000
0001
,
0010
0100
1000
0100
1000
0000
0001
0000
0100
0000
0010
0000
1000
0001
1000
0000
,
1000
0100
1000
0000
0001
0000
0001
0000
0010
0000
0100
0000
1000
0100
0010
0001
,
0100
0010
0100
0001
1000
0000
0010
0000
0100
0000
0001
0000
0100
0001
0100
0000
,
0100
0010
0100
0000
0010
0000
0010
0000
1000
0000
0001
0000
1000
0000
0100
0000
,
0110
0000
0011
0000
0001
0010
0001
0010
0100
0010
0100
0010
0100
1000
0100
1000
,
0001
1000
0001
1000
0010
0100
0001
1000
0100
0010
0001
1000
0010
0100
0001
1000
,
0001
1000
0100
0010
0001
0000
1000
0000
0010
0000
0100
0000
0010
1000
0010
0000
,
0010
0100
0010
0000
0100
0000
0100
0000
0001
0000
1000
0000
0100
0010
0001
1000
,
0001
1000
0010
0100
0001
0000
1000
0000
0100
0000
0010
0000
0100
0010
0100
0000
,
0100
1000
0100
0000
1000
0000
1000
0000
0001
0000
0100
0000
0010
0100
0001
0010
,
0100
1000
0100
0010
0001
0000
0000
0000
1001
0000
0000
0000
1000
0001
0100
0000
,
0101
0000
0000
0000
0001
0000
0001
0000
1000
0000
0100
0000
0010
0100
1000
0001
,
0100
0001
1000
0010
1000
0000
1000
0000
0010
0100
0001
0100
0001
0000
0001
0000
,
1000
0100
0010
0001
0100
0000
0100
0000
0010
1000
0001
1000
0010
0000
1010
0000
,
1000
0000
0000
0000
0001
0100
0010
1000
0001
0010
0001
1000
0100
0010
0001
1000
,
0010
1000
0001
0100
0010
1000
0100
0010
0001
1000
0001
1000
0010
0100
0001
0010
,
0100
1000
0100
0010
0100
1000
0001
1000
0010
0100
0001
0100
0010
1000
0100
0010
,
0001
1000
0100
0010
0001
1000
0010
0100
0001
0010
0100
1000
0100
0010
0100
0010
,
0001
1000
0010
0100
0001
1000
0100
0010
0001
1000
0010
0100
0010
0100
0001
1000
,
0001
0010
0100
1000
0100
1000
0010
0100
0010
1000
0001
0010
0100
1000
0010
0100
,
0001
1000
0001
0010
0100
1000
0001
0100
0010
1000
0001
1000
0010
0100
0001
1000
,
0100
0010
0100
1000
0001
0010
0100
0010
0001
1000
0010
0100
0010
0100
0010
1000
,
0001
0100
0001
0010
0100
1000
0001
1000
0010
0100
0010
1000
0001
0010
0100
1000
,
0001
1000
0010
1000
0100
0010
0001
0100
0010
0100
0001
1000
0010
0100
0001
1000
,
0100
1000
0010
0100
0001
0010
0100
1000
0100
1000
0001
0010
0001
0100
0001
0010
,
0100
1000
0010
0100
0001
0100
0010
1000
0001
0010
0100
1000
0001
0100
0001
0010
,
0100
1000
0100
0010
0100
1000
0100
0010
0001
1000
0001
0100
0010
1000
0100
0010
,
0100
0010
0001
1000
0001
0100
0001
0100
0010
1000
0001
0010
0100
1000
0001
0100
,
0010
0100
0001
1000
0100
0010
0100
0010
0001
1000
0001
0010
0100
1000
0001
0100
,
0010
1000
0010
1000
0001
0010
0100
1000
0001
0100
0010
1000
0010
0100
0001
1000
,
0001
0010
0100
0000
1100
0000
1000
0000
0001
0000
0100
0000
0101
0000
0001
0000
,
1000
0010
0120
0000
1000
0000
1130
0000
,
1000
0100
0010
0000
0010
0110
1100
0100
,
0010
0011
2001
0000
0010
0000
3011
0000
,
0001
1000
0100
0000
0100
1100
1001
1000
,
0010
0110
0102
0000
0010
0000
1013
0000
,
1000
0010
0100
0000
0100
0101
0011
0001
,
1000
1100
0210
0000
1000
0000
0311
0000
,
0001
0000
0000
0010
0000
0000
0100
0000
0000
1000
0000
0000
0001
0000
0000
0000
0000
0000
0001
0000
0000
0000
0000
0000
0100
0000
0000
0000
0010
0000
0000
0000
1000
0000
0000
0000
1001
0000
0000
0000
0000
0000
0001
0000
0000
0000
0000
0000
,
0010
0100
2100
0000
0001
0000
3110
0000
,
0100
0010
0001
0000
0001
0011
1001
1000
,
0010
0110
0201
0000
0010
0000
0311
0000
,
0010
0100
1000
0000
1000
1001
0101
0100
,
0010
1010
1002
0000
0010
0000
0113
0000
,
0100
1000
0100
0000
0100
0110
0011
0001
,
1000
1010
0210
0000
0010
0000
1310
0000
,
0010
0100
0001
1000
0100
0000
0100
0000
0010
0001
1000
0100
1000
0000
0001
0000
,
1000
0000
0000
0100
0000
0000
0010
0000
0001
0000
1000
0000
0010
0000
0100
0000
0001
0000
1000
0000
0100
0000
0010
0000
,
0001
0000
1000
0000
0010
0000
1000
0000
0000
0010
0000
0000
0100
0000
0000
0001
0000
0000
0010
0000
0000
0100
0000
0000
,
1000
0000
0000
0002
0000
0000
0000
0000
0000
0103
0010
1000
,
0001
0000
0010
0000
0100
0000
1000
0000
0001
0000
0100
0000
0001
0000
1000
0000
0100
0000
0010
0000
0000
0001
0000
0000
,
0100
0000
0000
0010
1000
0010
0100
0001
0010
0100
1000
0001
,
1000
0000
0000
0010
0000
0000
0100
0000
0001
0000
1000
0000
0100
0000
0010
0000
0001
0000
1000
0000
0000
0010
0000
0000
,
1000
0100
0020
0000
0000
0000
0000
0100
,
0100
0000
0000
0130
0000
0000
0010
0000
0001
0000
1000
0000
0001
0000
0100
0000
0010
0000
1000
0000
0000
0001
0000
0000
,
1000
0000
0000
0001
0000
0000
0010
0000
0001
0000
1000
0000
0010
0000
0100
0000
0001
0000
0010
0000
0001
0000
1000
0000
,
0100
0010
0001
1000
0010
0100
0001
0100
0010
1000
0001
0010
,
0100
1000
0001
1000
0010
0001
1000
0100
0001
1000
0010
0001
,
2000
0000
0000
0200
,
3000
0000
0000
0310
0001
1000
0001
0100
0010
1000
0001
0100
,
0010
1000
0001
0010
0100
1000
0001
0010
0100
4000
0000
0000
,
0000
3004
0000
0000
,
1003
0010
0100
0100
0001
0001
1000
1000
,
0100
0100
0010
0001
1100
0001
1000
0010
,
0101
0010
1000
0001
0110
0001
1000
0100
,
0011
0100
1000
0010
0101
0010
1000
0010
,
1001
0010
1000
0100
1010
0100
0010
0001
,
1010
0001
1000
0100
0011
0100
1000
0010
,
0101
0010
0100
0001
1010
0001
0010
0001
,
1100
0001
0010
0100
1001
0100
1000
0010
,
1100
0010
0100
0001
1010
0001
0010
0001
,
1100
0000
0000
0001
0000
0000
1000
0000
0010
0000
0100
0000
0001
0000
1000
0000
0001
0000
0010
0000
0100
0000
1000
0000
,
0010
0000
0010
0100
0001
1000
0100
0010
0001
1000
0100
0010
,
0001
0000
0000
0000
1000
0000
0000
0000
0001
0000
0000
0000
0100
0000
0000
0010
0000
0000
0100
0000
0000
0001
0000
0000
0200
0000
0000
0000
0000
0000
0000
0000
0000
0000
0000
0000
0000
0000
0000
0000
0000
0000
0000
0000
0000
0000
0000
0000
,
0310
1000
0001
2000
0000
0000
0000
0000
0000
0000
0000
0000
,
3001
0010
0100
1000
0002
0000
0000
0000
0000
0000
0000
0000
0203
0000
0000
0000
,
0000
0000
0000
0300
0010
0000
2000
0000
0000
0000
0000
0000
0000
0000
0000
0000
0000
0000
3001
0000
0010
0000
0100
0000
,
1000
0001
0100
0020
0000
0000
0000
0000
0000
0000
0000
0000
,
0000
0000
0000
0000
0200
0000
0000
0000
0000
0000
0000
0000
0331
0000
1000
0001
,
1000
0001
1000
0001
1000
0000
0100
0000
0010
0000
0100
0000
1000
0001
1000
0000
,
1000
0010
1000
0000
0010
0000
0100
0000
0001
0000
1000
0000
0100
0010
0001
1000
,
0001
0100
0010
1000
0100
0000
0010
0000
0001
0000
1000
0000
0001
1000
0001
0000
,
0001
0010
0001
0000
0010
0000
0010
0000
0100
0000
1000
0000
0001
1000
0010
1000
,
0001
0010
0100
1000
0001
0000
0100
0000
0010
0000
0100
0000
0010
0100
0010
0000
,
0010
1000
0010
0000
1000
0000
1000
0000
0100
0000
0010
0000
0001
0010
0100
1000
,
0001
1000
0100
0010
0001
0000
0001
0000
1000
0010
0100
0001
1000
0000
1000
0000
,
0100
0010
0001
1000
0010
0000
0010
0000
0100
0001
0010
0100
1000
0000
1001
0000
,
0001
0000
0000
0000
1000
0100
1000
0001
0010
0001
0100
0010
1000
0001
0010
0100
,
1000
0001
1000
0001
0100
0010
1000
0001
0100
0010
1000
0001
0010
0001
1000
0100
,
1000
0010
0100
0001
1000
0010
0100
0010
1000
0100
0010
0001
0010
0001
0100
0001
,
1000
0100
0010
0100
1000
0001
0100
0010
1000
0001
0010
0001
1000
0010
0100
0001
,
1000
0100
1000
0001
0010
0100
1000
0010
0100
0001
0010
0100
0010
0100
1000
0001
,
0100
0001
1000
0100
0010
0100
1000
0001
0100
0010
1000
0001
0100
0001
0010
0100
,
0010
0001
1000
0001
0010
0100
1000
0001
0100
0010
1000
0100
1000
0001
0010
0100
,
1000
0001
0100
0010
1000
0010
0100
0001
1000
0100
0010
0001
1000
0100
0010
0001
,
1000
0100
1000
0010
0100
0001
1000
0010
0100
0001
1000
0001
0010
0100
0010
0001
,
1000
0001
0100
0010
1000
0001
0010
0100
1000
0001
0010
0001
1000
0010
0100
0001
,
1000
0100
0010
0001
1000
0100
1000
0010
0100
0001
0100
0010
1000
0010
1000
0001
,
0010
0100
1000
0001
0010
0100
1000
0010
0100
0001
0100
0001
0100
0001
1000
0100
,
0010
0001
1000
0100
1000
0010
0100
0001
0100
0010
1000
0001
0010
0100
1000
0100
,
0010
0001
1000
0010
0100
0001
1000
0001
1000
0100
0010
0001
1000
0010
0100
0001
,
1000
0010
0100
0010
0100
0001
1000
0100
0010
0001
1000
0100
1000
0001
0010
0100
,
1000
0010
0100
0001
1000
0010
0100
0001
1000
0100
0010
0100
1000
0001
1000
0010
,
0100
0001
0010
0100
2000
0000
3002
0000
0203
0000
0320
0000
2030
0000
0000
0000
,
0000
0000
3001
0010
0100
1000
0100
1000
0001
0100
0001
0100
0010
1000
0010
1000
,
0001
0010
0001
0010
0200
0000
0000
0000
0000
0000
0000
0000
0000
0000
0000
0000
,
0000
1301
1001
0000
0000
0000
0000
0000
;
