#TITLE:Cradle;
#SUBTITLE:;
#ARTIST:Positive MA feat. Akino;
#TITLETRANSLIT:;
#SUBTITLETRANSLIT:;
#ARTISTTRANSLIT:;
#CREDIT:;
#BANNER:Cradle-Banner.jpg;
#BACKGROUND:Cradle-BG.jpg;
#LYRICSPATH:;
#CDTITLE:cdtitle.jpg;
#MUSIC:Cradle.mp3;
#OFFSET:-2.752;
#SAMPLESTART:65.569;
#SAMPLELENGTH:12.000;
#SELECTABLE:YES;
#BPMS:0.000=160.000,164.000=188.000,168.000=188.000;
#STOPS:;
#BGCHANGES:;
// cache tags:
#FIRSTBEAT:0.000;
#LASTBEAT:295.500;
#SONGFILENAME:Songs/Community Keyboard Megapack - Volume 2/(DTM) Cradle/Cradle.sm;
#HASMUSIC:1;
#HASBANNER:1;
#MUSICLENGTH:111.046;
// end cache tags

//---------------dance-single - ----------------
#NOTES:
     dance-single:
     :
     Challenge:
     12:
     1.000,1.000,1.000,0.090,0.770,690.000,199.000,10.000,0.000,0.000:
1001
0010
1001
0100
1001
0000
1001
0100
,
0110
0110
0110
0110
,
1010
0100
1010
0100
1010
0000
1010
0100
,
0101
0000
0101
0000
0102
0003
0102
0003
,
1001
0010
1001
0010
1001
0000
1001
0100
,
0110
0110
0110
0110
,
1010
0000
0001
0000
1010
0000
0001
0000
1010
0000
0000
0000
1010
0000
1000
0010
,
0101
0000
0101
0000
0102
0003
0102
0003
,
1100
0010
1100
0010
1100
0000
1100
0010
,
0011
0010
0011
0000
0011
0000
0011
0100
,
0101
0010
0101
0010
0101
0000
0101
0100
,
0110
0100
0110
0010
0120
0030
0120
0030
,
1001
0100
1001
0100
1001
0000
1001
0100
,
1100
0010
1100
0010
1100
0000
1100
0000
,
0011
0000
0100
0000
0011
0000
0100
0000
0011
0000
0000
0000
0011
0000
0100
1000
,
0110
0001
0110
0000
0210
0300
0120
0030
,
1010
0100
1010
0100
1010
0000
1010
0001
,
0101
0010
0101
0000
0101
0000
0101
0010
,
1010
0100
1010
0100
1010
0000
1010
0100
,
0110
0000
0001
0000
0110
0000
1000
0000
0210
0000
0301
0000
0120
0000
1000
0030
,
1100
0000
0010
0000
1100
0000
0010
0000
1100
0000
0000
0001
1100
0000
0001
0000
,
1001
0010
1001
0010
1001
0110
1001
0010
,
1010
0000
0100
0000
1010
0000
0100
0000
1010
0000
0000
0100
1010
0000
0001
0010
,
0101
0000
0000
0000
0010
0000
0000
0000
0101
0000
0010
0000
0000
0000
0000
0000
0101
0000
0000
0000
0000
0000
0010
0000
0101
0000
0000
0000
1000
0100
0010
0001
,
0010
0000
1000
0100
0010
0001
0010
0001
1000
0001
0000
0000
1001
0000
0100
0010
,
0100
0000
1000
0000
0011
0000
1000
0100
1000
0100
1000
0000
0101
0000
0001
0010
,
0100
1000
0100
0000
1010
0000
0100
0010
0001
0010
0001
0000
1010
0000
0100
0001
,
0100
0001
0000
0000
0010
0100
1000
0000
1000
0100
0010
0000
1001
0000
1000
0100
,
0010
0100
0010
0000
1100
0000
0001
0010
0001
0010
0000
0000
0100
0000
0010
0100
,
0010
1000
0010
0000
1100
0000
1000
0100
1000
0010
0100
0000
1000
0010
0000
0010
,
0100
0000
1000
0100
0011
0100
1000
0000
0001
0010
0000
0010
0001
0000
0001
1000
,
0001
0000
0001
0010
1100
0010
0001
0000
1000
0010
0100
0000
0010
0001
0010
0001
,
0010
0000
0100
1000
0101
0010
0100
0000
1010
0000
0000
1000
0100
0000
0010
0000
,
0100
0010
0000
0010
0100
0010
0000
0010
0000
0000
0100
0000
1000
0100
0000
0010
,
0001
0000
0010
0000
1000
0100
0000
0000
0011
0000
0000
0100
1000
0000
0100
0000
,
0010
0000
0001
0000
0010
0100
0000
0000
1000
0100
0000
0010
0001
0000
0110
0000
,
1000
0000
0100
0000
0011
0000
0100
0000
0001
0010
0000
0010
0001
0010
0000
0000
,
1100
0000
0010
0001
0110
1000
0000
0000
0110
0000
0000
0010
0001
0000
1100
0000
,
0001
0000
0010
0000
1100
0010
0000
0100
1000
0100
0000
0100
1000
0000
0100
0010
,
0100
1000
0001
1000
1001
0100
0000
1000
0110
0001
0000
0000
1001
0000
0100
0010
,
1001
0000
0000
0100
1001
0010
0100
0000
1001
0010
0000
0100
1001
0000
0010
0000
,
1000
0100
0000
0010
0001
0010
0000
0010
0100
0000
0110
0000
0110
0000
0000
0000
,
1000
0100
0101
0010
0001
0010
1100
0010
,
0001
0010
0100
0000
1010
0000
0100
0000
1000
0100
1000
0000
0101
0000
0010
0000
,
1000
0100
0000
0000
1001
0000
0010
0000
0100
0000
1000
0000
0101
0000
0010
0000
,
1000
0100
0010
0000
0101
0000
0001
0010
0100
1000
0100
0000
1001
0000
0010
0000
,
0001
0010
0101
0010
0100
1000
0101
0010
,
1000
0000
0101
0000
0010
0000
0101
0000
0010
1000
0010
0000
1100
0000
0100
0010
,
1001
0000
0010
0000
0101
0010
0001
0000
1010
0000
0100
0000
0011
0100
1000
0100
,
0011
0100
1000
0001
1000
0100
0010
0001
0110
1000
0100
1000
0100
0010
0100
1000
,
0110
0001
1010
0100
1000
0100
1010
0001
,
0010
1000
0010
0000
1100
0000
0010
0000
0001
1000
0100
0000
0011
0000
0100
0000
,
0010
0001
0000
0000
1010
0000
0100
0000
1000
0000
0100
0000
0011
0000
0100
0000
,
1000
0010
1000
0000
0110
0001
0010
0100
1000
0100
0010
0100
1001
0000
0100
0000
,
1010
0100
1001
0010
0001
0010
0101
0010
,
1010
0000
0100
0000
1010
0000
0100
0000
0001
0010
0001
0000
0110
0000
1000
0100
,
0011
0000
0100
0000
1010
0100
0010
0000
0101
0000
0010
0000
0101
0010
1000
0100
,
0011
0100
0001
1000
0001
0010
0100
1000
0101
0010
1000
0001
0010
0100
1000
0100
,
0011
0000
1000
0010
0100
0001
1000
0001
1000
0100
0010
0100
1010
0000
0100
0000
,
0100
0000
0001
0010
0100
0010
0001
0000
0010
0000
0100
0000
1000
0000
0100
0000
,
1000
0000
0100
0000
1010
0000
0100
0000
0010
0000
0001
0000
0010
1000
0010
0100
,
0010
0001
0000
0000
1010
0000
0100
0000
1000
0001
1000
0100
0010
0000
0100
0000
,
0001
0000
0010
0000
1100
0000
0100
0000
1000
0000
0100
0010
0001
0000
0100
0000
,
1010
0000
1000
0000
0100
0010
0001
0000
0110
0000
0001
0010
0100
0000
1010
0100
,
0011
0100
1000
0000
1010
0000
1000
0100
0011
0100
0010
0000
0101
0000
0101
0000
,
1010
0000
0100
0000
1010
0000
1000
0001
0110
1000
0100
0000
0100
0010
0100
0010
,
1100
0010
0001
0000
0110
0000
1000
0001
1000
0000
0100
0000
1001
0000
0010
0000
,
0001
0100
0010
0000
0100
0010
0001
0010
0100
0000
0001
0000
1010
0000
0100
0000
,
1010
0000
0100
0000
1000
0100
0010
0000
0101
0000
0010
0000
0001
0010
0001
0010
,
1100
0000
1000
0001
0010
0100
1000
0100
1001
0000
0100
0000
0010
0100
0001
0100
,
0001
0000
1000
0000
0100
0010
0100
0000
0010
0000
0100
0000
1010
0000
0100
0000
,
1010
0000
0100
0000
0001
0010
0001
0000
1010
0100
0010
0001
0010
0001
0010
0100
,
1010
0000
0100
0000
0100
0000
0100
0010
0101
0000
0010
0000
1000
0100
0010
0100
,
0011
0000
0011
0000
0011
0000
1000
0100
0010
0001
0000
0000
0000
0000
0110
0000
;

//---------------dance-single - Copied from----------------
#NOTES:
     dance-single:
     Copied from:
     Hard:
     11:
     1.000,0.965,1.000,0.090,0.761,688.000,155.000,10.000,0.000,0.000:
1001
0010
1001
0100
1001
0000
1001
0100
,
0110
0110
0110
0110
,
1010
0100
1010
0100
1010
0000
1010
0100
,
0101
0000
0101
0000
0102
0003
0102
0003
,
1001
0010
1001
0010
1001
0000
1001
0100
,
0110
0110
0110
0110
,
1010
0000
0001
0000
1010
0000
0001
0000
1010
0000
0000
0000
1010
0000
1000
0010
,
0100
0000
0101
0000
0102
0003
0102
0003
,
1100
0010
1100
0010
1100
0000
1100
0010
,
0011
0010
0011
0000
0011
0000
0011
0100
,
0101
0010
0101
0010
0101
0000
0101
0100
,
0110
0100
0110
0010
0120
0030
0120
0030
,
1001
0100
1001
0100
1001
0000
1001
0100
,
1100
0010
1100
0010
1100
0000
1100
0000
,
0011
0000
0100
0000
0011
0000
0100
0000
0011
0000
0000
0000
0011
0000
0100
1000
,
0100
0001
0110
0000
0210
0300
0120
0030
,
1010
0100
1010
0100
1010
0000
1010
0001
,
0101
0010
0101
0000
0101
0000
0101
0010
,
1010
0100
1010
0100
1010
0000
1010
0100
,
0110
0000
0001
0000
0110
0000
1000
0000
0210
0000
0301
0000
0120
0000
1000
0030
,
1100
0000
0010
0000
1100
0000
0010
0000
1100
0000
0000
0001
0100
0000
0001
0000
,
1001
0010
1001
0010
1001
0110
1001
0010
,
1010
0000
0100
0000
1010
0000
0100
0000
1010
0000
0000
0100
0010
0000
0001
0010
,
0100
0000
0010
0000
0001
0010
0000
0000
0101
0000
0000
0010
0001
0000
1000
0100
,
0010
0000
1000
0100
0010
0001
0010
0001
1000
0001
0000
0000
1001
0000
0100
0010
,
0100
0000
1000
0000
0011
0000
1000
0100
1000
0100
1000
0000
0101
0000
0001
0010
,
0100
1000
0100
0000
1010
0000
0100
0010
0001
0010
0001
0000
1010
0000
0100
0001
,
0100
0001
0000
0000
0010
0100
1000
0000
1000
0100
0010
0000
1001
0000
1000
0100
,
0010
0100
0010
0000
1100
0000
0001
0010
0001
0010
0000
0000
0100
0000
0010
0100
,
0010
1000
0010
0000
1100
0000
1000
0100
1000
0010
0100
0000
1000
0010
0000
0010
,
0100
0000
1000
0100
0010
0100
1000
0000
0001
0010
0000
0010
0001
0000
0001
1000
,
0001
0000
0001
0010
0100
0010
0001
0000
1000
0010
0100
0000
0010
0001
0010
0001
,
0010
0000
0100
1000
0100
0010
0100
0000
1010
0000
0000
1000
0100
0000
0010
0000
,
0100
0010
0000
0010
0100
0010
0000
0010
0000
0000
0100
0000
1000
0100
0000
0010
,
0001
0000
0010
0000
1000
0100
0000
0000
0011
0000
0000
0100
1000
0000
0100
0000
,
0010
0000
0001
0000
0010
0100
0000
0000
1000
0100
0000
0010
0001
0000
0110
0000
,
1000
0000
0100
0000
0011
0000
0100
0000
0001
0010
0000
0010
0001
0010
0000
0000
,
1100
0000
0010
0001
0010
0001
0000
0000
0110
0000
0000
0010
0001
0000
1100
0000
,
0001
0000
0010
0000
0100
0010
0000
0100
1000
0100
0000
0100
1000
0000
0100
0010
,
0100
1000
0001
1000
0001
0100
0000
1000
0010
0100
0000
0000
1001
0000
0100
0010
,
0100
0000
0000
1000
0100
0010
0100
0000
0001
0010
0000
0100
1000
0000
0010
0000
,
1000
0100
0000
0010
0001
0010
0000
0010
0100
0000
0110
0000
0110
0000
0000
0000
,
1000
0100
0101
0010
0001
0010
1100
0010
,
0001
0010
0100
0000
1010
0000
0100
0000
1000
0100
1000
0000
0101
0000
0010
0000
,
1000
0100
0000
0000
1001
0000
0010
0000
0100
0000
1000
0000
0101
0000
0010
0000
,
1000
0100
0010
0000
0101
0000
0001
0010
0100
1000
0100
0000
1001
0000
0010
0000
,
0001
0010
0101
0010
0100
1000
0101
0010
,
1000
0000
0101
0000
0010
0000
0101
0000
0010
1000
0010
0000
1100
0000
0100
0010
,
0100
0000
0010
0000
0001
0010
0001
0000
1010
0000
0100
0000
0010
0100
1000
0100
,
0010
0100
1000
0001
1000
0100
0010
0001
0010
0001
0100
0001
0100
0010
0100
0010
,
0100
0001
1010
0100
1000
0100
1010
0001
,
0010
1000
0010
0000
1100
0000
0010
0000
0001
1000
0100
0000
0011
0000
0100
0000
,
0010
0001
0000
0000
1010
0000
0100
0000
1000
0000
0100
0000
0011
0000
0100
0000
,
1000
0010
1000
0000
0010
0001
0010
0100
1000
0100
0010
0100
1000
0000
0100
0000
,
1010
0100
1001
0010
0001
0010
0101
0010
,
1010
0000
0100
0000
1010
0000
0100
0000
0001
0010
0001
0000
0110
0000
1000
0100
,
0010
0000
0100
0000
1000
0100
0010
0000
0101
0000
0010
0000
0100
1000
0010
0100
,
0010
0100
0001
1000
0001
0010
0100
1000
0100
0010
0001
1000
0010
0100
0001
0100
,
0010
0000
1000
0010
0100
0001
1000
0001
1000
0100
0010
0100
1000
0000
0100
0000
,
0100
0000
0001
0010
0100
0010
0001
0000
0010
0000
0100
0000
1000
0000
0100
0000
,
1000
0000
0100
0000
1010
0000
0100
0000
0010
0000
0001
0000
0010
1000
0010
0100
,
0010
1000
0000
0000
1010
0000
0100
0000
1000
0001
1000
0100
0010
0000
0100
0000
,
0001
0000
0010
0000
1100
0000
0100
0000
1000
0000
0100
0010
0001
0000
0100
0000
,
1010
0000
1000
0000
0100
0010
0001
0000
0110
0000
0001
0010
0100
0000
0010
0100
,
0010
0100
0001
0000
1010
0000
1000
0100
0010
0100
0010
0000
0101
0000
0101
0000
,
1010
0000
0100
0000
1010
0000
1000
0001
0100
0010
0100
0000
0100
0010
0100
0001
,
0100
0010
1000
0000
0110
0000
1000
0001
1000
0000
0100
0000
1001
0000
0010
0000
,
0001
0100
0010
0000
0100
0010
0001
0010
0100
0000
0001
0000
1010
0000
0100
0000
,
1010
0000
0100
0000
1000
0100
0010
0000
0101
0000
0010
0000
0001
0010
0001
0010
,
0100
0000
1000
0001
0010
0100
1000
0100
1000
0000
0100
0000
0010
0100
0001
0100
,
0001
0000
1000
0000
0100
0010
0100
0000
0010
0000
0100
0000
1010
0000
0100
0000
,
1010
0000
0100
0000
0001
0010
0001
0000
1000
0100
0010
0001
0010
0001
0010
0100
,
1000
0000
0100
0000
0100
0000
0100
0010
0100
0000
0010
0000
1000
0100
0010
0100
,
0010
0000
0011
0000
0011
0000
1000
0100
0010
0001
0000
0000
0000
0000
0110
0000
;
