#TITLE:Hawkeye;
#SUBTITLE:Oh Henry!;
#ARTIST:Jeroen Tel;
#TITLETRANSLIT:;
#SUBTITLETRANSLIT:;
#ARTISTTRANSLIT:;
#CREDIT:;
#BANNER:../Fallback-Ban.png;
#BACKGROUND:../Fallback-BG.png;
#LYRICSPATH:;
#CDTITLE:../~CDTitle-@@.png;
#MUSIC:Jeroen Tel - Hawkeye.ogg;
#OFFSET:-5.485;
#SAMPLESTART:97.630;
#SAMPLELENGTH:20.494;
#SELECTABLE:YES;
#DISPLAYBPM:187.530;
#BPMS:0.000=187.530,352.000=181.530,353.000=187.530;
#STOPS:;
#BGCHANGES:;
// cache tags:
#FIRSTBEAT:0.000;
#LASTBEAT:671.750;
#SONGFILENAME:Songs/Oh Henry! Mad Stamina/Hawkeye (17-)/Hawkeye.sm;
#HASMUSIC:1;
#HASBANNER:1;
#MUSICLENGTH:220.510;
// end cache tags

//---------------dance-single - @@----------------
#NOTES:
     dance-single:
     @@:
     Challenge:
     17:
     1.000,1.000,0.000,0.109,1.000,2512.000,0.000,24.000,0.000,0.000:
1000
0100
1000
0001
1000
0010
1000
0001
0100
0010
1000
0001
1000
0010
0100
0001
,
0010
0001
1000
0001
0010
0100
0010
0100
1000
0001
0010
0100
0010
0001
0100
0001
,
1000
0010
1000
0001
1000
0100
1000
0001
0010
0100
1000
0001
1000
0100
0010
0001
,
0100
0001
1000
0001
0100
0010
0100
0010
1000
0001
0100
0010
0100
0001
0010
0001
,
1000
0100
1000
0010
1000
0001
1000
0010
0100
0010
1000
0001
1000
0010
0100
0001
,
0010
0001
0100
0001
1000
0100
1000
0100
0010
0001
0010
0100
1000
0001
0100
0001
,
1000
0010
1000
0001
1000
0100
1000
0001
0010
0100
1000
0001
1000
0100
0010
0001
,
0100
0001
1000
0001
0100
0010
0100
0010
1000
0001
0100
0010
0100
0001
0010
0001
,
1000
0010
0100
0001
1000
0100
0010
0100
1000
0010
1000
0010
0100
0001
0100
0001
,
0010
0100
0010
0001
1000
0100
1000
0010
0100
0010
1000
0001
0100
0001
0010
0001
,
1000
0010
1000
0001
0100
0001
1000
0010
1000
0001
0010
0100
1000
0001
0010
0001
,
1000
0010
0100
0010
1000
0001
0100
0001
1000
0100
0010
0100
1000
0001
0010
0100
,
1000
0010
0100
0001
1000
0100
0010
0001
0100
0010
0100
0010
1000
0001
1000
0001
,
0010
0100
1000
0001
0100
0010
0100
0010
1000
0100
1000
0001
1000
0010
0100
0001
,
1000
0100
1000
0001
0010
0001
1000
0100
1000
0001
0100
0010
1000
0001
0100
0001
,
1000
0100
0010
0100
1000
0001
0010
0001
1000
0010
0100
0001
1000
0001
0100
0010
,
1000
0100
0010
0001
1000
0010
0100
0010
1000
0100
1000
0100
0010
0001
0010
0001
,
0100
0010
0100
0001
1000
0010
1000
0100
0010
0100
1000
0001
0010
0001
0100
0001
,
1000
0100
1000
0001
0010
0001
1000
0100
1000
0001
0100
0010
1000
0001
0100
0001
,
1000
0100
0010
0100
1000
0001
0010
0001
1000
0010
0100
0001
1000
0001
0100
0010
,
1000
0001
1000
0100
0010
0001
0010
0001
1000
0010
1000
0001
0010
0100
0010
0100
,
1000
0001
1000
0100
0010
0001
0010
0001
1000
0010
1000
0100
1000
0001
0100
0010
,
1000
0010
0100
0001
0010
0100
1000
0001
1000
0010
0100
0010
1000
0001
0100
0001
,
1000
0100
0010
0001
0100
0010
1000
0001
1000
0100
0010
0001
1000
0001
0010
0100
,
1000
0001
0100
0001
0010
0100
0010
0100
1000
0001
0100
0001
1000
0010
1000
0100
,
0010
0100
1000
0010
0100
0001
1000
0001
0010
0100
1000
0001
1000
0010
0100
0010
,
1000
0001
0010
0100
1000
0001
0010
0001
1000
0010
0100
0001
1000
0001
0100
0010
,
1000
0100
0010
0100
1000
0001
0010
0100
1000
0001
0100
0010
1000
0100
0010
0001
,
1000
0100
1000
0001
0100
0010
0100
0001
1000
0100
1000
0001
0100
0010
1000
0001
,
1000
0100
0010
0001
1000
0010
1000
0001
0010
0100
0010
0001
1000
0010
0100
0010
,
1000
0100
0010
0100
1000
0001
0010
0100
1000
0010
0100
0001
0100
0010
1000
0100
,
1000
0010
0100
0010
1000
0001
0100
0010
1000
0100
0010
0100
1000
0010
0100
0010
,
1000
0001
0010
0001
0100
0010
0100
0010
1000
0001
0010
0001
1000
0100
1000
0010
,
0100
0010
1000
0100
0010
0001
1000
0001
0100
0010
1000
0001
1000
0100
0010
0100
,
1000
0001
0100
0010
1000
0001
0100
0001
1000
0100
0010
0001
1000
0001
0010
0100
,
1000
0010
0100
0010
1000
0001
0100
0010
1000
0001
0010
0100
1000
0010
0100
0001
,
1000
0010
1000
0001
0010
0100
0010
0001
1000
0010
1000
0001
0010
0100
1000
0001
,
1000
0010
0100
0001
1000
0100
1000
0001
0100
0010
0100
0001
1000
0100
0010
0100
,
1000
0001
0100
0010
0100
0001
1000
0010
1000
0001
0010
0100
1000
0001
0010
0001
,
1000
0010
0100
0010
1000
0001
0100
0001
1000
0100
0010
0100
1000
0001
0010
0001
,
1000
0100
0010
0001
1000
0010
0100
0010
1000
0100
1000
0100
0010
0001
0010
0001
,
0100
0010
0100
0001
1000
0010
1000
0100
0010
0100
1000
0001
0010
0001
0100
0001
,
1000
0100
1000
0001
0010
0001
1000
0100
1000
0001
0100
0010
1000
0001
0100
0001
,
1000
0100
0010
0100
1000
0001
0010
0001
1000
0010
0100
0010
1000
0001
0100
0010
,
1000
0100
0010
0001
1000
0010
0100
0001
0010
0100
0010
0100
1000
0001
1000
0001
,
0100
0010
1000
0001
0010
0100
0010
0100
1000
0010
1000
0001
1000
0100
0010
0001
,
1000
0010
1000
0001
0100
0001
1000
0010
1000
0001
0010
0100
1000
0001
0010
0001
,
1000
0010
0100
0010
1000
0001
0100
0001
1000
0100
0010
0001
1000
0001
0010
0100
,
1000
0010
0100
0001
1000
0100
0010
0100
1000
0010
1000
0010
0100
0001
0100
0001
,
0010
0100
0010
0001
1000
0100
1000
0010
0100
0010
1000
0001
0100
0001
0010
0001
,
1000
0010
1000
0001
0100
0001
1000
0010
1000
0001
0010
0100
1000
0001
0010
0001
,
1000
0010
0100
0010
1000
0001
0100
0001
1000
0100
0010
0001
1000
0001
0010
0100
,
1000
0001
1000
0010
0100
0001
0100
0001
1000
0100
1000
0001
0100
0010
0100
0010
,
1000
0001
1000
0010
0100
0001
0100
0001
1000
0100
1000
0010
1000
0001
0010
0100
,
1000
0100
0010
0001
0100
0010
1000
0001
1000
0100
0010
0100
1000
0001
0010
0001
,
1000
0010
0100
0001
0010
0100
1000
0001
1000
0010
0100
0001
1000
0001
0100
0010
,
1000
0100
1000
0001
0100
0010
0100
0001
0010
0100
0010
0100
1000
0010
0100
0001
,
0100
0001
1000
0100
1000
0001
0100
0001
0010
0100
0010
0001
0100
0010
0100
0001
,
0010
0100
1000
0001
1000
0010
0100
0001
1000
0100
0010
0100
1000
0001
0100
0001
,
0010
0100
1000
0001
1000
0100
0010
0001
1000
0010
0100
0001
1000
0001
0100
0010
,
1000
0100
1000
0001
0100
0010
1000
0001
1000
0100
0010
0001
0100
0010
1000
0100
,
1000
0100
0010
0001
1000
0010
0100
0001
1000
0100
0010
0100
1000
0001
0100
0001
,
0010
0100
0010
0100
1000
0001
1000
0001
0100
0010
0100
0010
1000
0100
0010
0001
,
0100
0010
1000
0001
1000
0010
0100
0001
1000
0100
0010
0100
1000
0001
0010
0001
,
1000
0010
1000
0001
0010
0100
0010
0001
0100
0010
0100
0010
1000
0100
0010
0001
,
0010
0001
1000
0010
1000
0001
0010
0001
0100
0010
0100
0001
0010
0100
0010
0001
,
0100
0010
1000
0001
1000
0100
0010
0001
1000
0010
0100
0010
1000
0001
0010
0001
,
0100
0010
1000
0001
1000
0010
0100
0001
1000
0100
0010
0001
1000
0001
0010
0100
,
1000
0010
1000
0001
0010
0100
1000
0001
1000
0010
0100
0001
0010
0100
1000
0010
,
1000
0010
0100
0001
1000
0100
0010
0001
1000
0010
0100
0010
1000
0001
0010
0001
,
0100
0010
0100
0010
1000
0001
1000
0001
0010
0100
0010
0100
1000
0010
0100
0001
,
1000
0001
0100
0010
1000
0001
0100
0001
1000
0100
0010
0100
1000
0001
0010
0001
,
1000
0010
0100
0001
1000
0100
0010
0100
1000
0010
1000
0010
0100
0001
0100
0001
,
0010
0100
1000
0001
0010
0100
0010
0001
0100
0010
1000
0001
0100
0001
0010
0001
,
1000
0010
1000
0001
0100
0001
1000
0010
1000
0100
0010
0100
1000
0001
0010
0001
,
1000
0010
0100
0010
1000
0001
0100
0001
0010
0100
1000
0001
1000
0100
0010
0100
,
1000
0010
0100
0001
1000
0100
0010
0001
0100
0010
0100
0010
1000
0001
1000
0001
,
0010
0100
1000
0001
0100
0010
0100
0010
1000
0100
1000
0001
1000
0010
0100
0001
,
0010
0100
1000
0001
0010
0001
1000
0100
1000
0010
0100
0001
1000
0010
1000
0001
,
0010
0100
1000
0001
0010
0100
0010
0001
0100
0010
0100
0001
1000
0001
0100
0010
,
1000
0100
0010
0001
1000
0010
0100
0010
1000
0100
1000
0100
0010
0001
0010
0001
,
0100
0010
0100
0001
1000
0010
0100
0010
1000
0100
1000
0001
0010
0001
0100
0001
,
1000
0100
1000
0001
0010
0001
1000
0100
1000
0010
0100
0010
1000
0001
0100
0001
,
1000
0100
0010
0100
1000
0001
0010
0001
0100
0010
0100
0001
1000
0001
0100
0010
,
1000
0001
1000
0100
0010
0001
0010
0001
0100
0010
1000
0001
0010
0100
0010
0100
,
1000
0001
1000
0100
0010
0001
0010
0001
0100
0010
1000
0100
1000
0001
0100
0010
,
1000
0001
0010
0100
0010
0001
1000
0100
1000
0010
0100
0010
1000
0001
0100
0001
,
1000
0100
0010
0001
1000
0100
0010
0100
1000
0010
0100
0001
1000
0001
0100
0010
,
1000
0100
0010
0001
0100
0010
0000
2000
,
0000
3000
0000
0000
0002
0000
0003
0000
0100
0000
0200
0000
0000
0000
0300
0000
,
0001
0100
0010
1000
0100
0010
0000
0002
,
0000
0003
0000
0000
2000
0000
3000
0000
0100
0000
0200
0000
0000
0000
0300
0000
,
1000
0010
0100
0001
0010
0100
0000
2000
,
0000
3000
0000
0000
0002
0000
0003
0000
0010
0000
0020
0000
0000
0000
0030
0000
,
0001
0010
0100
1000
0010
0100
0000
0002
,
0000
0003
0000
0000
2000
0000
3000
0000
0010
0000
0020
0000
0000
0000
0030
0000
,
0010
0100
0001
0010
0100
1000
0000
0002
,
0000
0003
0000
0000
2000
0000
3000
0000
0010
0000
0020
0000
0000
0000
0030
0000
,
0100
0010
1000
0100
0010
0001
0000
2000
,
0000
3000
0000
0000
0002
0000
0003
0000
0100
0000
0200
0000
0000
0000
0300
0000
,
0010
0100
0001
0010
0100
1000
0000
0002
,
0000
0003
0000
0000
2000
0000
3000
0000
0100
0000
0200
0000
0000
0000
0300
0000
,
0010
0100
1000
0010
0100
0001
0000
2000
,
0000
3000
0000
0000
0002
0000
0003
0000
0010
0000
0020
0000
0000
0000
0030
0000
,
0001
0100
0010
1000
0100
0010
0100
1000
0001
0100
0010
1000
0100
0010
0100
1000
,
0001
0100
0010
0100
0001
0010
0100
1000
0001
0100
0010
0100
0001
0010
0100
1000
,
0001
0010
0100
0010
0001
0100
0010
1000
0001
0010
0100
0010
0001
0100
0010
1000
,
0001
0010
0100
1000
0010
0100
0010
1000
0001
0010
0100
1000
0010
0100
0010
1000
,
0001
0010
0100
0010
0001
0100
0010
1000
0001
0010
0100
0010
0001
0100
0010
1000
,
0001
1000
0100
1000
0010
0100
0010
1000
0001
1000
0100
1000
0010
0100
0010
1000
,
0001
0100
0001
0010
0100
0010
0001
1000
0001
0100
0001
0010
0100
0010
0001
1000
,
0010
0100
0010
1000
0100
0010
0001
1000
0010
0100
0010
1000
0100
0010
0001
1000
,
0001
0010
0100
1000
0010
0100
0010
1000
0001
0010
0100
1000
0010
0100
0010
1000
,
0001
0010
0100
0010
0001
0100
0010
1000
0001
0010
0100
0010
0001
0100
0010
1000
,
0001
0100
0010
0100
0001
0010
0100
1000
0001
0100
0010
0100
0001
0010
0100
1000
,
0001
0100
0010
1000
0100
0010
0100
1000
0001
0100
0010
1000
0100
0010
0100
1000
,
0001
0100
0010
0100
0001
0010
0100
1000
0001
0100
0010
0100
0001
0010
0100
1000
,
0001
1000
0010
1000
0100
0010
0100
1000
0001
1000
0010
1000
0100
0010
0100
1000
,
0001
0010
0001
0100
0010
0100
0001
1000
0001
0010
0001
0100
0010
0100
0001
1000
,
0100
0010
0100
1000
0010
0100
0001
1000
0100
0010
0100
1000
0010
0100
0001
1000
,
0001
0010
0100
1000
0001
0100
0010
0100
0001
0010
0001
0010
0100
1000
0100
1000
,
0010
0100
0010
1000
0001
0100
0001
0010
0100
0010
0001
1000
0100
1000
0010
1000
,
0001
0010
0001
1000
0100
1000
0001
0010
0001
1000
0010
0100
0001
1000
0010
1000
,
0001
0010
0100
0010
0001
1000
0100
1000
0001
0100
0010
0100
0001
1000
0010
0100
,
0001
0010
0100
1000
0001
0100
0010
1000
0100
0010
0100
0010
0001
1000
0001
1000
,
0010
0100
0001
1000
0100
0010
0100
0010
0001
0100
0001
1000
0001
0010
0100
1000
,
0001
0100
0001
1000
0010
1000
0001
0100
0001
1000
0100
0010
0001
1000
0100
1000
,
0001
0100
0010
0100
0001
1000
0010
1000
0001
0010
0100
1000
0001
1000
0100
0010
,
0001
0100
0010
1000
0001
0010
0100
0010
0001
0100
0001
0100
0010
1000
0010
1000
,
0100
0010
0100
1000
0001
0010
0001
0100
0010
0100
0001
1000
0010
1000
0100
1000
,
0001
0100
0001
1000
0010
1000
0001
0100
0001
1000
0100
0010
0001
1000
0100
1000
,
0001
0100
0010
0100
0001
1000
0010
1000
0001
0010
0100
1000
0001
1000
0100
0010
,
0001
1000
0001
0100
0010
1000
0010
1000
0001
0010
0001
1000
0010
0100
0010
0100
,
0001
1000
0001
0100
0010
1000
0010
1000
0001
0010
0001
0100
0001
1000
0100
0010
,
0001
1000
0010
1000
0001
0100
0010
1000
0001
0010
0100
0010
0001
1000
0100
1000
,
0001
0100
0010
1000
0010
0100
0001
1000
0001
0010
0100
1000
0001
1000
0100
0010
,
0001
1000
0100
1000
0001
0100
0010
1000
0100
0010
0100
1000
0001
0100
0001
1000
,
0100
0010
0100
1000
0001
0010
0100
1000
0010
0100
0001
1000
0010
1000
0001
0100
,
0001
1000
0100
1000
0001
0100
0010
1000
0100
1000
0001
0100
0001
1000
0100
1000
,
0010
0100
0010
1000
0001
0010
0100
1000
0010
1000
0001
0010
0001
0100
0010
1000
,
0001
0010
0100
1000
0001
0100
0010
0100
0001
0010
0001
1000
0010
0100
0010
1000
,
0100
0010
0001
1000
0010
1000
0001
0100
0001
0010
0100
1000
0001
0010
0100
0010
,
0001
0100
0010
1000
0001
1000
0010
0100
0001
0010
0100
1000
0001
0010
0100
0010
,
0001
1000
0010
0100
0001
1000
0100
0010
0001
0100
0001
1000
0010
1000
0001
0010
,
0001
1000
0010
1000
0001
0010
0100
1000
0010
0100
0010
1000
0001
0010
0001
1000
,
0010
0100
0010
1000
0001
0100
0010
1000
0100
0010
0001
1000
0100
1000
0001
0010
,
0001
1000
0010
1000
0001
0010
0100
1000
0010
1000
0001
0010
0001
1000
0010
1000
,
0100
0010
0100
1000
0001
0100
0010
1000
0100
1000
0001
0100
0001
0010
0100
1000
,
0001
0100
0010
1000
0001
0010
0100
0010
0001
0100
0001
1000
0100
0010
0100
1000
,
0010
0100
0001
1000
0100
1000
0001
0010
0001
0100
0010
1000
0001
0100
0010
0100
,
0001
0010
0100
1000
0001
1000
0100
0010
0001
0100
0010
1000
0001
0100
0010
0100
,
0001
0010
0100
0010
0001
1000
0100
0010
0001
0100
0001
1000
0010
1000
0001
0100
,
0001
1000
0100
1000
0010
0100
0010
0100
0001
1000
0100
1000
0001
0010
0001
0100
,
0010
0100
0001
0010
0100
1000
0001
1000
0010
0100
0001
1000
0001
0010
0100
0010
,
0001
1000
0010
0100
0001
1000
0010
1000
0001
0010
0100
1000
0001
1000
0100
0010
,
0001
0100
0010
0100
0001
1000
0010
0100
0001
1000
0100
0010
0001
0100
0010
1000
,
0001
0100
0001
1000
0100
0010
0100
1000
0001
0100
0001
1000
0100
0010
0001
1000
,
0001
0100
0010
1000
0001
0010
0001
1000
0010
0100
0010
1000
0001
0010
0100
0010
,
0001
0100
0010
0100
0001
1000
0010
0100
0001
0010
0100
1000
0100
0010
0001
0100
,
0001
0010
0100
0010
0001
1000
0100
0010
0001
0100
0010
0100
0001
0010
0100
0010
,
0001
1000
0010
1000
0100
0010
0100
0010
0001
1000
0010
1000
0001
0100
0001
0010
,
0100
0010
0001
0100
0010
1000
0001
1000
0100
0010
0001
1000
0001
0100
0010
0100
,
0001
1000
0100
0010
0001
1000
0100
1000
0001
0100
0010
1000
0001
1000
0010
0100
,
0001
0010
0100
0010
0001
1000
0100
0010
0001
1000
0010
0100
0001
0010
0100
1000
,
0001
0010
0001
1000
0010
0100
0010
1000
0001
0010
0001
1000
0010
0100
0001
1000
,
0001
0010
0100
1000
0001
0100
0001
1000
0100
0010
0100
1000
0001
0100
0010
0100
,
0001
1000
0100
0010
0100
1000
0001
0010
0001
1000
0010
0100
0001
1000
0010
1000
,
0001
0010
0100
0010
0001
1000
0100
1000
0001
0100
0010
0100
0001
1000
0010
1000
;
