#TITLE:Gradient;
#SUBTITLE:- Chill Out -;
#ARTIST:SpoOkyMagician;
#TITLETRANSLIT:;
#SUBTITLETRANSLIT:;
#ARTISTTRANSLIT:;
#CREDIT:;
#BANNER:Banner.png;
#BACKGROUND:Background.png;
#LYRICSPATH:;
#CDTITLE:../CDTitleSpooky.png;
#MUSIC:Gradient (Chill Out) v3.ogg;
#OFFSET:0.000;
#SAMPLESTART:74.000;
#SAMPLELENGTH:12.000;
#SELECTABLE:YES;
#BPMS:0.000=120.000,20.000=60.000,36.000=30.000,40.000=60.000,48.000=120.000,60.000=240.000,64.000=120.000,144.000=60.000,146.000=30.000;
#STOPS:0.000=1.500
,1.000=1.500
,2.000=1.500
,3.000=0.750
,3.500=0.350
,3.750=0.400
,60.000=0.250
,61.000=0.250
,62.000=0.250
,63.000=0.250
;
#BGCHANGES:;
// cache tags:
#FIRSTBEAT:0.000;
#LASTBEAT:146.000;
#SONGFILENAME:Songs/Index Gradation/Gradient - [Spooky Magician]/chart_0.sm;
#HASMUSIC:1;
#HASBANNER:1;
#MUSICLENGTH:100.000;
// end cache tags

//---------------dance-single - Heavy----------------
#NOTES:
     dance-single:
     Heavy:
     Hard:
     8:
     0.556,0.673,0.260,0.330,0.300,330.000,26.000,33.000,0.000,2.000:

0011
0000
0000
0000
0110
0000
0000
0000
0101
0000
0000
0000
1100
0000
0001
1000
,
0020
0000
1000
0100
0001
0000
0100
0000
1000
0000
0100
0000
0032
0000
1000
0000
,
0203
0000
0010
0001
0010
0000
1000
0000
0001
0000
1000
0000
0010
0000
0001
0000
,
2300
0000
0100
0010
0001
0000
0010
0000
0100
0000
0001
0000
3020
0000
0001
0000
,
0230
0000
0001
0010
1000
0000
0010
0000
0002
0000
0013
0000
2300
0000
0100
0000
,
3011
0001
1000
0100
1000
0001
0100
0010
1100
0001
0100
0010
1000
0001
0100
0010
,
0101
0010
1000
0001
0100
0010
0100
0001
1010
0100
1000
0001
0020
0000
2030
0000
,
3001
0100
0010
1000
0100
1000
0011
0000
0110
0001
1000
0010
0100
1000
0010
0100
,
1001
0010
0100
0001
1000
0001
0110
0000
1100
0001
0010
1000
0002
0000
0203
0000
,
0320
0000
0000
0000
2030
0000
0000
0000
3200
0000
0000
0000
0302
0000
0000
1000
,
0023
0100
0001
0100
1000
0100
0001
1000
0230
0001
0010
0001
1000
0001
0010
1000
,
0302
0010
0100
1000
0010
1000
0100
0010
2003
0100
0010
0001
0100
0010
0001
0100
,
3100
0001
1000
0010
0100
0001
1000
0010
,
1000
0010
0100
0001
1000
0010
0100
0001
,
0010
0001
1000
0100
0010
0001
1000
0100
,
0011
0101
1010
1100
,
0002
0000
0010
0100
1000
0000
0010
0000
0203
0000
1000
0000
0320
0000
0001
0000
,
2030
0000
0100
0010
0001
0000
0010
0000
0100
0000
0001
0000
3020
0000
1000
0000
,
0230
0000
0001
1000
0010
0000
0001
0000
2300
0000
0010
0000
3002
0000
0100
0000
,
0023
0000
0100
0001
1000
0000
0001
0000
0230
0000
0001
0000
2300
0000
0010
0000
,
3100
0000
0001
1000
0010
0000
0100
0000
1000
0000
0100
0000
0001
0000
0010
0000
,
1000
0000
0010
0001
0100
0000
1000
0000
0001
0000
0100
0000
0010
0000
1000
0000
,
0001
0000
1000
0010
0100
0000
0001
0000
1000
0000
0100
0000
0001
0000
0010
0000
,
0100
0000
1000
0001
0010
0000
0100
0000
0011
0000
0000
0000
1100
0000
0000
0000
,
0001
0000
1000
0010
0100
0000
0010
0000
0001
0000
0100
0000
0010
0000
1000
0000
,
0100
0000
1000
0010
0100
0000
0001
0000
0010
0000
0100
0000
0001
0000
1000
0000
,
0100
0000
0010
1000
0001
0000
0100
0000
0001
0000
0010
0000
0100
0000
1000
0000
,
0001
0000
0010
0100
1000
0000
0001
0000
0110
0000
0000
0000
1001
0000
0000
0000
,
1000
0100
0010
0001
0100
1000
0010
0100
,
0001
0100
1000
0100
1000
0001
0100
0010
,
0100
0001
1000
0100
0001
0010
0001
0100
,
0010
1000
0001
0010
0101
0000
1010
0000
,
0100
0010
0100
0001
0100
0010
1000
0001
,
0010
0100
0010
1000
0100
0001
0010
1000
,
0100
0001
0001
0100
0010
1000
0001
0100
,
0010
0001
0010
1000
0110
0000
1001
0000
,
0220
0000
0000
0330
0000
0000
0000
0000
;

//---------------dance-single - Standard----------------
#NOTES:
     dance-single:
     Standard:
     Medium:
     6:
     0.423,0.602,0.110,0.340,0.155,251.000,11.000,34.000,0.000,0.000:

0001
0000
0000
0000
0100
0000
0000
0000
0001
0000
0000
0000
0100
0000
0010
1000
,
0100
0000
0001
0010
0100
0000
0001
0000
,
1000
0000
0010
1000
0100
0000
0001
0000
,
0010
0000
1000
0001
0100
0000
0010
0000
,
0100
0000
1000
0010
0002
0000
2003
0000
,
3010
0001
0010
0000
0100
1000
0100
0000
0010
0100
0010
0000
0001
1000
0001
0000
,
0010
1000
0100
0000
0001
0100
0010
0000
0001
0010
0100
0000
0001
0000
1000
0000
,
0001
0100
1000
0000
0010
0100
0001
0000
1000
0100
0001
0000
0010
0001
0100
0000
,
1000
0001
0010
0000
0100
0010
1000
0000
0001
0100
1000
0000
0010
0000
0100
0000
,
0002
0203
0320
2030
,
3100
0001
0100
0001
0100
0001
0100
0001
0010
1000
0010
1000
0010
1000
0010
1000
,
0100
0010
0100
0010
0100
0010
0100
0010
1000
0001
1000
0001
1000
0001
1000
0001
,
0100
0001
0010
0100
0001
0010
1000
0001
,
0100
1000
0010
0001
1000
0100
0001
1000
,
0010
0001
1000
0100
0001
1000
0100
0010
,
0002
0203
0320
2030
,
3001
0100
0101
0000
0010
0010
1010
0000
,
0100
1000
1100
0000
0001
0001
0101
0000
,
0010
0001
0011
0000
0001
0001
1001
0000
,
0011
1100
0101
1010
,
0200
0001
1000
0000
0320
1000
0032
0000
,
0203
0010
0001
0000
1000
0001
0320
0000
,
2030
0001
0010
0000
3200
0010
0302
0000
,
0023
1000
0100
0000
0032
1000
0203
0000
,
0320
0001
1000
0000
2030
0100
3002
0000
,
0203
0001
0010
0000
1000
0001
0320
0000
,
0230
0001
1000
0000
0320
1000
0032
0000
,
2003
0010
0100
0000
3020
0001
2030
0000
,
3100
0010
0001
0000
0100
0001
0010
0000
,
1000
0100
0010
0000
0100
1000
0010
0000
,
0001
1000
0100
0000
0001
0100
1000
0000
,
0001
0010
1000
0000
1000
0010
0001
0000
,
0100
0001
1000
0010
,
0100
1000
0010
0001
,
0100
0001
1000
0010
,
0001
1000
0010
0100
0100
0010
1000
0001
,
2002
0000
3003
0000
;

//---------------dance-single - Light----------------
#NOTES:
     dance-single:
     Light:
     Easy:
     3:
     0.284,0.401,0.010,0.510,0.000,147.000,1.000,51.000,0.000,0.000:

0001
0100
0010
1000
,
0200
0000
0000
0302
,
0023
0000
0000
0000
,
0230
0000
0000
0320
,
2030
0000
3020
0230
,
0320
0001
1000
0100
2030
0001
0100
0010
,
3002
0010
1000
0010
0203
0001
1000
0001
,
2300
0010
0100
3020
0230
0001
0310
0001
,
0200
0001
1000
0302
0023
1000
0001
0230
,
2300
3200
0302
0023
,
0130
0100
0100
0000
1000
1000
1000
0000
,
0001
0001
0001
0000
0010
0010
0010
0000
,
1000
0100
1000
0100
,
0010
0001
0010
0001
,
1000
0001
1000
0001
,
0020
0230
0302
2003
,
3010
0100
0010
1000
,
0001
1000
0001
0010
,
0100
1000
0100
0001
,
0200
0302
0203
2300
,
3100
0002
0013
2000
,
3100
2000
3001
0020
,
0031
2000
3010
0200
,
1300
0020
0230
0302
,
1003
0200
0310
0002
,
0103
0002
0013
2000
,
3001
0020
0130
2000
,
3010
0002
0203
2300
,
3001
0001
0000
0100
,
1000
1000
0000
0010
,
0100
0100
0000
0001
,
1000
1000
0001
0010
,
1000
0000
0010
0000
,
0100
0000
0001
0000
,
0010
0000
0100
0000
,
0001
0000
1000
0001
,
2002
0000
3003
0000
;
