#TITLE:WE EAT AT FIVE FIVE FIVE (guys);
#SUBTITLE:EXoduz Violation II;
#ARTIST:Cardboard Box vs. STereochan;
#TITLETRANSLIT:;
#SUBTITLETRANSLIT:;
#ARTISTTRANSLIT:;
#CREDIT:;
#BANNER:../Banner.png;
#BACKGROUND:../background.png;
#LYRICSPATH:;
#CDTITLE:;
#MUSIC:WE EAT AT FIVE FIVE FIVE.ogg;
#OFFSET:-0.015;
#SAMPLESTART:42.007;
#SAMPLELENGTH:10.000;
#SELECTABLE:YES;
#DISPLAYBPM:555.000;
#BPMS:0.000=555.000;
#STOPS:;
#BGCHANGES:;
// cache tags:
#FIRSTBEAT:16.000;
#LASTBEAT:1136.000;
#SONGFILENAME:Songs/EXoduz Violation II/WE EAT AT FIVE FIVE FIVE-guys - [Ov3rHell3XoduZ]/WE EAT AT FIVE FIVE FIVE.sm;
#HASMUSIC:1;
#HASBANNER:1;
#MUSICLENGTH:122.810;
// end cache tags

//---------------dance-single - ----------------
#NOTES:
     dance-single:
     :
     Beginner:
     14:
     1.000,1.000,0.000,1.000,1.000,1201.000,0.000,232.000,0.000,0.000:
0000
0000
0000
0000
,
0000
0000
0000
0000
,
0000
0000
0000
0000
,
0000
0000
0000
0000
,
1000
0000
0001
0000
0100
0000
0010
0000
1000
0000
0100
0000
,
0010
0000
0001
0000
1000
0000
0001
0000
0010
0000
0100
0000
,
1000
0000
0010
0000
0100
0000
0001
0000
1000
0000
0001
0000
,
0010
0000
0100
0000
1000
0000
0010
0000
0100
0000
0001
0000
,
0010
0000
0001
0000
1000
0000
0100
0000
0010
0000
0001
0000
,
1000
0000
0001
0000
0010
0000
0100
0000
1000
0000
0010
0000
,
0100
0000
0001
0000
0010
0000
0100
0000
1000
0000
0001
0000
,
1000
0000
0010
0000
0100
0000
0001
0000
1000
0000
0100
0000
,
0010
0000
0001
0000
1000
0000
0010
0000
1000
0000
0100
0000
,
0010
0000
0001
0000
0100
0000
0001
0000
1000
0000
0010
0000
,
0100
0000
0001
0000
1000
0000
0100
0000
1000
0000
0001
0000
,
0100
0000
0010
0000
1000
0000
0001
0000
0010
0000
0100
0000
,
1000
0000
0001
0000
0100
0000
0001
0000
1000
0000
0100
0000
,
0010
0000
0001
0000
1000
0000
0010
0000
0100
0000
0001
0000
,
0010
0000
0100
0000
1000
0000
0010
0000
0100
0000
0001
0000
,
1000
0000
0010
0000
0100
0000
0001
0000
0010
0000
0100
0000
,
4000
3000
0000
0000
0010
0000
0000
0000
0100
0000
0000
0000
0004
0003
0000
0000
,
0010
0000
0000
0000
0100
0000
0000
0000
4000
3000
0000
0000
0001
0000
0000
0000
,
0200
0300
0010
0000
1000
0000
0001
0000
,
0200
0300
0010
0000
1000
0000
0001
0000
,
4000
3000
0000
0000
0100
0000
0000
0000
0010
0000
0000
0000
0004
0003
0000
0000
,
0100
0000
0000
0000
0010
0000
0000
0000
4000
3000
0000
0000
0001
0000
0000
0000
,
0020
0030
0100
0000
1000
0000
0001
0000
,
0200
0300
0010
0000
1000
0000
0001
0000
,
4000
3000
0000
0000
0010
0000
0000
0000
0100
0000
0000
0000
0004
0003
0000
0000
,
0010
0000
0000
0000
0100
0000
0000
0000
4000
3000
0000
0000
0001
0000
0000
0000
,
2000
3000
0010
0000
0100
0000
0001
0000
,
2000
3000
0010
0000
0100
0000
0001
0000
,
4000
3000
0000
0000
0100
0000
0000
0000
0010
0000
0000
0000
0004
0003
0000
0000
,
0100
0000
0000
0000
0010
0000
0000
0000
4000
3000
0000
0000
0001
0000
0000
0000
,
4000
3000
0100
0000
0010
0000
0001
0000
,
2000
3010
0100
0001
,
0010
0000
0100
0000
1000
0000
0001
0000
1000
0000
0100
0000
,
0010
0000
0001
0000
1000
0000
0010
0000
0100
0000
0001
0000
,
0010
0000
0001
0000
1000
0000
0100
0000
0010
0000
0001
0000
,
1000
0000
0001
0000
0010
0000
0100
0000
1000
0000
0010
0000
,
0100
0000
0001
0000
0010
0000
0001
0000
1000
0000
0100
0000
,
0010
0000
0001
0000
1000
0000
0010
0000
0100
0000
0001
0000
,
0010
0000
0100
0000
1000
0000
0001
0000
1000
0000
0100
0000
,
0010
0000
0001
0000
1000
0000
0010
0000
1000
0000
0100
0000
,
0010
0000
0001
0000
0100
0000
0001
0000
1000
0000
0001
0000
,
0010
0000
0100
0000
1000
0000
0001
0000
1000
0000
0100
0000
,
0010
0000
0001
0000
1000
0000
0010
0000
0100
0000
0001
0000
,
0010
0000
0100
0000
1000
0000
0001
0000
1000
0000
0100
0000
,
0010
0000
0001
0000
1000
0000
0001
0000
0010
0000
0100
0000
,
1000
0000
0010
0000
0100
0000
0001
0000
0100
0000
0010
0000
,
1000
0000
0100
0000
0010
0000
0001
0000
1000
0000
0001
0000
,
0010
0000
0100
0000
1000
0000
0010
0000
0100
0000
0001
0000
,
2000
3020
0230
0302
,
0023
0230
2300
3002
,
0203
0302
0023
0230
,
2300
3020
0230
0302
,
0013
0000
0100
0000
1000
0000
0100
0000
0010
0000
0001
0000
,
1000
0000
0001
0000
0010
0000
0100
0000
1000
0000
0010
0000
,
0100
0000
0001
0000
0010
0000
0001
0000
1000
0000
0100
0000
,
0010
0000
0001
0000
1000
0000
0010
0000
0100
0000
0001
0000
,
0020
0230
2300
3020
,
0230
0302
0023
0230
,
2300
0000
0000
0000
,
3020
0000
0000
0000
,
0130
0000
0001
0000
0010
0000
0100
0000
1000
0000
0010
0000
,
0100
0000
0001
0000
1000
0000
0100
0000
1000
0000
0001
0000
,
0010
0000
0100
0000
1000
0000
0001
0000
0100
0000
0001
0000
,
1000
0000
0100
0000
0010
0000
0001
0000
1000
0000
0010
0000
,
0200
0302
0023
0230
,
2300
3020
0230
0302
,
2003
3200
0320
0032
,
2003
3020
0230
0302
,
0013
0000
0100
0000
1000
0000
0001
0000
0100
0000
0001
0000
,
1000
0000
0100
0000
0010
0000
0001
0000
1000
0000
0010
0000
,
0100
0000
0001
0000
0010
0000
0001
0000
1000
0000
0100
0000
,
1000
0000
0001
0000
0010
0000
0100
0000
1000
0000
0010
0000
,
0200
0302
0023
0230
,
2300
3020
0230
0302
,
0023
0000
0000
0000
,
0230
0000
0000
0000
,
1300
0000
0010
0000
0100
0000
0001
0000
0010
0000
0100
0000
,
1000
0000
0001
0000
1000
0000
0100
0000
0010
0000
0001
0000
,
1000
0000
0010
0000
0100
0000
0001
0000
0010
0000
0100
0000
,
1000
0000
0010
0000
0100
0000
0001
0000
0100
0000
0010
0000
,
2000
0000
0000
0000
,
3000
1000
1000
1000
,
0020
0000
0000
0000
,
0030
0010
0010
0010
,
0200
0000
0000
0000
,
0300
0100
0100
0100
,
0020
0000
0000
0000
,
0030
0010
0010
0010
,
2000
0000
0000
0000
,
3000
1000
1000
1000
,
0002
0000
0000
0000
,
0003
0001
0001
0001
,
0020
0000
0000
0000
,
0030
0010
0010
0010
,
0200
0000
0000
0000
,
0300
0100
0100
0100
,
2000
3000
0001
0000
0100
0000
0001
0000
,
2000
3000
0010
0000
1000
0000
0001
0000
,
0200
0300
0001
0000
1000
0000
0010
0000
,
0100
0001
0010
0001
,
2000
3000
0100
0000
1000
0000
0001
0000
,
0020
0030
0001
0000
1000
0000
0100
0000
,
2000
3000
0001
0000
1000
0000
0010
0000
,
0400
0300
0001
0000
0010
0000
0001
0000
,
2000
3000
0100
0000
0010
0000
0100
0000
,
2000
3000
0010
0000
0100
0000
0001
0000
,
0020
0030
0100
0000
1000
0000
0001
0000
,
0400
0300
0001
0000
1000
0000
0010
0000
,
2000
3000
0100
0000
1000
0000
0001
0000
,
0020
0030
0001
0000
0100
0000
0001
0000
,
2000
3000
0010
0000
1000
0000
0001
0000
,
0200
0300
0001
0000
1000
0000
0100
0000
,
1000
0000
0100
0000
1000
0000
0100
0000
0010
0000
0001
0000
,
0010
0000
0001
0000
1000
0000
0010
0000
1000
0000
0001
0000
,
0100
0000
0001
0000
1000
0000
0100
0000
1000
0000
0100
0000
,
0010
0000
0001
0000
0010
0000
0001
0000
1000
0000
0001
0000
,
0200
0300
0010
0000
0100
0000
0001
0000
1000
0000
0001
0000
,
0200
0300
0010
0000
0100
0000
0001
0000
1000
0000
0001
0000
,
0200
0300
0010
0000
0100
0000
0001
0000
1000
0000
0001
0000
,
0200
0300
0010
0000
1000
0000
0100
0000
1000
0000
0001
0000
,
1000
0100
0010
0100
,
1000
0001
0100
0001
,
1000
0010
1000
0001
,
0100
0001
1000
0100
,
0020
0030
0001
0000
0010
0000
0100
0000
1000
0000
0100
0000
,
0020
0030
0001
0000
0010
0000
0100
0000
1000
0000
0100
0000
,
0020
0030
0001
0000
0010
0000
0100
0000
1000
0000
0100
0000
,
0020
0030
0001
0000
0100
0000
0001
0000
1000
0000
0001
0000
,
0200
0300
0010
0000
1000
0000
0100
0000
,
0020
0030
0001
0000
1000
0000
0001
0000
,
0200
0300
0001
0000
1000
0000
0010
0000
,
4000
3000
0001
0000
0100
0000
0001
0000
,
2000
3000
0001
0000
0010
0000
0001
0000
0010
0000
0100
0000
,
2000
3000
0001
0000
0010
0000
0001
0000
0010
0000
0100
0000
,
2000
3000
0001
0000
0010
0000
0001
0000
0010
0000
0100
0000
,
2000
3000
0001
0000
1000
0000
0100
0000
1000
0000
0010
0000
,
0200
0300
0001
0000
1000
0000
0010
0000
,
0200
0300
0001
0000
0010
0000
0100
0000
,
2000
3000
0001
0000
0100
0000
0001
0000
,
4000
3000
0010
0000
0100
0000
0001
0000
,
2000
3000
0001
0000
0010
0000
0001
0000
0100
0000
0001
0000
,
2000
3000
0001
0000
0010
0000
0001
0000
0100
0000
0001
0000
,
2000
3000
0001
0000
0010
0000
0001
0000
0100
0000
0001
0000
,
2000
3000
0100
0000
0010
0000
0001
0000
1000
0000
0001
0000
,
0020
0030
0100
0000
0010
0000
0100
0000
,
0020
0030
0100
0000
1000
0000
0100
0000
,
2000
3000
0001
0000
0010
0000
0001
0000
,
0040
0030
0100
0000
1000
0000
0100
0000
,
2000
3000
0001
0000
0010
0000
0001
0000
,
0020
0030
0100
0000
1000
0000
0100
0000
,
2000
3000
0010
0000
1000
0000
0010
0000
,
0400
0300
0001
0000
0100
0000
0001
0000
,
0200
0300
0001
0000
1000
0000
0010
0000
,
0200
0300
0001
0000
0100
0000
0001
0000
,
2000
3000
0010
0000
0100
0000
0010
0000
,
0400
0300
0001
0000
0010
0000
0001
0000
,
0020
0030
0100
0000
1000
0000
0001
0000
,
0200
0300
0001
0000
1000
0000
0100
0000
,
2000
3000
0001
0000
0010
0000
0001
0000
,
2000
3000
0010
0000
1000
0000
0001
0000
,
0020
0000
0000
0000
,
0030
0010
0010
0010
,
0200
0000
0000
0000
,
0300
0100
0100
0100
,
2000
0000
0000
0000
,
3000
1000
1000
1000
,
0002
0000
0000
0000
,
0003
0001
0001
0001
,
0200
0000
0000
0000
,
0300
0100
0100
0100
,
0020
0000
0000
0000
,
0030
0010
0010
0010
,
2000
0000
0000
0000
,
3000
1000
1000
1000
,
0002
0000
0000
0000
,
0003
0001
0001
0001
,
4000
3000
0000
0000
0010
0000
0000
0000
0100
0000
0000
0000
0004
0003
0000
0000
,
0010
0000
0000
0000
0100
0000
0000
0000
4000
3000
0000
0000
0001
0000
0000
0000
,
0200
0300
0010
0000
1000
0000
0001
0000
,
0200
0300
0010
0000
1000
0000
0001
0000
,
4000
3000
0000
0000
0100
0000
0000
0000
0010
0000
0000
0000
0004
0003
0000
0000
,
0100
0000
0000
0000
0010
0000
0000
0000
4000
3000
0000
0000
0001
0000
0000
0000
,
0020
0030
0100
0000
1000
0000
0001
0000
,
0200
0300
0010
0000
1000
0000
0001
0000
,
4000
3000
0000
0000
0010
0000
0000
0000
0100
0000
0000
0000
0004
0003
0000
0000
,
0010
0000
0000
0000
0100
0000
0000
0000
4000
3000
0000
0000
0001
0000
0000
0000
,
2000
3000
0010
0000
0100
0000
0001
0000
,
2000
3000
0010
0000
0100
0000
0001
0000
,
4000
3000
0000
0000
0100
0000
0000
0000
0010
0000
0000
0000
0004
0003
0000
0000
,
0100
0000
0000
0000
0010
0000
0000
0000
4000
3000
0000
0000
0001
0000
0000
0000
,
4000
3000
0100
0000
0010
0000
0001
0000
,
2000
0000
0010
3000
0100
0000
0002
0000
,
2003
0000
0000
3000
0100
0000
0000
0000
0010
0000
0000
0000
0001
0000
0000
0000
1000
0000
0000
0000
0001
0000
0000
0000
,
0020
0000
0000
0030
0100
0000
0000
0000
1000
0000
0000
0000
0010
0000
0000
0000
0100
0000
0000
0000
0001
0000
0000
0000
,
0020
0030
0100
0000
1000
0000
0001
0000
,
0100
0001
1000
0100
,
2000
0000
0000
3000
0001
0000
0000
0000
0100
0000
0000
0000
0001
0000
0000
0000
1000
0000
0000
0000
0100
0000
0000
0000
,
2000
0000
0000
3000
0001
0000
0000
0000
0010
0000
0000
0000
0001
0000
0000
0000
1000
0000
0000
0000
0010
0000
0000
0000
,
2000
3000
0001
0000
0100
0000
0001
0000
,
1000
0010
1000
0001
,
0020
0000
0000
0030
0100
0000
0000
0000
1000
0000
0000
0000
0100
0000
0000
0000
0010
0000
0000
0000
0001
0000
0000
0000
,
2000
0000
0000
3000
0001
0000
0000
0000
0010
0000
0000
0000
0100
0000
0000
0000
1000
0000
0000
0000
0100
0000
0000
0000
,
0020
0030
0001
0000
1000
0000
0001
0000
,
0100
0001
1000
0100
,
0020
0000
0000
0030
0001
0000
0000
0000
1000
0000
0000
0000
0001
0000
0000
0000
0100
0000
0000
0000
0001
0000
0000
0000
,
2000
0000
0000
3000
0100
0000
0000
0000
1000
0000
0000
0000
0001
0000
0000
0000
1000
0000
0000
0000
0001
0000
0000
0000
,
0200
0300
0010
0000
1000
0000
0100
0000
,
0020
0030
0001
0000
1000
0000
0001
0000
,
0200
0300
0010
0000
1000
0000
0100
0000
1000
0000
0001
0000
,
0020
0030
0100
0000
1000
0000
0001
0000
0100
0000
0001
0000
,
2000
3000
0010
0000
1000
0000
0001
0000
0010
0000
0001
0000
,
0020
0030
0100
0000
1000
0000
0001
0000
0100
0000
0001
0000
,
2000
3000
0100
0000
0010
0000
0001
0000
1000
0000
0001
0000
,
0020
0030
0100
0000
1000
0000
0100
0000
1000
0000
0001
0000
,
0020
0030
0100
0000
1000
0000
0010
0000
0100
0000
0010
0000
,
2000
3000
0100
0000
0010
0000
0100
0000
1000
0000
0001
0000
,
0200
0300
0001
0000
1000
0000
0100
0000
0010
0000
0100
0000
,
2000
3000
0010
0000
0100
0000
0001
0000
0010
0000
0001
0000
,
2000
3000
0100
0000
0010
0000
0100
0000
1000
0000
0010
0000
,
0200
0300
0010
0000
1000
0000
0100
0000
1000
0000
0001
0000
,
0020
0030
0100
0000
1000
0000
0001
0000
0100
0000
0001
0000
,
2000
3000
0100
0000
0010
0000
0100
0000
1000
0000
0001
0000
,
2000
3000
0100
0000
0010
0000
0100
0000
1000
0000
0001
0000
,
0200
0300
0001
0000
1000
0000
0010
0000
1000
0000
0100
0000
,
0020
0030
0001
0000
1000
0000
0001
0000
0100
0000
0010
0000
,
2000
3000
0100
0000
0010
0000
0001
0000
0010
0000
0100
0000
,
2000
3000
0001
0000
0100
0000
0001
0000
1000
0000
0100
0000
,
0020
0030
0100
0000
1000
0000
0010
0000
0100
0000
0001
0000
,
2000
3000
0100
0000
1000
0000
0010
0000
0100
0000
0010
0000
,
2000
3000
0100
0000
1000
0000
0001
0000
0010
0000
0100
0000
,
2000
3000
0001
0000
0100
0000
0001
0000
1000
0000
0100
0000
,
2000
3000
0001
0000
0010
0000
0001
0000
1000
0000
0010
0000
,
2000
3000
0100
0000
1000
0000
0001
0000
0100
0000
0001
0000
,
2000
3000
0100
0000
0010
0000
0100
0000
1000
0000
0001
0000
,
2000
3000
0100
0000
0010
0000
0100
0000
1000
0000
0001
0000
,
0200
0300
0001
0000
1000
0000
0010
0000
1000
0000
0001
0000
,
0020
0030
0100
0000
1000
0000
0001
0000
1000
0000
0100
0000
,
0020
0030
0001
0000
0010
0000
0100
0000
1000
0000
0001
0000
,
0200
0300
0001
0000
1000
0000
0010
0000
1000
0000
0001
0000
,
0020
0030
0001
0000
0010
0000
0100
0000
1000
0000
0100
0000
,
2000
3002
0023
0230
,
2300
3020
0230
0302
,
0023
0032
2003
3200
,
0320
0032
2003
3020
,
0130
0000
0001
0000
0010
0000
0100
0000
1000
0000
0001
0000
,
1000
0000
0100
0000
0010
0000
0001
0000
1000
0000
0010
0000
,
0100
0000
0001
0000
0010
0000
0001
0000
1000
0000
0100
0000
,
0010
0000
0001
0000
1000
0000
0010
0000
1000
0000
0100
0000
,
0010
0001
1000
0001
,
1000
0001
1000
0001
,
0100
0010
0100
0010
,
0100
0010
0100
0010
,
1000
0100
0010
0001
,
0100
0010
1000
0100
,
1000
0010
0100
0001
,
1000
0100
0010
0001
,
2000
3020
0230
0302
,
2003
3200
0320
0032
,
2003
3010
0100
0010
,
2000
3100
0010
0100
,
2000
3020
0230
0302
,
0023
0230
2300
3020
,
2030
3100
0010
0001
,
2000
3010
0100
0001
,
2000
3200
0320
0032
,
0203
0320
2030
3200
,
2300
3010
0100
0010
,
2000
3100
0010
0100
,
2000
3020
0230
0302
,
0023
0230
2300
3020
,
2030
3001
0010
0100
,
2000
3010
0400
0000
,
0000
0000
0000
0000
,
0000
0000
0000
0000
,
0000
0000
0000
0000
,
0000
0000
0000
0000
,
0000
0000
0000
0000
,
0000
0000
0000
0000
,
0000
0000
0000
0000
,
0000
0000
0000
0000
,
0300
0000
0000
0000
;

//---------------dance-single - ----------------
#NOTES:
     dance-single:
     :
     Easy:
     15:
     1.000,1.000,0.000,1.000,1.000,1227.000,0.000,238.000,0.000,0.000:
0000
0000
0000
0000
,
0000
0000
0000
0000
,
0000
0000
0000
0000
,
0000
0000
0000
0000
,
1000
0000
0001
0000
0100
0000
0010
0000
1000
0000
0100
0000
,
0010
0000
0001
0000
1000
0000
0001
0000
0010
0000
0100
0000
,
1000
0000
0010
0000
0100
0000
0001
0000
1000
0000
0001
0000
,
0010
0000
0100
0000
1000
0000
0010
0000
0100
0000
0001
0000
,
0010
0000
0001
0000
1000
0000
0100
0000
0010
0000
0001
0000
,
1000
0000
0001
0000
0010
0000
0100
0000
1000
0000
0010
0000
,
0100
0000
0001
0000
0010
0000
0100
0000
1000
0000
0001
0000
,
1000
0000
0010
0000
0100
0000
0001
0000
1000
0000
0100
0000
,
0010
0000
0001
0000
1000
0000
0010
0000
1000
0000
0100
0000
,
0010
0000
0001
0000
0100
0000
0001
0000
1000
0000
0010
0000
,
0100
0000
0001
0000
1000
0000
0100
0000
1000
0000
0001
0000
,
0100
0000
0010
0000
1000
0000
0001
0000
0010
0000
0100
0000
,
1000
0000
0001
0000
0100
0000
0001
0000
1000
0000
0100
0000
,
0010
0000
0001
0000
1000
0000
0010
0000
0100
0000
0001
0000
,
0010
0000
0100
0000
1000
0000
0010
0000
0100
0000
0001
0000
,
1000
0000
0010
0000
0100
0000
0001
0000
0010
0000
0100
0000
,
4000
3000
0000
0000
0010
0000
0000
0000
0100
0000
0000
0000
0004
0003
0000
0000
,
0010
0000
0000
0000
0100
0000
0000
0000
4000
3000
0000
0000
0001
0000
0000
0000
,
0200
0300
0010
0000
1000
0000
0001
0000
,
0200
0300
0010
0000
1000
0000
0001
0000
,
4000
3000
0000
0000
0100
0000
0000
0000
0010
0000
0000
0000
0004
0003
0000
0000
,
0100
0000
0000
0000
0010
0000
0000
0000
4000
3000
0000
0000
0001
0000
0000
0000
,
0020
0030
0100
0000
1000
0000
0001
0000
,
0200
0300
0010
0000
1000
0000
0001
0000
,
4000
3000
0000
0000
0010
0000
0000
0000
0100
0000
0000
0000
0004
0003
0000
0000
,
0010
0000
0000
0000
0100
0000
0000
0000
4000
3000
0000
0000
0001
0000
0000
0000
,
2000
3000
0010
0000
0100
0000
0001
0000
,
2000
3000
0010
0000
0100
0000
0001
0000
,
4000
3000
0000
0000
0100
0000
0000
0000
0010
0000
0000
0000
0004
0003
0000
0000
,
0100
0000
0000
0000
0010
0000
0000
0000
4000
3000
0000
0000
0001
0000
0000
0000
,
4000
3000
0100
0000
0010
0000
0001
0000
,
2000
3010
0100
0001
,
0010
0000
0100
0000
1000
0000
0001
0000
1000
0000
0100
0000
,
0010
0000
0001
0000
1000
0000
0010
0000
0100
0000
0001
0000
,
0010
0000
0001
0000
1000
0000
0100
0000
0010
0000
0001
0000
,
1000
0000
0001
0000
0010
0000
0100
0000
1000
0000
0010
0000
,
0100
0000
0001
0000
0010
0000
0001
0000
1000
0000
0100
0000
,
0010
0000
0001
0000
1000
0000
0010
0000
0100
0000
0001
0000
,
0010
0000
0100
0000
1000
0000
0001
0000
1000
0000
0100
0000
,
0010
0000
0001
0000
1000
0000
0010
0000
1000
0000
0100
0000
,
0010
0000
0001
0000
0100
0000
0001
0000
1000
0000
0001
0000
,
0010
0000
0100
0000
1000
0000
0001
0000
1000
0000
0100
0000
,
0010
0000
0001
0000
1000
0000
0010
0000
0100
0000
0001
0000
,
0010
0000
0100
0000
1000
0000
0001
0000
1000
0000
0100
0000
,
0010
0000
0001
0000
1000
0000
0001
0000
0010
0000
0100
0000
,
1000
0000
0010
0000
0100
0000
0001
0000
0100
0000
0010
0000
,
1000
0000
0100
0000
0010
0000
0001
0000
1000
0000
0001
0000
,
0010
0000
0100
0000
1000
0000
0010
0000
0100
0000
0001
0000
,
2000
3020
0230
0302
,
0023
0230
2300
3002
,
0203
0302
0023
0230
,
2300
3020
0230
0302
,
0013
0000
0100
0000
1000
0000
0100
0000
0010
0000
0001
0000
,
1000
0000
0001
0000
0010
0000
0100
0000
1000
0000
0010
0000
,
0100
0000
0001
0000
0010
0000
0001
0000
1000
0000
0100
0000
,
0010
0000
0001
0000
1000
0000
0010
0000
0100
0000
0001
0000
,
0020
0230
2300
3020
,
0230
0302
0023
0230
,
2300
3020
0230
0302
,
2003
3200
0320
0032
,
0103
0000
0001
0000
0010
0000
0100
0000
1000
0000
0010
0000
,
0100
0000
0001
0000
1000
0000
0100
0000
1000
0000
0001
0000
,
0010
0000
0100
0000
1000
0000
0001
0000
0100
0000
0001
0000
,
1000
0000
0100
0000
0010
0000
0001
0000
1000
0000
0010
0000
,
0200
0302
0023
0230
,
2300
3020
0230
0302
,
2003
3200
0320
0032
,
2003
3020
0230
0302
,
0013
0000
0100
0000
1000
0000
0001
0000
0100
0000
0001
0000
,
1000
0000
0100
0000
0010
0000
0001
0000
1000
0000
0010
0000
,
0100
0000
0001
0000
0010
0000
0001
0000
1000
0000
0100
0000
,
1000
0000
0001
0000
0010
0000
0100
0000
1000
0000
0010
0000
,
0200
0302
0023
0230
,
2300
3020
0230
0302
,
0023
0230
2300
3002
,
0203
0302
0023
0032
,
1003
0000
0010
0000
0100
0000
0001
0000
0010
0000
0100
0000
,
1000
0000
0001
0000
1000
0000
0100
0000
0010
0000
0001
0000
,
1000
0000
0010
0000
0100
0000
0001
0000
0010
0000
0100
0000
,
1000
0000
0010
0000
0100
0000
0001
0000
0100
0000
0010
0000
,
2000
0000
0000
0000
,
3000
1000
1000
1000
,
0020
0000
0000
0000
,
0030
0010
0010
0010
,
0200
0000
0000
0000
,
0300
0100
0100
0100
,
0020
0000
0000
0000
,
0030
0010
0010
0010
,
2000
0000
0000
0000
,
3000
1000
1000
1000
,
0002
0000
0000
0000
,
0003
0001
0001
0001
,
0020
0000
0000
0000
,
0030
0010
0010
0010
,
0200
0000
0000
0000
,
0300
0100
0100
0100
,
2000
3000
0001
0000
0100
0000
0001
0000
,
2000
3000
0010
0000
1000
0000
0001
0000
,
0200
0300
0001
0000
1000
0000
0010
0000
,
0100
0001
0010
0001
,
2000
3000
0100
0000
1000
0000
0001
0000
,
0020
0030
0001
0000
1000
0000
0100
0000
,
2000
3000
0001
0000
1000
0000
0010
0000
,
0400
0300
0001
0000
0010
0000
0001
0000
,
2000
3000
0100
0000
0010
0000
0100
0000
,
2000
3000
0010
0000
0100
0000
0001
0000
,
0020
0030
0100
0000
1000
0000
0001
0000
,
0400
0300
0001
0000
1000
0000
0010
0000
,
2000
3000
0100
0000
1000
0000
0001
0000
,
0020
0030
0001
0000
0100
0000
0001
0000
,
2000
3000
0010
0000
1000
0000
0001
0000
,
0200
0300
0001
0000
1000
0000
0100
0000
,
1000
0000
0001
0000
0100
0000
0010
0000
0100
0000
0001
0000
,
1000
0000
0100
0000
0010
0000
0001
0000
1000
0000
0010
0000
,
1000
0000
0100
0000
0010
0000
0001
0000
0100
0000
0001
0000
,
1000
0000
0001
0000
0100
0000
0010
0000
1000
0000
0100
0000
,
0020
0030
0001
0000
0100
0000
0001
0000
1000
0000
0001
0000
,
0200
0300
0010
0000
0100
0000
0001
0000
1000
0000
0001
0000
,
0200
0300
0010
0000
0100
0000
0001
0000
1000
0000
0001
0000
,
0200
0300
0010
0000
1000
0000
0100
0000
1000
0000
0001
0000
,
4000
3000
0100
0000
0010
0000
0100
0000
1000
0000
0001
0000
,
0400
0300
0001
0000
1000
0000
0010
0000
0100
0000
0001
0000
,
0040
0030
0001
0000
1000
0000
0100
0000
0010
0000
0100
0000
,
4000
3000
0001
0000
0100
0000
0001
0000
1000
0000
0100
0000
,
0020
0030
0001
0000
0010
0000
0100
0000
1000
0000
0100
0000
,
0020
0030
0001
0000
0010
0000
0100
0000
1000
0000
0100
0000
,
0020
0030
0001
0000
0010
0000
0100
0000
1000
0000
0100
0000
,
0020
0030
0001
0000
0100
0000
0001
0000
1000
0000
0001
0000
,
0400
0300
0010
0000
1000
0000
0100
0000
1000
0000
0010
0000
,
0400
0300
0001
0000
0010
0000
0100
0000
0010
0000
0001
0000
,
0400
0300
0010
0000
1000
0000
0100
0000
1000
0000
0010
0000
,
0400
0300
0010
0000
1000
0000
0100
0000
0010
0000
0001
0000
,
2000
3000
0001
0000
0010
0000
0001
0000
0010
0000
0100
0000
,
2000
3000
0001
0000
0010
0000
0001
0000
0010
0000
0100
0000
,
2000
3000
0001
0000
0010
0000
0001
0000
0010
0000
0100
0000
,
2000
3000
0001
0000
1000
0000
0100
0000
1000
0000
0010
0000
,
0400
0300
0001
0000
0010
0000
0100
0000
1000
0000
0010
0000
,
0400
0300
0001
0000
1000
0000
0100
0000
0010
0000
0001
0000
,
4000
3000
0010
0000
0100
0000
0001
0000
0010
0000
0100
0000
,
0040
0030
0001
0000
1000
0000
0010
0000
0100
0000
0001
0000
,
2000
3000
0001
0000
0010
0000
0001
0000
0100
0000
0001
0000
,
2000
3000
0001
0000
0010
0000
0001
0000
0100
0000
0001
0000
,
2000
3000
0001
0000
0010
0000
0001
0000
0100
0000
0001
0000
,
2000
3000
0100
0000
0010
0000
0001
0000
1000
0000
0001
0000
,
0020
0030
0100
0000
1000
0000
0001
0000
,
0200
0300
0001
0000
1000
0000
0010
0000
,
0200
0300
0001
0000
1000
0000
0100
0000
,
4000
3000
0001
0000
1000
0000
0010
0000
,
0200
0300
0001
0000
0010
0000
0100
0000
,
2000
3000
0001
0000
0100
0000
0001
0000
,
2000
3000
0001
0000
0100
0000
0010
0000
,
4000
3000
0100
0000
0010
0000
0001
0000
,
2000
3000
0001
0000
1000
0000
0010
0000
,
0200
0300
0001
0000
1000
0000
0100
0000
,
0020
0030
0100
0000
1000
0000
0001
0000
,
0400
0300
0001
0000
0010
0000
0100
0000
,
2000
3000
0100
0000
1000
0000
0001
0000
,
0200
0300
0001
0000
1000
0000
0100
0000
,
2000
3000
0001
0000
0010
0000
0001
0000
,
2000
3000
0010
0000
1000
0000
0001
0000
,
0020
0000
0000
0000
,
0030
0010
0010
0010
,
0200
0000
0000
0000
,
0300
0100
0100
0100
,
2000
0000
0000
0000
,
3000
1000
1000
1000
,
0002
0000
0000
0000
,
0003
0001
0001
0001
,
0200
0000
0000
0000
,
0300
0100
0100
0100
,
0020
0000
0000
0000
,
0030
0010
0010
0010
,
2000
0000
0000
0000
,
3000
1000
1000
1000
,
0002
0000
0000
0000
,
0003
0001
0001
0001
,
4000
3000
0000
0000
0010
0000
0000
0000
0100
0000
0000
0000
0004
0003
0000
0000
,
0010
0000
0000
0000
0100
0000
0000
0000
4000
3000
0000
0000
0001
0000
0000
0000
,
0200
0300
0010
0000
1000
0000
0001
0000
,
0200
0300
0010
0000
1000
0000
0001
0000
,
4000
3000
0000
0000
0100
0000
0000
0000
0010
0000
0000
0000
0004
0003
0000
0000
,
0100
0000
0000
0000
0010
0000
0000
0000
4000
3000
0000
0000
0001
0000
0000
0000
,
0020
0030
0100
0000
1000
0000
0001
0000
,
0200
0300
0010
0000
1000
0000
0001
0000
,
4000
3000
0000
0000
0010
0000
0000
0000
0100
0000
0000
0000
0004
0003
0000
0000
,
0010
0000
0000
0000
0100
0000
0000
0000
4000
3000
0000
0000
0001
0000
0000
0000
,
2000
3000
0010
0000
0100
0000
0001
0000
,
2000
3000
0010
0000
0100
0000
0001
0000
,
4000
3000
0000
0000
0100
0000
0000
0000
0010
0000
0000
0000
0004
0003
0000
0000
,
0100
0000
0000
0000
0010
0000
0000
0000
4000
3000
0000
0000
0001
0000
0000
0000
,
4000
3000
0100
0000
0010
0000
0001
0000
,
2000
0000
0010
3000
0100
0000
0002
0000
,
2003
0000
0000
3000
0100
0000
0000
0000
0010
0000
0000
0000
0001
0000
0000
0000
1000
0000
0000
0000
0001
0000
0000
0000
,
0020
0000
0000
0030
0100
0000
0000
0000
1000
0000
0000
0000
0010
0000
0000
0000
0100
0000
0000
0000
0001
0000
0000
0000
,
0020
0030
0100
0000
1000
0000
0001
0000
,
0100
0001
1000
0100
,
2000
0000
0000
3000
0001
0000
0000
0000
0100
0000
0000
0000
0001
0000
0000
0000
1000
0000
0000
0000
0100
0000
0000
0000
,
2000
0000
0000
3000
0001
0000
0000
0000
0010
0000
0000
0000
0001
0000
0000
0000
1000
0000
0000
0000
0010
0000
0000
0000
,
2000
3000
0001
0000
0100
0000
0001
0000
,
1000
0010
1000
0001
,
0020
0000
0000
0030
0100
0000
0000
0000
1000
0000
0000
0000
0100
0000
0000
0000
0010
0000
0000
0000
0001
0000
0000
0000
,
2000
0000
0000
3000
0001
0000
0000
0000
0010
0000
0000
0000
0100
0000
0000
0000
1000
0000
0000
0000
0100
0000
0000
0000
,
0020
0030
0001
0000
1000
0000
0001
0000
,
0100
0001
1000
0100
,
0020
0000
0000
0030
0001
0000
0000
0000
1000
0000
0000
0000
0001
0000
0000
0000
0100
0000
0000
0000
0001
0000
0000
0000
,
2000
0000
0000
3000
0100
0000
0000
0000
1000
0000
0000
0000
0001
0000
0000
0000
1000
0000
0000
0000
0001
0000
0000
0000
,
0200
0300
0010
0000
1000
0000
0100
0000
,
0020
0030
0001
0000
1000
0000
0001
0000
,
0200
0300
0010
0000
1000
0000
0100
0000
1000
0000
0001
0000
,
0020
0030
0100
0000
1000
0000
0001
0000
0100
0000
0001
0000
,
2000
3000
0010
0000
1000
0000
0001
0000
0010
0000
0001
0000
,
0020
0030
0100
0000
1000
0000
0001
0000
0100
0000
0001
0000
,
2000
3000
0100
0000
0010
0000
0001
0000
1000
0000
0001
0000
,
0020
0030
0100
0000
1000
0000
0100
0000
1000
0000
0001
0000
,
0020
0030
0100
0000
1000
0000
0010
0000
0100
0000
0010
0000
,
2000
3000
0100
0000
0010
0000
0100
0000
1000
0000
0001
0000
,
0200
0300
0001
0000
1000
0000
0100
0000
0010
0000
0100
0000
,
2000
3000
0010
0000
0100
0000
0001
0000
0010
0000
0001
0000
,
2000
3000
0100
0000
0010
0000
0100
0000
1000
0000
0010
0000
,
0200
0300
0010
0000
1000
0000
0100
0000
1000
0000
0001
0000
,
0020
0030
0100
0000
1000
0000
0001
0000
0100
0000
0001
0000
,
2000
3000
0100
0000
0010
0000
0100
0000
1000
0000
0001
0000
,
2000
3000
0100
0000
0010
0000
0100
0000
1000
0000
0001
0000
,
0200
0300
0001
0000
1000
0000
0010
0000
1000
0000
0100
0000
,
0020
0030
0001
0000
1000
0000
0001
0000
0100
0000
0010
0000
,
2000
3000
0100
0000
0010
0000
0001
0000
0010
0000
0100
0000
,
2000
3000
0001
0000
0100
0000
0001
0000
1000
0000
0100
0000
,
0020
0030
0100
0000
1000
0000
0010
0000
0100
0000
0001
0000
,
2000
3000
0100
0000
1000
0000
0010
0000
0100
0000
0010
0000
,
2000
3000
0100
0000
1000
0000
0001
0000
0010
0000
0100
0000
,
2000
3000
0001
0000
0100
0000
0001
0000
1000
0000
0100
0000
,
2000
3000
0001
0000
0010
0000
0001
0000
1000
0000
0010
0000
,
2000
3000
0100
0000
1000
0000
0001
0000
0100
0000
0001
0000
,
2000
3000
0100
0000
0010
0000
0100
0000
1000
0000
0001
0000
,
2000
3000
0100
0000
0010
0000
0100
0000
1000
0000
0001
0000
,
0200
0300
0001
0000
1000
0000
0010
0000
1000
0000
0001
0000
,
0020
0030
0100
0000
1000
0000
0001
0000
1000
0000
0100
0000
,
0020
0030
0001
0000
0010
0000
0100
0000
1000
0000
0001
0000
,
0200
0300
0001
0000
1000
0000
0010
0000
1000
0000
0001
0000
,
0020
0030
0001
0000
0010
0000
0100
0000
1000
0000
0100
0000
,
2000
3002
0023
0230
,
2300
3020
0230
0302
,
0023
0032
2003
3200
,
0320
0032
2003
3020
,
0130
0000
0001
0000
0010
0000
0100
0000
1000
0000
0001
0000
,
1000
0000
0100
0000
0010
0000
0001
0000
1000
0000
0010
0000
,
0100
0000
0001
0000
0010
0000
0001
0000
1000
0000
0100
0000
,
0010
0000
0001
0000
1000
0000
0010
0000
1000
0000
0100
0000
,
0010
0001
1000
0001
,
1000
0001
1000
0001
,
0100
0010
0100
0010
,
0100
0010
0100
0010
,
1000
0100
0010
0001
,
0100
0010
1000
0100
,
1000
0010
0100
0001
,
1000
0100
0010
0001
,
2000
3020
0230
0302
,
2003
3200
0320
0032
,
2003
3010
0100
0010
,
2000
3100
0010
0100
,
2000
3020
0230
0302
,
0023
0230
2300
3020
,
2030
3100
0010
0001
,
2000
3010
0100
0001
,
2000
3200
0320
0032
,
0203
0320
2030
3200
,
2300
3010
0100
0010
,
2000
3100
0010
0100
,
2000
3020
0230
0302
,
0023
0230
2300
3020
,
2030
3001
0010
0100
,
2000
3010
0400
0000
,
0000
0000
0000
0000
,
0000
0000
0000
0000
,
0000
0000
0000
0000
,
0000
0000
0000
0000
,
0000
0000
0000
0000
,
0000
0000
0000
0000
,
0000
0000
0000
0000
,
0000
0000
0000
0000
,
0300
0000
0000
0000
;

//---------------dance-single - ----------------
#NOTES:
     dance-single:
     :
     Medium:
     20:
     1.000,1.000,0.000,1.000,1.000,1370.000,0.000,225.000,0.000,0.000:

0000
0000
0000
0000
,
0000
0000
0000
0000
,
0000
0000
0000
0000
,
0000
0000
0000
0000
,
1000
0100
0010
0001
1000
0010
1000
0100
,
0010
0001
0100
0001
1000
0001
0010
0001
,
1000
0100
0010
0001
0010
0001
1000
0010
,
0100
0001
1000
0001
1000
0010
0100
0001
,
0010
0100
1000
0100
1000
0010
0100
0001
,
1000
0001
0010
0100
1000
0001
0100
0001
,
1000
0010
1000
0010
0100
0001
1000
0100
,
0010
0001
1000
0001
0010
0100
1000
0010
,
0100
0010
1000
0100
0010
0001
0100
0001
,
0010
0100
1000
0010
0100
0001
1000
0100
,
0010
0100
1000
0010
1000
0010
0100
0001
,
1000
0001
0010
0100
1000
0001
0100
0001
,
1000
0010
0100
0001
0010
0001
1000
0010
,
1000
0100
0010
0001
0100
0001
1000
0001
,
0010
0100
1000
0010
0100
0001
1000
0100
,
1000
0001
0010
0100
1000
0001
0100
0001
,
4000
3000
0000
0000
0010
0000
0000
0000
0100
0000
0000
0000
0004
0003
0000
0000
,
0010
0000
0000
0000
0100
0000
0000
0000
4000
3000
0000
0000
0001
0000
0000
0000
,
0200
0300
0010
0000
1000
0000
0001
0000
,
0200
0300
0010
0000
1000
0000
0001
0000
,
4000
3000
0000
0000
0100
0000
0000
0000
0010
0000
0000
0000
0004
0003
0000
0000
,
0100
0000
0000
0000
0010
0000
0000
0000
4000
3000
0000
0000
0001
0000
0000
0000
,
0020
0030
0100
0000
1000
0000
0001
0000
,
0200
0300
0010
0000
1000
0000
0001
0000
,
4000
3000
0000
0000
0010
0000
0000
0000
0100
0000
0000
0000
0004
0003
0000
0000
,
0010
0000
0000
0000
0100
0000
0000
0000
4000
3000
0000
0000
0001
0000
0000
0000
,
2000
3000
0010
0000
0100
0000
0001
0000
,
2000
3000
0010
0000
0100
0000
0001
0000
,
4000
3000
0000
0000
0100
0000
0000
0000
0010
0000
0000
0000
0004
0003
0000
0000
,
0100
0000
0000
0000
0010
0000
0000
0000
4000
3000
0000
0000
0001
0000
0000
0000
,
4000
3000
0100
0000
0010
0000
0001
0000
,
2000
3010
0100
0001
,
0010
0000
0100
0000
1000
0000
0001
0000
1000
0000
0100
0000
,
0010
0000
0001
0000
1000
0000
0010
0000
0100
0000
0001
0000
,
0010
0000
0001
0000
1000
0000
0100
0000
0010
0000
0001
0000
,
1000
0000
0001
0000
0010
0000
0100
0000
1000
0000
0010
0000
,
0100
0000
0001
0000
0010
0000
0001
0000
1000
0000
0100
0000
,
0010
0000
0001
0000
1000
0000
0010
0000
0100
0000
0001
0000
,
0010
0000
0100
0000
1000
0000
0001
0000
1000
0000
0100
0000
,
0010
0000
0001
0000
1000
0000
0010
0000
1000
0000
0100
0000
,
0010
0000
0001
0000
0100
0000
0001
0000
1000
0000
0001
0000
,
0010
0000
0100
0000
1000
0000
0001
0000
1000
0000
0100
0000
,
0010
0000
0001
0000
1000
0000
0010
0000
0100
0000
0001
0000
,
0010
0000
0100
0000
1000
0000
0001
0000
1000
0000
0100
0000
,
0010
0000
0001
0000
1000
0000
0001
0000
0010
0000
0100
0000
,
1000
0000
0010
0000
0100
0000
0001
0000
0100
0000
0010
0000
,
1000
0000
0100
0000
0010
0000
0001
0000
1000
0000
0001
0000
,
0010
0000
0100
0000
1000
0000
0010
0000
0100
0000
0001
0000
,
2000
3020
0230
0302
,
0023
0230
2300
3002
,
0203
0302
0023
0230
,
2300
3020
0230
0302
,
1003
0100
1000
0010
0100
0001
1000
0001
,
0010
0100
1000
0010
1000
0010
0100
0001
,
1000
0001
0010
0100
1000
0001
0100
0001
,
1000
0100
0010
0100
1000
0001
0100
0001
,
0020
0230
2300
3020
,
0230
0302
0023
0230
,
2300
3020
0230
0302
,
2003
3200
0320
0032
,
0103
0000
0001
0000
0010
0000
0100
0000
1000
0000
0010
0000
,
0100
0000
0001
0000
1000
0000
0100
0000
1000
0000
0001
0000
,
0010
0000
0100
0000
1000
0000
0001
0000
0100
0000
0001
0000
,
1000
0000
0100
0000
0010
0000
0001
0000
1000
0000
0010
0000
,
0200
0302
0023
0230
,
2300
3020
0230
0302
,
2003
3200
0320
0032
,
2003
3020
0230
0302
,
0013
0100
1000
0100
0010
0001
1000
0001
,
0010
0100
1000
0100
1000
0010
0100
0001
,
1000
0001
0010
0001
1000
0010
1000
0010
,
0100
0001
1000
0100
1000
0001
0010
0001
,
0200
0302
0023
0230
,
2300
3020
0230
0302
,
0023
0230
2300
3002
,
0203
0302
0023
0032
,
0103
0010
1000
0100
0010
0001
1000
0001
,
0010
0100
1000
0010
1000
0010
0100
0001
,
1000
0001
0010
0100
1000
0001
0100
0001
,
1000
0010
0100
0001
0010
0001
1000
0001
,
2000
0000
0000
0000
,
3000
1000
1000
1000
,
0020
0000
0000
0000
,
0030
0010
0010
0010
,
0200
0000
0000
0000
,
0300
0100
0100
0100
,
0020
0000
0000
0000
,
0030
0010
0010
0010
,
2000
0000
0000
0000
,
3000
1000
1000
1000
,
0002
0000
0000
0000
,
0003
0001
0001
0001
,
0020
0000
0000
0000
,
0030
0010
0010
0010
,
0200
0000
0000
0000
,
0300
0100
0100
0100
,
2000
3000
0001
0000
0100
0000
0001
0000
,
2000
3000
0010
0000
1000
0000
0001
0000
,
0200
0300
0001
0000
1000
0000
0010
0000
,
0400
0300
0001
0000
0010
0000
0001
0000
,
2000
3000
0100
0000
1000
0000
0001
0000
,
0020
0030
0001
0000
1000
0000
0100
0000
,
2000
3000
0001
0000
1000
0000
0010
0000
,
0400
0300
0001
0000
0010
0000
0001
0000
,
2000
3000
0100
0000
0010
0000
0100
0000
,
2000
3000
0010
0000
0100
0000
0001
0000
,
0020
0030
0100
0000
1000
0000
0001
0000
,
0400
0300
0001
0000
1000
0000
0010
0000
,
2000
3000
0100
0000
1000
0000
0001
0000
,
0020
0030
0001
0000
0100
0000
0001
0000
,
2000
3000
0010
0000
1000
0000
0001
0000
,
0200
0300
0001
0000
1000
0000
0100
0000
,
1000
0000
0001
0000
0100
0000
0010
0000
0100
0000
0001
0000
,
1000
0000
0100
0000
0010
0000
0001
0000
1000
0000
0010
0000
,
1000
0000
0100
0000
0010
0000
0001
0000
0100
0000
0001
0000
,
1000
0000
0001
0000
0100
0000
0010
0000
1000
0000
0100
0000
,
0020
0030
0001
0000
0100
0000
0001
0000
1000
0000
0001
0000
,
0200
0300
0010
0000
0100
0000
0001
0000
1000
0000
0001
0000
,
0200
0300
0010
0000
0100
0000
0001
0000
1000
0000
0001
0000
,
0200
0300
0010
0000
1000
0000
0100
0000
1000
0000
0001
0000
,
4000
3000
0100
0000
0010
0000
0100
0000
1000
0000
0001
0000
,
0400
0300
0001
0000
1000
0000
0010
0000
0100
0000
0001
0000
,
0040
0030
0001
0000
1000
0000
0100
0000
0010
0000
0100
0000
,
4000
3000
0001
0000
0100
0000
0001
0000
1000
0000
0100
0000
,
0020
0030
0001
0000
0010
0000
0100
0000
1000
0000
0100
0000
,
0020
0030
0001
0000
0010
0000
0100
0000
1000
0000
0100
0000
,
0020
0030
0001
0000
0010
0000
0100
0000
1000
0000
0100
0000
,
0020
0030
0001
0000
0100
0000
0001
0000
1000
0000
0001
0000
,
0400
0300
0010
0000
1000
0000
0100
0000
1000
0000
0010
0000
,
0400
0300
0001
0000
0010
0000
0100
0000
0010
0000
0001
0000
,
0400
0300
0010
0000
1000
0000
0100
0000
1000
0000
0010
0000
,
0400
0300
0010
0000
1000
0000
0100
0000
0010
0000
0001
0000
,
2000
3000
0001
0000
0010
0000
0001
0000
0010
0000
0100
0000
,
2000
3000
0001
0000
0010
0000
0001
0000
0010
0000
0100
0000
,
2000
3000
0001
0000
0010
0000
0001
0000
0010
0000
0100
0000
,
2000
3000
0001
0000
1000
0000
0100
0000
1000
0000
0010
0000
,
0400
0300
0001
0000
0010
0000
0100
0000
1000
0000
0010
0000
,
0400
0300
0001
0000
1000
0000
0100
0000
0010
0000
0001
0000
,
4000
3000
0010
0000
0100
0000
0001
0000
0010
0000
0100
0000
,
0040
0030
0001
0000
1000
0000
0010
0000
0100
0000
0001
0000
,
2000
3000
0001
0000
0010
0000
0001
0000
0100
0000
0001
0000
,
2000
3000
0001
0000
0010
0000
0001
0000
0100
0000
0001
0000
,
2000
3000
0001
0000
0010
0000
0001
0000
0100
0000
0001
0000
,
2000
3000
0100
0000
0010
0000
0001
0000
1000
0000
0001
0000
,
0020
0030
0100
0000
1000
0000
0001
0000
0100
0000
0001
0000
,
0020
0030
0100
0000
1000
0000
0010
0000
1000
0000
0100
0000
,
0020
0030
0001
0000
0100
0000
0001
0000
0010
0000
0100
0000
,
4000
3000
0001
0000
1000
0000
0100
0000
0010
0000
0100
0000
,
2000
3000
0010
0000
0100
0000
0001
0000
1000
0000
0001
0000
,
0020
0030
0100
0000
1000
0000
0001
0000
0100
0000
0001
0000
,
2000
3000
0100
0000
0010
0000
0001
0000
1000
0000
0010
0000
,
0400
0300
0001
0000
1000
0000
0001
0000
0010
0000
0100
0000
,
2000
3000
0010
0000
0100
0000
0001
0000
1000
0000
0001
0000
,
0020
0030
0100
0000
1000
0000
0100
0000
0010
0000
0100
0000
,
2000
3000
0100
0000
0010
0000
0001
0000
1000
0000
0001
0000
,
0400
0300
0010
0000
1000
0000
0100
0000
0010
0000
0001
0000
,
2000
3000
0100
0000
1000
0000
0001
0000
0100
0000
0001
0000
,
2000
3000
0010
0000
0100
0000
0001
0000
1000
0000
0001
0000
,
0020
0030
0100
0000
1000
0000
0001
0000
0100
0000
0001
0000
,
2000
3000
0100
0000
0010
0000
0100
0000
1000
0000
0001
0000
,
0020
0000
0000
0000
,
0030
0010
0010
0010
,
0200
0000
0000
0000
,
0300
0100
0100
0100
,
2000
0000
0000
0000
,
3000
1000
1000
1000
,
0002
0000
0000
0000
,
0003
0001
0001
0001
,
0200
0000
0000
0000
,
0300
0100
0100
0100
,
0020
0000
0000
0000
,
0030
0010
0010
0010
,
2000
0000
0000
0000
,
3000
1000
1000
1000
,
0002
0000
0000
0000
,
0003
0001
0001
0001
,
4000
3000
0000
0000
0010
0000
0000
0000
0100
0000
0000
0000
0004
0003
0000
0000
,
0010
0000
0000
0000
0100
0000
0000
0000
4000
3000
0000
0000
0001
0000
0000
0000
,
0200
0300
0010
0000
1000
0000
0001
0000
,
0200
0300
0010
0000
1000
0000
0001
0000
,
4000
3000
0000
0000
0100
0000
0000
0000
0010
0000
0000
0000
0004
0003
0000
0000
,
0100
0000
0000
0000
0010
0000
0000
0000
4000
3000
0000
0000
0001
0000
0000
0000
,
0020
0030
0100
0000
1000
0000
0001
0000
,
0200
0300
0010
0000
1000
0000
0001
0000
,
4000
3000
0000
0000
0010
0000
0000
0000
0100
0000
0000
0000
0004
0003
0000
0000
,
0010
0000
0000
0000
0100
0000
0000
0000
4000
3000
0000
0000
0001
0000
0000
0000
,
2000
3000
0010
0000
0100
0000
0001
0000
,
2000
3000
0010
0000
0100
0000
0001
0000
,
4000
3000
0000
0000
0100
0000
0000
0000
0010
0000
0000
0000
0004
0003
0000
0000
,
0100
0000
0000
0000
0010
0000
0000
0000
4000
3000
0000
0000
0001
0000
0000
0000
,
4000
3000
0100
0000
0010
0000
0001
0000
,
2000
0000
0010
3000
0100
0000
0002
0000
,
1003
0100
1000
0010
0100
0001
0010
0100
,
1000
0001
0100
0001
1000
0100
1000
0100
,
1000
0010
0100
0001
0010
0001
1000
0010
,
1000
0010
0100
0001
1000
0001
0010
0100
,
1000
0001
0100
0001
1000
0001
0010
0001
,
1000
0010
1000
0010
0100
0001
1000
0001
,
0010
0100
1000
0001
0100
0001
1000
0010
,
0100
0001
0010
0001
1000
0100
0010
0100
,
1000
0001
0010
0001
1000
0010
1000
0010
,
0100
0001
1000
0001
0010
0100
1000
0001
,
0100
0001
1000
0010
0100
0001
0010
0001
,
1000
0010
0100
0001
1000
0001
0010
0100
,
1000
0001
0100
0001
1000
0100
0010
0001
,
1000
0001
0010
0001
1000
0010
0100
0001
,
1000
0001
0010
0100
1000
0001
0100
0001
,
1000
0100
0010
0001
1000
0001
0010
0001
,
0200
0300
0010
0000
1000
0000
0100
0000
1000
0000
0001
0000
,
0020
0030
0100
0000
1000
0000
0001
0000
0100
0000
0001
0000
,
2000
3000
0010
0000
1000
0000
0001
0000
0010
0000
0001
0000
,
0020
0030
0100
0000
1000
0000
0001
0000
0100
0000
0001
0000
,
2000
3000
0100
0000
0010
0000
0001
0000
1000
0000
0001
0000
,
0020
0030
0100
0000
1000
0000
0100
0000
1000
0000
0001
0000
,
0020
0030
0100
0000
1000
0000
0010
0000
0100
0000
0010
0000
,
2000
3000
0100
0000
0010
0000
0100
0000
1000
0000
0001
0000
,
0200
0300
0001
0000
1000
0000
0100
0000
0010
0000
0100
0000
,
2000
3000
0010
0000
0100
0000
0001
0000
0010
0000
0001
0000
,
2000
3000
0100
0000
0010
0000
0100
0000
1000
0000
0010
0000
,
0200
0300
0010
0000
1000
0000
0100
0000
1000
0000
0001
0000
,
0020
0030
0100
0000
1000
0000
0001
0000
0100
0000
0001
0000
,
2000
3000
0100
0000
0010
0000
0100
0000
1000
0000
0001
0000
,
2000
3000
0100
0000
0010
0000
0100
0000
1000
0000
0001
0000
,
0200
0300
0001
0000
1000
0000
0010
0000
1000
0000
0100
0000
,
0020
0030
0001
0000
1000
0000
0001
0000
0100
0000
0010
0000
,
2000
3000
0100
0000
0010
0000
0001
0000
0010
0000
0100
0000
,
2000
3000
0001
0000
0100
0000
0001
0000
1000
0000
0100
0000
,
0020
0030
0100
0000
1000
0000
0010
0000
0100
0000
0001
0000
,
2000
3000
0100
0000
1000
0000
0010
0000
0100
0000
0010
0000
,
2000
3000
0100
0000
1000
0000
0001
0000
0010
0000
0100
0000
,
2000
3000
0001
0000
0100
0000
0001
0000
1000
0000
0100
0000
,
2000
3000
0001
0000
0010
0000
0001
0000
1000
0000
0010
0000
,
2000
3000
0100
0000
1000
0000
0001
0000
0100
0000
0001
0000
,
2000
3000
0100
0000
0010
0000
0100
0000
1000
0000
0001
0000
,
2000
3000
0100
0000
0010
0000
0100
0000
1000
0000
0001
0000
,
0200
0300
0001
0000
1000
0000
0010
0000
1000
0000
0001
0000
,
0020
0030
0100
0000
1000
0000
0001
0000
1000
0000
0100
0000
,
0020
0030
0001
0000
0010
0000
0100
0000
1000
0000
0001
0000
,
0200
0300
0001
0000
1000
0000
0010
0000
1000
0000
0001
0000
,
0020
0030
0001
0000
0010
0000
0100
0000
1000
0000
0100
0000
,
2000
3002
0023
0230
,
2300
3020
0230
0302
,
0023
0032
2003
3200
,
0320
0032
2003
3020
,
0130
0001
1000
0100
1000
0010
0100
0010
,
1000
0100
0010
0001
1000
0001
0100
0010
,
1000
0100
1000
0001
0100
0010
1000
0001
,
0010
0100
0010
0001
1000
0100
0010
0001
,
1000
0001
1000
0001
,
1000
0001
1000
0001
,
0100
0010
0100
0010
,
0100
0010
0100
0010
,
1000
0100
0010
0001
,
0100
0010
1000
0100
,
1000
0010
0100
0001
,
1000
0100
0010
0001
,
2000
3020
0230
0302
,
2003
3200
0320
0032
,
2003
3010
0100
0010
,
2000
3100
0010
0100
,
2000
3020
0230
0302
,
0023
0230
2300
3020
,
2030
3100
0010
0001
,
2000
3010
0100
0001
,
2000
3200
0320
0032
,
0203
0320
2030
3200
,
2300
3010
0100
0010
,
2000
3100
0010
0100
,
2000
3020
0230
0302
,
0023
0230
2300
3020
,
2030
3001
0010
0100
,
2000
3010
0400
0000
,
0000
0000
0000
0000
,
0000
0000
0000
0000
,
0000
0000
0000
0000
,
0000
0000
0000
0000
,
0000
0000
0000
0000
,
0000
0000
0000
0000
,
0000
0000
0000
0000
,
0000
0000
0000
0000
,
0300
0000
0000
0000
;

//---------------dance-single - ----------------
#NOTES:
     dance-single:
     :
     Hard:
     23:
     1.000,1.000,0.000,0.945,1.000,1541.000,0.000,116.000,0.000,0.000:
0000
0000
0000
0000
,
0000
0000
0000
0000
,
0000
0000
0000
0000
,
0000
0000
0000
0000
,
1000
0100
0010
0001
1000
0010
1000
0100
,
0010
0001
0100
0001
1000
0001
0010
0001
,
1000
0100
0010
0001
0010
0001
1000
0010
,
0100
0001
1000
0001
1000
0010
0100
0001
,
0010
0100
1000
0100
1000
0010
0100
0001
,
1000
0001
0010
0100
1000
0001
0100
0001
,
1000
0010
1000
0010
0100
0001
1000
0100
,
0010
0001
1000
0001
0010
0100
1000
0010
,
0100
0010
1000
0100
0010
0001
0100
0001
,
0010
0100
1000
0010
0100
0001
1000
0100
,
0010
0100
1000
0010
1000
0010
0100
0001
,
1000
0001
0010
0100
1000
0001
0100
0001
,
1000
0010
0100
0001
0010
0001
1000
0010
,
1000
0100
0010
0001
0100
0001
1000
0001
,
0010
0100
1000
0010
0100
0001
1000
0100
,
1000
0001
0010
0100
1000
0001
0100
0001
,
4000
3000
0000
0000
0010
0000
0000
0000
0100
0000
0000
0000
0004
0003
0000
0000
,
0010
0000
0000
0000
0100
0000
0000
0000
4000
3000
0000
0000
0001
0000
0000
0000
,
0200
0300
0010
0000
1000
0000
0001
0000
,
0200
0300
0010
0000
1000
0000
0001
0000
,
4000
3000
0000
0000
0100
0000
0000
0000
0010
0000
0000
0000
0004
0003
0000
0000
,
0100
0000
0000
0000
0010
0000
0000
0000
4000
3000
0000
0000
0001
0000
0000
0000
,
0020
0030
0100
0000
1000
0000
0001
0000
,
0200
0300
0010
0000
1000
0000
0001
0000
,
4000
3000
0000
0000
0010
0000
0000
0000
0100
0000
0000
0000
0004
0003
0000
0000
,
0010
0000
0000
0000
0100
0000
0000
0000
4000
3000
0000
0000
0001
0000
0000
0000
,
2000
3000
0010
0000
0100
0000
0001
0000
,
2000
3000
0010
0000
0100
0000
0001
0000
,
4000
3000
0000
0000
0100
0000
0000
0000
0010
0000
0000
0000
0004
0003
0000
0000
,
0100
0000
0000
0000
0010
0000
0000
0000
4000
3000
0000
0000
0001
0000
0000
0000
,
4000
3000
0100
0000
0010
0000
0001
0000
,
2000
3010
0100
0001
,
0010
0100
1000
0010
0100
0001
1000
0100
,
0010
0001
1000
0010
0100
0001
0010
0001
,
1000
0100
0010
0100
1000
0001
0100
0010
,
1000
0100
0010
0100
1000
0001
0010
0001
,
1000
0010
0100
0001
1000
0001
0010
0001
,
1000
0010
0100
0001
1000
0100
0010
0001
,
0010
0100
1000
0001
0100
0001
1000
0010
,
0100
0001
0010
0100
1000
0001
0100
0001
,
1000
0100
0010
0001
1000
0010
0100
0001
,
0010
0100
1000
0100
0010
0001
1000
0010
,
0100
0001
1000
0100
1000
0001
0010
0001
,
1000
0010
0100
0001
1000
0001
0010
0001
,
1000
0010
1000
0100
0010
0001
0100
0001
,
1000
0100
1000
0001
0010
0100
1000
0010
,
0100
0001
1000
0001
0010
0100
1000
0001
,
0100
0001
1000
0100
0010
0001
1000
0100
,
1000
0010
0100
0001
0010
0001
1000
0100
,
0010
0001
1000
0010
0100
0001
0010
0001
,
1000
0100
0010
0001
1000
0010
0100
0010
,
1000
0100
1000
0001
0100
0001
1000
0100
,
0010
0001
0100
0001
0010
0100
1000
0010
,
0100
0010
1000
0100
0010
0001
1000
0001
,
0100
0001
1000
0100
1000
0010
0100
0001
,
1000
0010
1000
0001
0100
0010
1000
0100
,
0010
0100
1000
0001
0100
0010
1000
0100
,
1000
0001
0100
0001
1000
0010
0100
0001
,
1000
0100
0010
0001
1000
0001
0100
0001
,
0010
0100
1000
0001
0100
0001
1000
0100
,
0010
0001
0100
0001
1000
0010
0100
0001
,
0010
0001
1000
0100
0010
0100
1000
0001
,
0100
0001
1000
0010
0100
0001
0010
0001
,
1000
0100
0010
0001
1000
0001
0010
0001
,
1000
0100
1000
0001
0100
0010
1000
0100
,
0010
0001
1000
0001
0010
0001
1000
0100
,
0010
0001
1000
0001
0100
0001
1000
0010
,
0100
0001
0010
0001
1000
0100
0010
0001
,
1000
0010
1000
0100
1000
0001
0010
0100
,
1000
0010
0100
0001
1000
0100
1000
0001
,
0010
0100
1000
0010
0100
0001
0010
0001
,
1000
0100
0010
0001
1000
0001
0100
0001
,
1000
0010
0100
0001
1000
0100
1000
0001
,
0010
0100
1000
0010
0100
0001
0010
0001
,
1000
0100
0010
0001
1000
0001
0010
0100
,
1000
0001
0100
0001
1000
0100
0010
0001
,
1000
0010
0100
0001
1000
0100
1000
0001
,
0010
0100
1000
0010
0100
0001
1000
0100
,
1000
0001
0010
0100
0010
0001
1000
0100
,
0010
0100
1000
0001
0100
0001
1000
0100
,
2000
0000
0000
0000
,
3000
1000
1000
1000
,
0020
0000
0000
0000
,
0030
0010
0010
0010
,
0200
0000
0000
0000
,
0300
0100
0100
0100
,
0020
0000
0000
0000
,
0030
0010
0010
0010
,
2000
0000
0000
0000
,
3000
1000
1000
1000
,
0002
0000
0000
0000
,
0003
0001
0001
0001
,
0020
0000
0000
0000
,
0030
0010
0010
0010
,
0200
0000
0000
0000
,
0300
0100
0100
0100
,
1000
0000
0010
0000
1000
0000
0010
0000
1000
0000
0010
0000
,
1000
0000
0100
0000
0010
0000
0001
0000
1000
0000
0010
0000
,
0100
0000
0001
0000
0100
0000
0001
0000
0100
0000
0001
0000
,
0100
0000
0010
0000
1000
0000
0100
0000
0010
0000
0001
0000
,
1000
0000
0100
0000
1000
0000
0100
0000
1000
0000
0100
0000
,
1000
0000
0010
0000
0100
0000
0001
0000
0010
0000
0100
0000
,
1000
0000
0001
0000
1000
0000
0001
0000
1000
0000
0001
0000
,
1000
0000
0100
0000
1000
0000
0010
0000
0100
0000
0001
0000
,
0010
0000
0100
0000
0010
0000
0100
0000
0010
0000
0100
0000
,
0010
0000
0001
0000
0100
0000
0010
0000
1000
0000
0100
0000
,
1000
0000
0010
0000
1000
0000
0010
0000
1000
0000
0010
0000
,
1000
0000
0100
0000
0010
0000
0001
0000
1000
0000
0010
0000
,
0100
0000
0001
0000
0100
0000
0001
0000
0100
0000
0001
0000
,
0100
0000
0010
0000
1000
0000
0100
0000
0010
0000
0001
0000
,
1000
0000
0100
0000
1000
0000
0100
0000
1000
0000
0100
0000
,
1000
0000
0010
0000
0100
0000
0001
0000
0010
0000
0001
0000
,
1000
0000
0100
0000
0010
0000
0001
0000
1000
0000
0100
0000
,
0010
0000
0001
0000
1000
0000
0010
0000
0100
0000
0001
0000
,
1000
0000
0100
0000
0010
0000
0001
0000
0100
0000
0001
0000
,
1000
0000
0001
0000
0100
0000
0010
0000
1000
0000
0100
0000
,
0020
0030
0001
0000
0100
0000
0001
0000
1000
0000
0001
0000
,
0200
0300
0010
0000
0100
0000
0001
0000
1000
0000
0001
0000
,
0200
0300
0010
0000
0100
0000
0001
0000
1000
0000
0001
0000
,
0200
0300
0010
0000
1000
0000
0100
0000
1000
0000
0001
0000
,
4000
3000
0100
0000
0010
0000
0100
0000
1000
0000
0001
0000
,
0400
0300
0001
0000
1000
0000
0010
0000
0100
0000
0001
0000
,
0040
0030
0001
0000
1000
0000
0100
0000
0010
0000
0100
0000
,
4000
3000
0001
0000
0100
0000
0001
0000
1000
0000
0100
0000
,
0020
0030
0001
0000
0010
0000
0100
0000
1000
0000
0100
0000
,
0020
0030
0001
0000
0010
0000
0100
0000
1000
0000
0100
0000
,
0020
0030
0001
0000
0010
0000
0100
0000
1000
0000
0100
0000
,
0020
0030
0001
0000
0100
0000
0001
0000
1000
0000
0001
0000
,
0400
0300
0010
0000
1000
0000
0100
0000
1000
0000
0010
0000
,
0400
0300
0001
0000
0010
0000
0100
0000
0010
0000
0001
0000
,
0400
0300
0010
0000
1000
0000
0100
0000
1000
0000
0010
0000
,
0400
0300
0010
0000
1000
0000
0100
0000
0010
0000
0001
0000
,
2000
3000
0001
0000
0010
0000
0001
0000
0010
0000
0100
0000
,
2000
3000
0001
0000
0010
0000
0001
0000
0010
0000
0100
0000
,
2000
3000
0001
0000
0010
0000
0001
0000
0010
0000
0100
0000
,
2000
3000
0001
0000
1000
0000
0100
0000
1000
0000
0010
0000
,
0400
0300
0001
0000
0010
0000
0100
0000
1000
0000
0010
0000
,
0400
0300
0001
0000
1000
0000
0100
0000
0010
0000
0001
0000
,
4000
3000
0010
0000
0100
0000
0001
0000
0010
0000
0100
0000
,
0040
0030
0001
0000
1000
0000
0010
0000
0100
0000
0001
0000
,
2000
3000
0001
0000
0010
0000
0001
0000
0100
0000
0001
0000
,
2000
3000
0001
0000
0010
0000
0001
0000
0100
0000
0001
0000
,
2000
3000
0001
0000
0010
0000
0001
0000
0100
0000
0001
0000
,
2000
3000
0100
0000
0010
0000
0001
0000
1000
0000
0001
0000
,
0020
0030
0100
0000
1000
0000
0001
0000
0100
0000
0001
0000
,
0020
0030
0100
0000
1000
0000
0010
0000
1000
0000
0100
0000
,
0020
0030
0001
0000
0100
0000
0001
0000
0010
0000
0100
0000
,
4000
3000
0001
0000
1000
0000
0100
0000
0010
0000
0100
0000
,
2000
3000
0010
0000
0100
0000
0001
0000
1000
0000
0001
0000
,
0020
0030
0100
0000
1000
0000
0001
0000
0100
0000
0001
0000
,
2000
3000
0100
0000
0010
0000
0001
0000
1000
0000
0010
0000
,
0400
0300
0001
0000
1000
0000
0001
0000
0010
0000
0100
0000
,
2000
3000
0010
0000
0100
0000
0001
0000
1000
0000
0001
0000
,
0020
0030
0100
0000
1000
0000
0100
0000
0010
0000
0100
0000
,
2000
3000
0100
0000
0010
0000
0001
0000
1000
0000
0001
0000
,
0400
0300
0010
0000
1000
0000
0100
0000
0010
0000
0001
0000
,
2000
3000
0100
0000
1000
0000
0001
0000
0100
0000
0001
0000
,
2000
3000
0010
0000
0100
0000
0001
0000
1000
0000
0001
0000
,
0020
0030
0100
0000
1000
0000
0001
0000
0100
0000
0001
0000
,
2000
3000
0100
0000
0010
0000
0100
0000
1000
0000
0001
0000
,
0020
0000
0000
0000
,
0030
0010
0010
0010
,
0200
0000
0000
0000
,
0300
0100
0100
0100
,
2000
0000
0000
0000
,
3000
1000
1000
1000
,
0002
0000
0000
0000
,
0003
0001
0001
0001
,
0200
0000
0000
0000
,
0300
0100
0100
0100
,
0020
0000
0000
0000
,
0030
0010
0010
0010
,
2000
0000
0000
0000
,
3000
1000
1000
1000
,
0002
0000
0000
0000
,
0003
0001
0001
0001
,
4000
3000
0000
0000
0010
0000
0000
0000
0100
0000
0000
0000
0004
0003
0000
0000
,
0010
0000
0000
0000
0100
0000
0000
0000
4000
3000
0000
0000
0001
0000
0000
0000
,
0200
0300
0010
0000
1000
0000
0001
0000
,
0200
0300
0010
0000
1000
0000
0001
0000
,
4000
3000
0000
0000
0100
0000
0000
0000
0010
0000
0000
0000
0004
0003
0000
0000
,
0100
0000
0000
0000
0010
0000
0000
0000
4000
3000
0000
0000
0001
0000
0000
0000
,
0020
0030
0100
0000
1000
0000
0001
0000
,
0200
0300
0010
0000
1000
0000
0001
0000
,
4000
3000
0000
0000
0010
0000
0000
0000
0100
0000
0000
0000
0004
0003
0000
0000
,
0010
0000
0000
0000
0100
0000
0000
0000
4000
3000
0000
0000
0001
0000
0000
0000
,
2000
3000
0010
0000
0100
0000
0001
0000
,
2000
3000
0010
0000
0100
0000
0001
0000
,
4000
3000
0000
0000
0100
0000
0000
0000
0010
0000
0000
0000
0004
0003
0000
0000
,
0100
0000
0000
0000
0010
0000
0000
0000
4000
3000
0000
0000
0001
0000
0000
0000
,
4000
3000
0100
0000
0010
0000
0001
0000
,
2000
0000
0010
3000
0100
0000
0002
0000
,
1003
0000
0100
0000
1000
0000
0100
0000
1000
0000
0100
0000
,
1000
0000
0001
0000
0100
0000
0010
0000
1000
0000
0100
0000
,
1000
0000
0010
0000
1000
0000
0010
0000
1000
0000
0010
0000
,
1000
0000
0100
0000
0010
0000
0001
0000
0100
0000
0001
0000
,
0010
0000
0100
0000
0010
0000
0100
0000
0010
0000
0100
0000
,
0010
0000
0001
0000
0100
0000
0001
0000
1000
0000
0100
0000
,
0010
0000
0001
0000
0010
0000
0001
0000
0010
0000
0001
0000
,
0010
0000
0100
0000
1000
0000
0001
0000
0100
0000
0010
0000
,
1000
0000
0001
0000
1000
0000
0001
0000
1000
0000
0001
0000
,
1000
0000
0100
0000
1000
0000
0010
0000
0100
0000
0001
0000
,
0010
0000
0100
0000
0010
0000
0100
0000
0010
0000
0100
0000
,
0010
0000
0001
0000
0100
0000
0001
0000
1000
0000
0100
0000
,
1000
0000
0001
0000
1000
0000
0001
0000
1000
0000
0001
0000
,
1000
0000
0010
0000
0100
0000
0001
0000
0010
0000
0001
0000
,
1000
0000
0100
0000
1000
0000
0100
0000
1000
0000
0100
0000
,
1000
0000
0001
0000
0100
0000
0010
0000
1000
0000
0100
0000
,
0010
0001
1000
0100
0010
0100
1000
0010
,
0100
0001
1000
0100
1000
0001
0100
0001
,
0010
0100
0010
0001
1000
0010
0100
0001
,
1000
0100
1000
0001
0100
0010
1000
0100
,
1000
0010
0100
0001
0010
0001
1000
0100
,
0010
0001
1000
0100
1000
0001
0100
0010
,
1000
0100
1000
0001
0010
0100
0010
0001
,
1000
0100
1000
0010
0100
0001
0010
0001
,
1000
0100
0010
0001
1000
0001
0100
0001
,
1000
0100
1000
0010
0100
0001
1000
0100
,
0010
0001
1000
0100
0010
0001
1000
0001
,
0100
0001
1000
0100
1000
0010
0100
0001
,
0010
0001
1000
0100
0010
0001
1000
0001
,
0100
0001
1000
0100
1000
0010
0100
0001
,
0010
0001
1000
0100
0010
0001
1000
0001
,
0100
0010
1000
0100
1000
0010
0100
0001
,
0010
0001
1000
0100
0010
0001
1000
0001
,
0100
0001
1000
0100
1000
0010
0100
0001
,
0010
0001
1000
0100
0010
0001
1000
0001
,
0100
0001
1000
0100
1000
0010
0100
0001
,
0010
0001
1000
0100
0010
0001
1000
0001
,
0100
0001
1000
0010
0100
0001
1000
0100
,
0010
0001
1000
0001
0010
0001
1000
0100
,
0010
0100
1000
0010
0100
0001
0010
0001
,
1000
0100
0010
0001
1000
0001
0100
0001
,
1000
0100
1000
0010
0100
0001
0010
0001
,
1000
0100
0010
0001
1000
0001
0100
0001
,
1000
0100
1000
0010
0100
0010
1000
0100
,
0010
0001
1000
0001
0100
0001
1000
0100
,
0010
0001
1000
0001
0010
0001
1000
0100
,
0010
0001
1000
0001
0100
0001
1000
0100
,
1000
0010
0100
0001
0010
0100
1000
0001
,
2000
3002
0023
0230
,
2300
3020
0230
0302
,
0023
0032
2003
3200
,
0320
0032
2003
3020
,
0130
0001
0010
0100
1000
0001
0100
0001
,
1000
0100
0010
0100
1000
0010
0100
0010
,
1000
0001
1000
0100
0010
0001
1000
0001
,
0100
0001
0010
0100
0010
0001
1000
0100
,
0010
0001
1000
0001
,
1000
0001
1000
0001
,
0100
0010
0100
0010
,
0100
0010
0100
0010
,
1000
0100
0010
0001
,
0100
0010
1000
0100
,
1000
0010
0100
0001
,
1000
0100
0010
0001
,
2000
3020
0230
0302
,
2003
3200
0320
0032
,
2003
3010
0100
0010
,
2000
3100
0010
0100
,
2000
3020
0230
0302
,
0023
0230
2300
3020
,
2030
3100
0010
0001
,
2000
3010
0100
0001
,
2000
3200
0320
0032
,
0203
0320
2030
3200
,
2300
3010
0100
0010
,
2000
3100
0010
0100
,
2000
3020
0230
0302
,
0023
0230
2300
3020
,
2030
3001
0010
0100
,
2000
3010
0400
0000
,
0000
0000
0000
0000
,
0000
0000
0000
0000
,
0000
0000
0000
0000
,
0000
0000
0000
0000
,
0000
0000
0000
0000
,
0000
0000
0000
0000
,
0000
0000
0000
0000
,
0000
0000
0000
0000
,
0300
0000
0000
0000
;

//---------------dance-single - Hard----------------
#NOTES:
     dance-single:
     Hard:
     Challenge:
     24:
     1.000,1.000,0.000,0.708,0.098,1716.000,0.000,87.000,0.000,0.000:
0000
0000
0000
0000
,
0000
0000
0000
0000
,
0000
0000
0000
0000
,
0000
0000
0000
0000
,
1000
0010
0100
0001
1000
0100
1000
0001
,
0100
0010
1000
0100
0010
0001
1000
0100
,
1000
0001
0100
0010
1000
0001
0010
0001
,
0100
0010
1000
0100
1000
0001
0100
0010
,
1000
0100
0010
0001
1000
0100
1000
0001
,
0100
0010
1000
0001
0010
0100
1000
0001
,
0100
0001
1000
0100
0010
0001
1000
0010
,
1000
0001
0100
0001
1000
0100
1000
0001
,
0100
0010
1000
0100
0010
0001
1000
0100
,
1000
0001
0100
0010
1000
0100
0010
0001
,
1000
0100
1000
0001
0100
0010
1000
0001
,
0010
0100
1000
0001
0100
0001
1000
0100
,
0010
0001
1000
0100
1000
0001
0100
0010
,
1000
0100
0010
0001
1000
0100
1000
0001
,
0100
0010
1000
0100
0010
0001
1000
0100
,
1000
0001
0100
0010
1000
0100
0010
0001
,
4000
3000
0000
0000
0010
0000
0000
0000
0100
0000
0000
0000
0004
0003
0000
0000
,
0010
0000
0000
0000
0100
0000
0000
0000
4000
3000
0000
0000
0001
0000
0000
0000
,
0200
0300
0010
0000
1000
0000
0001
0000
,
0200
0300
0010
0000
1000
0000
0001
0000
,
4000
3000
0000
0000
0100
0000
0000
0000
0010
0000
0000
0000
0004
0003
0000
0000
,
0100
0000
0000
0000
0010
0000
0000
0000
4000
3000
0000
0000
0001
0000
0000
0000
,
0020
0030
0100
0000
1000
0000
0001
0000
,
0200
0300
0010
0000
1000
0000
0001
0000
,
4000
3000
0000
0000
0010
0000
0000
0000
0100
0000
0000
0000
0004
0003
0000
0000
,
0010
0000
0000
0000
0100
0000
0000
0000
4000
3000
0000
0000
0001
0000
0000
0000
,
2000
3000
0010
0000
0100
0000
0001
0000
,
2000
3000
0010
0000
0100
0000
0001
0000
,
4000
3000
0000
0000
0100
0000
0000
0000
0010
0000
0000
0000
0004
0003
0000
0000
,
0100
0000
0000
0000
0010
0000
0000
0000
4000
3000
0000
0000
0001
0000
0000
0000
,
4000
3000
0100
0000
0010
0000
0001
0000
,
2000
3010
0100
0001
,
0010
0100
1000
0010
0100
0001
1000
0100
,
0010
0001
1000
0010
0100
0001
0010
0001
,
1000
0100
0010
0100
1000
0001
0100
0010
,
1000
0100
0010
0100
1000
0001
0010
0001
,
1000
0010
0100
0001
1000
0001
0010
0001
,
1000
0010
0100
0001
1000
0100
0010
0001
,
0010
0100
1000
0001
0100
0001
1000
0010
,
0100
0001
0010
0100
1000
0001
0100
0001
,
1000
0100
0010
0001
1000
0010
0100
0001
,
0010
0100
1000
0100
0010
0001
1000
0010
,
0100
0001
1000
0100
1000
0001
0010
0001
,
1000
0010
0100
0001
1000
0001
0010
0001
,
1000
0010
1000
0100
0010
0001
0100
0001
,
1000
0100
1000
0001
0010
0100
1000
0010
,
0100
0001
1000
0001
0010
0100
1000
0001
,
0100
0001
1000
0100
0010
0001
1000
0100
,
1000
0010
0100
0001
0010
0001
1000
0100
,
0010
0001
1000
0001
0100
0001
0010
0100
,
1000
0010
0100
0001
1000
0100
1000
0001
,
0100
0010
1000
0100
0010
0001
1000
0100
,
1000
0010
1000
0100
1000
0001
0010
0100
,
1000
0001
0100
0001
1000
0100
0010
0001
,
1000
0010
1000
0001
0010
0100
1000
0001
,
0100
0001
1000
0100
0010
0001
1000
0001
,
0100
0010
1000
0100
1000
0001
0010
0100
,
1000
0001
0100
0001
1000
0010
0100
0001
,
1000
0100
1000
0001
0010
0100
1000
0010
,
0100
0001
1000
0100
1000
0001
0100
0001
,
1000
0001
0100
0001
1000
0010
0100
0001
,
0010
0001
1000
0100
0010
0100
1000
0001
,
0100
0001
1000
0010
0100
0001
0010
0001
,
1000
0100
0010
0001
1000
0001
0010
0001
,
0100
0001
0010
0100
1000
0001
0100
0001
,
1000
0100
0010
0100
1000
0001
0100
0001
,
1000
0010
0100
0001
1000
0100
1000
0001
,
0100
0010
1000
0100
0010
0001
1000
0100
,
1000
0010
1000
0100
1000
0001
0010
0100
,
1000
0010
0100
0001
1000
0100
1000
0001
,
0010
0100
1000
0010
0100
0001
0010
0001
,
1000
0100
0010
0001
1000
0001
0100
0001
,
1000
0010
0100
0001
1000
0100
1000
0001
,
0010
0100
1000
0010
0100
0001
0010
0001
,
1000
0100
0010
0001
1000
0001
0010
0100
,
1000
0001
0100
0001
1000
0100
0010
0001
,
1000
0010
0100
0001
1000
0100
1000
0001
,
0010
0100
1000
0010
0100
0001
1000
0100
,
1000
0001
0010
0100
0010
0001
1000
0100
,
0010
0100
1000
0001
0100
0001
1000
0100
,
2000
0000
0000
0000
,
3000
1000
1000
1000
,
0020
0000
0000
0000
,
0030
0010
0010
0010
,
0200
0000
0000
0000
,
0300
0100
0100
0100
,
0020
0000
0000
0000
,
0030
0010
0010
0010
,
2000
0000
0000
0000
,
3000
1000
1000
1000
,
0002
0000
0000
0000
,
0003
0001
0001
0001
,
0020
0000
0000
0000
,
0030
0010
0010
0010
,
0200
0000
0000
0000
,
0300
0100
0100
0100
,
1000
0001
0100
0010
1000
0100
1000
0001
,
0010
0100
1000
0010
0100
0001
0010
0001
,
1000
0010
0100
0001
1000
0100
1000
0001
,
0010
0100
1000
0010
0100
0001
1000
0100
,
1000
0001
0010
0100
0010
0001
1000
0010
,
0100
0001
1000
0100
1000
0001
0010
0100
,
1000
0010
0100
0001
0010
0001
1000
0100
,
0010
0001
1000
0001
0010
0100
1000
0001
,
0100
0001
1000
0100
0010
0001
1000
0010
,
0100
0001
0010
0001
1000
0100
0010
0001
,
1000
0001
0010
0100
1000
0001
0100
0001
,
1000
0010
0100
0001
1000
0100
1000
0001
,
0010
0100
1000
0010
0100
0001
1000
0100
,
1000
0001
0010
0100
1000
0001
0100
0001
,
1000
0010
0100
0001
1000
0100
1000
0001
,
0010
0100
1000
0001
0100
0001
1000
0010
,
0100
0001
1000
0100
1000
0001
0100
0001
,
1000
0010
1000
0001
0010
0001
1000
0010
,
0100
0001
1000
0010
0100
0001
1000
0010
,
0100
0001
1000
0100
1000
0001
0100
0001
,
1000
0010
1000
0001
0010
0001
1000
0100
,
0010
0100
1000
0001
0100
0001
1000
0010
,
0100
0001
1000
0100
1000
0001
0010
0100
,
1000
0001
0100
0001
1000
0010
0100
0001
,
1000
0100
1000
0001
0010
0100
1000
0010
,
0100
0001
1000
0100
1000
0001
0010
0100
,
1000
0010
0100
0001
1000
0001
0010
0100
,
1000
0001
1000
0100
0010
0001
1000
0010
,
0100
0001
1000
0100
1000
0001
0010
0100
,
1000
0010
0100
0001
1000
0100
1000
0001
,
0010
0100
1000
0010
0100
0001
1000
0100
,
1000
0001
0010
0100
1000
0001
0010
0001
,
1000
0010
0100
0001
1000
0100
1000
0010
,
0100
0001
0010
0100
1000
0001
0100
0001
,
1000
0100
0010
0001
1000
0001
0010
0100
,
1000
0001
0100
0001
1000
0010
0100
0001
,
1000
0100
1000
0001
0010
0100
1000
0010
,
0100
0001
1000
0100
0010
0100
1000
0001
,
0010
0001
1000
0100
0010
0001
1000
0001
,
0010
0100
1000
0010
0100
0001
1000
0010
,
0100
0001
1000
0100
1000
0001
0010
0100
,
1000
0010
0100
0001
1000
0001
0010
0001
,
1000
0100
0010
0001
1000
0001
0010
0001
,
1000
0010
0100
0001
1000
0100
1000
0001
,
0010
0100
1000
0010
0100
0001
1000
0100
,
1000
0001
0010
0001
1000
0010
0100
0001
,
1000
0010
0100
0001
1000
0100
1000
0001
,
0010
0100
1000
0001
0010
0001
1000
0010
,
0100
0001
1000
0100
1000
0001
0010
0100
,
1000
0010
0100
0001
1000
0100
0010
0100
,
1000
0001
0010
0001
1000
0010
1000
0100
,
0010
0001
0100
0001
1000
0010
0100
0001
,
0010
0001
1000
0010
0100
0001
1000
0100
,
1000
0001
0010
0100
1000
0010
0100
0001
,
1000
0001
0010
0100
1000
0001
0100
0001
,
1000
0010
0100
0001
1000
0100
1000
0001
,
0010
0100
1000
0010
0100
0001
1000
0010
,
0100
0001
1000
0100
0010
0001
1000
0010
,
1000
0100
0010
0001
0100
0001
1000
0001
,
0010
0100
1000
0001
0100
0001
1000
0010
,
0100
0001
0010
0001
1000
0010
0100
0001
,
1000
0100
1000
0001
0010
0100
1000
0010
,
0100
0001
1000
0001
0010
0100
1000
0001
,
0100
0001
1000
0100
0010
0100
1000
0001
,
0020
0000
0000
0000
,
0030
0010
0010
0010
,
0200
0000
0000
0000
,
0300
0100
0100
0100
,
2000
0000
0000
0000
,
3000
1000
1000
1000
,
0002
0000
0000
0000
,
0003
0001
0001
0001
,
0200
0000
0000
0000
,
0300
0100
0100
0100
,
0020
0000
0000
0000
,
0030
0010
0010
0010
,
2000
0000
0000
0000
,
3000
1000
1000
1000
,
0002
0000
0000
0000
,
0003
0001
0001
0001
,
4000
3000
0000
0000
0010
0000
0000
0000
0100
0000
0000
0000
0004
0003
0000
0000
,
0010
0000
0000
0000
0100
0000
0000
0000
4000
3000
0000
0000
0001
0000
0000
0000
,
0200
0300
0010
0000
1000
0000
0001
0000
,
0200
0300
0010
0000
1000
0000
0001
0000
,
4000
3000
0000
0000
0100
0000
0000
0000
0010
0000
0000
0000
0004
0003
0000
0000
,
0100
0000
0000
0000
0010
0000
0000
0000
4000
3000
0000
0000
0001
0000
0000
0000
,
0020
0030
0100
0000
1000
0000
0001
0000
,
0200
0300
0010
0000
1000
0000
0001
0000
,
4000
3000
0000
0000
0010
0000
0000
0000
0100
0000
0000
0000
0004
0003
0000
0000
,
0010
0000
0000
0000
0100
0000
0000
0000
4000
3000
0000
0000
0001
0000
0000
0000
,
2000
3000
0010
0000
0100
0000
0001
0000
,
2000
3000
0010
0000
0100
0000
0001
0000
,
4000
3000
0000
0000
0100
0000
0000
0000
0010
0000
0000
0000
0004
0003
0000
0000
,
0100
0000
0000
0000
0010
0000
0000
0000
4000
3000
0000
0000
0001
0000
0000
0000
,
4000
3000
0100
0000
0010
0000
0001
0000
,
2000
0000
0010
3000
0100
0000
0002
0000
,
1003
0100
0010
0001
1000
0001
0010
0100
,
1000
0001
0100
0001
1000
0010
0100
0001
,
0010
0001
1000
0100
0010
0001
1000
0010
,
1000
0100
0010
0001
0100
0001
1000
0100
,
1000
0001
0010
0100
1000
0010
0100
0001
,
1000
0100
1000
0001
0010
0100
1000
0010
,
0100
0001
0010
0001
1000
0100
0010
0001
,
1000
0010
1000
0100
0010
0001
0100
0001
,
1000
0100
1000
0001
0010
0100
1000
0010
,
0100
0001
0010
0001
1000
0100
0010
0001
,
1000
0010
1000
0100
0010
0001
0100
0001
,
1000
0100
1000
0001
0010
0100
0010
0001
,
1000
0010
1000
0001
0010
0100
0010
0001
,
1000
0010
1000
0100
0010
0001
0100
0001
,
1000
0001
0100
0010
1000
0100
0010
0100
,
1000
0001
0100
0001
1000
0100
0010
0001
,
1000
0010
0100
0001
1000
0100
1000
0001
,
0010
0100
1000
0010
0100
0001
1000
0100
,
1000
0001
0010
0100
1000
0010
0100
0001
,
1000
0100
1000
0001
0010
0001
1000
0010
,
0100
0001
1000
0100
0010
0001
1000
0010
,
0100
0001
1000
0100
1000
0001
0010
0100
,
1000
0001
0100
0001
1000
0010
0100
0001
,
1000
0100
1000
0001
0010
0100
1000
0001
,
0100
0001
1000
0100
1000
0010
0100
0001
,
0010
0001
1000
0010
0100
0001
1000
0001
,
0010
0100
1000
0001
0100
0001
1000
0100
,
0010
0001
1000
0010
0100
0001
1000
0001
,
0010
0100
1000
0001
0100
0001
1000
0100
,
0010
0001
1000
0010
0100
0001
0010
0001
,
1000
0100
0010
0100
1000
0001
0100
0001
,
1000
0010
0100
0001
0010
0001
1000
0100
,
0010
0100
1000
0001
0100
0001
1000
0010
,
0100
0001
0010
0100
1000
0001
0100
0001
,
1000
0010
0100
0001
1000
0100
1000
0001
,
0010
0100
1000
0010
0100
0001
1000
0100
,
1000
0001
0010
0100
1000
0010
0100
0001
,
1000
0100
1000
0001
0010
0100
1000
0010
,
0100
0001
1000
0001
0010
0100
1000
0001
,
0100
0001
1000
0100
0010
0001
1000
0010
,
1000
0100
0010
0001
0100
0001
0010
0100
,
1000
0001
0100
0001
1000
0100
0010
0001
,
1000
0001
0010
0100
1000
0001
0100
0001
,
1000
0100
0010
0001
1000
0010
1000
0100
,
0010
0001
0100
0001
1000
0100
1000
0001
,
0010
0100
1000
0010
0100
0001
1000
0001
,
0010
0100
0010
0001
1000
0001
0100
0001
,
0010
0100
1000
0001
0100
0001
0010
0001
,
2000
3002
0023
0230
,
2300
3020
0230
0302
,
0023
0032
2003
3200
,
0320
0032
2003
3020
,
0130
0001
0010
0100
1000
0010
0100
0001
,
1000
0100
0010
0001
1000
0010
0100
0001
,
0010
0001
1000
0100
0010
0001
1000
0010
,
0100
0001
0010
0100
1000
0001
1000
0100
,
0010
0001
1000
0001
,
1000
0001
1000
0001
,
0100
0010
0100
0010
,
0100
0010
0100
0010
,
1000
0100
0010
0001
,
0100
0010
1000
0100
,
1000
0010
0100
0001
,
1000
0100
0010
0001
,
2000
3020
0230
0302
,
2003
3200
0320
0032
,
2003
3010
0100
0010
,
2000
3100
0010
0100
,
2000
3020
0230
0302
,
0023
0230
2300
3020
,
2030
3100
0010
0001
,
2000
3010
0100
0001
,
2000
3200
0320
0032
,
0203
0320
2030
3200
,
2300
3010
0100
0010
,
2000
3100
0010
0100
,
2000
3020
0230
0302
,
0023
0230
2300
3020
,
2030
3001
0010
0100
,
2000
3010
0400
0000
,
0000
0000
0000
0000
,
0000
0000
0000
0000
,
0000
0000
0000
0000
,
0000
0000
0000
0000
,
0000
0000
0000
0000
,
0000
0000
0000
0000
,
0000
0000
0000
0000
,
0000
0000
0000
0000
,
0300
0000
0000
0000
;
