#TITLE:PARANOIA EVOLUTION;
#SUBTITLE:H!DE&S33K;
#ARTIST:200;
#TITLETRANSLIT:;
#SUBTITLETRANSLIT:;
#ARTISTTRANSLIT:;
#CREDIT:;
#BANNER:PARANOIA EVOLUTION-bn.png;
#BACKGROUND:PARANOIA EVOLUTION-bg.png;
#LYRICSPATH:;
#CDTITLE:./CDTITLES/DANCE DANCE REVOLUTION SOLO.PNG;
#MUSIC:PARANOIA EVOLUTION.mp3;
#OFFSET:-0.042;
#SAMPLESTART:0.030;
#SAMPLELENGTH:12.000;
#SELECTABLE:YES;
#DISPLAYBPM:-200.000;
#BPMS:0.000=200.050,4.000=-200.050,8.000=200.050,28.000=-200.050,32.000=200.500,52.000=-200.050,56.000=200.050,68.000=-200.050,72.000=200.050,84.000=-200.050,88.000=200.050,100.000=-200.050,104.000=200.050,120.000=-200.050,124.000=200.050,144.000=-200.050,148.000=200.050,238.000=-200.050,242.000=200.050,247.000=-200.050,251.000=200.050,255.500=-200.050,259.500=200.050,264.000=-200.050,268.000=200.050,272.500=-200.050,276.500=200.050,281.000=-200.050,285.000=200.050,294.000=-200.050,298.000=200.050,303.000=-200.050,307.000=200.050,311.500=-200.050,315.500=200.050,320.000=-200.050,324.000=200.050,328.500=-200.050,332.500=200.050,337.000=-200.050,341.000=200.050,350.000=-200.050,354.000=200.050,359.000=-200.050,363.000=200.050,367.500=-200.050,371.500=200.050,376.000=-200.050,380.000=200.050,384.500=-200.050,388.500=200.050,393.000=-200.050,397.000=200.050,414.000=-200.050,418.000=200.050,430.000=-200.050,434.000=200.050,446.000=-200.050,450.000=200.050,462.000=-200.050,466.000=200.050,536.000=-200.050,540.000=200.050,544.000=1200.300,607.000=200.050;
#STOPS:224.000=0.300
,226.000=0.300
;
#BGCHANGES:;
// cache tags:
#FIRSTBEAT:0.000;
#LASTBEAT:607.000;
#SONGFILENAME:Songs/toune/PARANOIA EVOLUTION HIDE&SEEK/PARANOIA EVOLUTION HIDE&SEEK.sm;
#HASMUSIC:1;
#HASBANNER:1;
#MUSICLENGTH:92.843;
// end cache tags

//---------------dance-single - ----------------
#NOTES:
     dance-single:
     :
     Hard:
     10:
     0.837,1.000,0.129,0.377,0.000,497.000,12.000,35.000,234.000,0.000:

0001
0010
0000
0100
0000
0000
0000
0000
,
M000
0000
0000
0000
,
0000
0000
0000
0000
,
2000
0000
0000
3000
,
0000
0100
0000
0001
0000
0000
0000
0000
,
0000
0000
0000
0000
,
1000
0100
0010
0001
0010
0100
1000
0000
,
00M0
0000
0000
0000
,
0000
0000
0000
0000
,
0020
0000
0000
0030
,
0001
0000
0100
0000
0001
0100
0001
0000
,
1000
0010
1000
0010
0100
0001
0100
0000
,
1000
0000
1000
0000
0100
0010
0001
0000
,
000M
0000
000M
00M0
000M
00M0
0M00
0000
,
0000
0000
0000
0000
,
0001
0000
0001
0010
0001
0010
0100
0000
,
0001
0000
0001
0000
0010
0100
1000
0000
,
M000
0000
M000
00M0
M000
00M0
000M
0000
,
0000
0000
0000
0000
,
1000
0000
1000
0010
1000
0010
0001
0000
,
0100
0000
0010
0000
0100
0001
0100
0000
,
M000
0000
00M0
000M
00M0
0M00
M000
0000
,
0000
0000
0000
0000
,
1000
0000
0010
0001
0010
0100
1000
0000
,
0010
0000
1000
0000
0010
1000
0010
0000
,
000M
0000
000M
00M0
0M00
M000
0M00
0000
,
0000
0000
0000
0000
,
0001
0000
0001
0010
0100
1000
0100
0000
,
0001
0000
0001
0000
0001
0010
0100
0000
,
0010
0000
0010
0000
0010
0001
0000
0001
,
M001
0000
M001
0000
M001
0M10
0000
0M10
,
0000
0000
0000
0000
,
1000
0000
1000
0000
1000
0100
0000
0100
,
0010
0000
0010
0000
0010
0002
0003
0200
,
0310
0000
0010
0000
0100
1000
0000
1000
,
0100
0000
0100
0000
0100
0020
0030
0002
,
01M3
0000
01M0
0000
01M0
0M10
0000
0M10
,
0000
0000
0000
0000
,
0010
0000
0010
0000
0010
0100
0000
0100
,
0010
0000
0010
0000
0010
0001
0000
0001
,
1000
0100
0000
1000
0000
0000
0001
0000
,
0010
0001
0000
1000
0000
0000
0000
0000
,
0010
0100
0010
0100
0010
1000
0001
1000
,
0001
1000
0010
0100
0000
0000
0010
0000
,
0100
0010
0000
0001
0000
0000
1000
0000
,
0100
0010
0000
0010
0000
0000
0000
0000
,
1000
0010
1000
0010
1000
0100
1000
0000
,
1100
0011
1100
0011
,
0000
0100
0010
0001
0010
0100
0000
0001
,
0010
0100
0010
0001
0000
0000
0000
0000
,
2000
0000
0000
3002
0000
0000
0103
0000
,
0000
0002
0000
1003
0000
0000
0000
0000
,
0000
1000
0100
0010
0001
0010
0000
0100
,
1000
0100
0010
0001
0000
0000
0000
0000
,
0002
0000
0000
0203
0000
0000
0310
0000
,
0000
2000
0000
3100
0000
0000
0000
0000
,
0001
1001
0011
1000
,
1001
0000
1010
0000
0200
0300
0101
0000
,
1100
0200
1300
1000
,
1000
0100
0010
0000
00M0
0000
00M0
000M
,
00M0
0M00
M000
0000
0010
0000
0010
0000
,
0010
0001
0010
0000
0010
0000
00M0
000M
,
00M0
0M00
M000
0000
0010
0000
0010
0000
,
0010
0001
0010
0000
0M00
M000
0010
000M
,
00M0
0M00
M000
0000
0010
0000
0010
0000
,
0010
0001
0010
0000
0M00
M000
0M00
0001
,
00M0
0M00
M000
0000
0010
0000
0010
0000
,
0010
0001
0010
0000
0M00
M000
0M00
M000
,
0010
0M00
M000
0000
0010
0000
0010
0000
,
0010
0001
0010
0000
0M00
M000
0M00
M000
,
0M00
0100
M000
0000
0010
0000
0010
0000
,
0010
0001
0010
0000
0M00
0000
0M00
M000
,
0M00
M000
1000
0000
0010
0000
0010
0000
,
0010
0001
0010
0000
0M00
0000
0M00
M000
,
0M00
M000
0M00
0000
0001
0000
0100
0000
,
0010
1000
0100
0000
0100
0000
0M00
M000
,
0M00
M000
0M00
0000
0001
0000
0100
0000
,
0010
1000
0100
0000
M000
0000
0100
M000
,
0M00
M000
0M00
0000
0001
0000
0100
0000
,
0010
1000
0100
0000
M000
0000
00M0
1000
,
0M00
M000
0M00
0000
0001
0000
0100
0000
,
0010
1000
0100
0000
M000
0000
00M0
0M00
,
0100
M000
0M00
0000
0001
0000
0100
0000
,
0010
1000
0100
0000
M000
0000
00M0
0M00
,
000M
1000
0M00
0000
0001
0000
0100
0000
,
0010
1000
0100
0000
M000
0000
00M0
0M00
,
000M
0M00
0100
0000
0001
0000
0100
0000
,
0010
1000
0100
0000
M000
0000
00M0
0M00
,
000M
0M00
00M0
0000
1000
0000
1000
0000
,
0100
0010
0001
0000
1000
0000
00M0
0M00
,
000M
0M00
00M0
0000
1000
0000
1000
0000
,
0100
0010
0001
0000
0001
0000
0010
0M00
,
000M
0M00
00M0
0000
1000
0000
1000
0000
,
0100
0010
0001
0000
0001
0000
0001
0100
,
000M
0M00
00M0
0000
1000
0000
1000
0000
,
0100
0010
0001
0000
0001
0000
0001
0000
,
0001
0M00
00M0
0000
1000
0000
1000
0000
,
0100
0010
0001
0000
0001
0000
0001
0000
,
0001
0100
00M0
0000
1000
0000
1000
0000
,
0100
0010
0001
0000
0001
0000
0001
0000
,
0001
0010
1000
1000
,
0100
0010
0001
0000
0001
0000
0001
0000
,
0010
0100
1000
0000
0100
0000
0001
0000
,
0100
0001
1000
0000
0M10
0000
0M10
0000
,
0M10
01M0
0000
01M0
0M00
0000
0000
0000
,
0000
0000
0100
0100
,
0100
0010
0000
0010
0100
0000
1000
0000
,
0100
0010
0001
0000
M001
0000
0M10
0000
,
0M10
01M0
0000
01M0
100M
0000
0000
0000
,
0000
0000
1000
0100
,
0100
0010
0000
0010
0001
0000
0100
0000
,
0010
1000
0010
0000
0M10
0000
0M10
100M
,
0000
01M0
0000
0M10
M001
0000
0000
0000
,
0000
0000
0000
0000
0100
0000
0100
0001
,
0000
0010
0000
0100
1000
0000
1000
0000
,
0001
0010
0001
0000
01M0
0000
100M
01M0
,
0000
0M10
M001
0000
0000
0000
0000
0000
,
0000
0000
0000
0000
0010
0000
0001
0010
,
0000
0100
1000
0000
0001
0010
0100
0000
,
0100
1000
0001
0000
0001
0100
0010
0000
,
0010
1000
0100
0000
0100
1000
0010
0000
,
0010
0100
0001
0000
0001
1000
0010
0000
,
2020
0000
3030
0000
0001
0010
0100
1000
,
0001
0100
0010
1000
0100
1000
0010
0100
,
0001
1000
0010
0100
0001
0010
0001
0010
,
0001
0100
0010
1000
0010
0100
0001
0000
,
0220
0000
0330
0000
2000
0100
3020
0030
,
0002
0010
0203
0300
0010
0000
0010
0000
,
0010
0001
0100
0000
0200
0010
0302
0003
,
2000
0010
3200
0300
0001
0000
0001
0000
,
0010
0100
0010
0000
0002
0010
0203
0300
,
0020
0001
2030
3000
0100
0000
1000
0000
,
0010
0100
0001
0000
0002
0100
0023
0030
,
2000
0100
3020
0030
0001
0010
0100
0000
,
M000
0000
0000
0000
,
0000
0000
0000
0000
,
2000
0MMM
00M0
00M0
,
00M0
0MMM
0000
0000
,
0000
00M0
0M0M
0M00
,
00M0
000M
0M0M
00M0
,
0000
0MMM
0M00
0MMM
,
0M00
0MMM
0000
0MMM
,
0M00
0MMM
0M00
0MMM
,
0000
0000
0000
0M0M
,
0M0M
00M0
00M0
00M0
,
0000
0MMM
0M0M
0M0M
,
0M0M
0MMM
0000
0M0M
,
0M0M
0M0M
0M0M
0MMM
,
0000
0000
0000
00M0
,
00M0
00M0
0000
00M0
,
0000
0000
0000
0000
,
0000
0000
0000
3MMM
;
