#TITLE:Shihen;
#SUBTITLE:;
#ARTIST:Sharpnelsound;
#TITLETRANSLIT:;
#SUBTITLETRANSLIT:;
#ARTISTTRANSLIT:;
#CREDIT:;
#BANNER:Shihen bn.png;
#BACKGROUND:Shihen bg.png;
#LYRICSPATH:;
#CDTITLE:cdtitle.png;
#MUSIC:Shihen.mp3;
#OFFSET:-4.360;
#SAMPLESTART:239.700;
#SAMPLELENGTH:12.000;
#SELECTABLE:YES;
#BPMS:0.000=198.000,128.000=197.000,160.000=198.000,288.000=197.000,320.000=198.000,512.000=197.000,552.000=198.000,680.000=197.000,716.000=198.000,888.000=197.000,928.000=198.000,1064.000=197.000,1096.000=198.000,1220.000=197.000,1256.000=198.000;
#STOPS:;
#BGCHANGES:;
// cache tags:
#FIRSTBEAT:0.000;
#LASTBEAT:1296.000;
#SONGFILENAME:Songs/juju step2/Shihen/Shihen.sm;
#HASMUSIC:1;
#HASBANNER:1;
#MUSICLENGTH:399.568;
// end cache tags

//---------------dance-single - ----------------
#NOTES:
     dance-single:
     :
     Hard:
     13:
     1.000,1.000,1.000,0.063,1.000,3143.000,611.000,25.000,0.000,1.000:
1001
0010
0100
0001
0100
0010
1000
0010
,
0001
0010
1000
0010
0001
0100
0010
0100
,
0001
0010
0001
1000
0100
0001
0100
0010
,
0001
0010
1000
0010
0100
0010
1000
0010
,
0100
0001
0010
0100
1000
0010
0100
0001
,
0100
0010
1000
0010
0100
0010
1000
0010
,
0100
0001
1000
0100
0010
0001
1000
0100
,
0001
0100
1000
0010
0100
0001
0010
0100
,
1001
0010
1100
0010
0101
0010
1100
0010
,
1001
0000
0100
0000
0011
0000
0100
0000
1010
0000
0100
0000
0011
0000
0100
1000
,
0110
0001
0110
1000
0101
0010
1001
0100
,
1010
0000
0001
0000
0110
0000
0001
0000
1010
0000
0100
0000
1001
0000
0100
0010
,
1100
0010
0101
0010
1001
0100
1010
0100
,
0011
0100
0011
1000
0110
0001
1010
0100
,
1001
0100
0010
0100
0010
0100
0010
0100
0010
0100
0010
0100
0010
0100
0010
0100
,
1001
0001
0010
0100
,
1001
1000
1010
0010
0110
0100
0101
0001
,
1001
0001
0011
0010
0110
0100
1100
1000
,
1001
0001
0101
0100
0110
0010
1010
1000
,
1010
0010
0110
0100
0101
0001
0011
0110
,
0110
1000
0011
0100
0011
1000
0011
0100
,
1010
0001
1010
0100
1010
0001
1010
0100
,
1001
0010
1001
0100
1001
0010
1001
0100
,
0011
0100
1010
0100
1001
0010
1100
0110
,
1001
0001
0101
0001
1001
0001
0011
0001
,
1001
1000
1010
1000
1001
1000
1100
1000
,
1010
0010
0110
0010
1010
0010
0011
0010
,
0110
0100
0101
0100
0110
0100
1100
0110
,
1001
0010
1001
0010
1001
0100
1001
0100
,
0011
1000
0011
1000
0110
0001
0110
0001
,
2001
0010
0001
0100
0001
0010
0001
0100
,
0001
0000
0001
0000
0010
0000
0010
3100
,
1001
0000
0100
0000
1010
0000
0100
0010
0100
0010
0001
0000
0110
0000
1000
0000
,
0101
0000
0010
0000
1001
0000
0010
0100
1000
0100
1000
0000
0101
0000
0010
0000
,
1001
0000
0100
0000
0011
0000
1000
0100
0010
0100
0010
0000
1001
0000
0010
0000
,
0101
0000
1000
0000
0110
0000
0001
0010
0100
0010
0100
0000
0011
0000
0110
0000
,
1001
0000
0010
0000
1100
0000
0010
0100
1000
0100
0010
0000
0101
0000
0010
0000
,
1100
0000
0001
0000
0110
0000
0001
0010
0100
0010
0001
0000
0110
0000
0001
0000
,
1010
0000
0001
0000
1100
0000
0010
0001
0010
0100
0010
0000
1001
0000
0100
0000
,
0011
0000
0100
0000
1010
0000
0100
1000
0100
0010
0100
0000
1010
0000
0110
0000
,
1001
0000
0010
0000
1000
0100
1000
0000
0011
0000
0100
0000
0001
0010
0001
0000
,
0110
0000
1000
0000
0001
0100
0010
0000
1000
0010
0100
0000
0001
0100
0010
0000
,
1001
0000
0010
0000
0100
0010
0100
0000
1010
0000
0100
0000
0001
0010
0001
0000
,
1010
0000
0001
0000
0100
0010
0001
0000
1000
0100
0010
0000
0001
0010
0100
0000
,
1001
0000
0010
0000
0100
0001
0010
0000
1001
0000
0100
0000
0010
1000
0100
0000
,
1001
0000
0010
0000
1000
0100
1000
0000
0010
0100
0010
0000
0001
0010
0001
0000
,
0110
1000
0101
0010
1100
0010
1001
0100
,
1002
0000
0000
0000
1000
0000
0000
0000
0100
0000
0000
0000
0100
0000
0103
0010
,
1001
0000
0100
0000
0001
0010
0100
0010
0100
0000
0010
0000
1000
0010
0100
0001
,
0010
0000
1000
0000
0100
0010
0100
0000
0001
0010
0001
0000
1000
0010
0100
0000
,
1001
0000
0010
0000
1000
0100
1000
0100
0010
0000
1000
0000
0010
0100
0010
0001
,
0010
0000
0100
0000
0001
0010
0100
0000
0010
0100
1000
0000
0010
0100
0010
0000
,
0101
0000
1000
0000
0010
0100
0010
0100
1000
0000
0001
0000
0010
0001
0010
0100
,
1000
0000
0010
0000
1000
0010
0100
0000
0001
0100
0010
0000
0100
1000
0100
0000
,
0011
0000
0100
0000
0010
0001
0010
0100
0010
0000
1000
0000
0001
0010
0001
0010
,
0100
0000
0001
0000
0010
0100
0010
0000
0001
0100
0001
0000
1000
0010
0100
0000
,
1001
0000
0101
0000
0010
0100
0010
0100
1000
0000
0101
0000
0010
0100
0010
0001
,
0010
0000
1001
0000
0010
0100
0010
0100
1000
0000
0110
0000
0001
0010
0001
0010
,
0100
0000
0011
0000
1000
0100
0001
0100
1000
0000
0110
0000
0001
0010
1000
0010
,
0001
0000
0110
0000
1000
0010
0100
0000
0001
0010
0001
0000
1000
0100
0010
0000
,
0101
0000
1010
0000
0100
0010
0100
0010
0001
0000
0110
0000
0001
0010
0100
1000
,
0100
0000
0011
0000
1000
0010
0100
0001
0010
0000
1100
0000
0001
0100
0010
1000
,
0001
1000
0001
1000
0001
1000
0001
1000
0001
1000
0001
1000
0001
1000
0001
0010
,
1001
1010
0110
0101
,
1001
0000
0010
0100
0010
0000
1000
0100
0010
0001
0010
0100
0010
0000
1100
0000
,
1001
0000
0100
0010
0100
0000
0001
0010
0100
1000
0100
0010
0100
0000
0011
0000
,
1001
0000
0010
0001
0100
0000
1000
0010
0100
0001
0100
0010
0100
0000
0011
0000
,
1001
0000
0100
0010
1000
0000
0001
0010
0001
0000
0100
0010
0001
0000
1100
0000
,
1001
0000
0100
0010
0001
0000
1000
0100
0010
0001
0010
0100
1000
0000
0110
0000
,
1001
0000
0010
0100
1000
0000
0001
0010
0100
1000
0100
0010
0001
0000
0110
0000
,
1001
0000
0100
0010
1000
0000
0001
0010
0100
1000
0010
0100
0010
0000
1100
0000
,
1001
0000
0010
0100
0001
0000
1000
0100
0010
0000
1000
0010
0100
0000
0011
0000
,
1001
0000
0010
0001
0010
0000
0100
1000
0100
1000
0100
1000
0100
0000
1010
0000
,
1001
0000
0100
1000
0100
0000
0010
0001
0010
0001
0010
0001
0010
0000
0101
0000
,
1001
0000
0100
0010
0001
0000
1000
0100
0010
0001
0100
0010
0001
0000
0110
0000
,
1001
0000
0010
0100
1000
0000
0001
0010
0100
0000
0010
0100
1000
0000
0110
0000
,
1001
0000
0100
0001
0010
0000
1000
0010
0100
0001
0100
0010
1000
0000
0110
0000
,
1001
0000
0010
1000
0100
0000
0001
0100
0010
1000
0010
0100
0001
0000
0110
0000
,
1001
0000
0010
0100
0010
0000
1000
0100
0010
0100
0001
0010
0100
0000
0011
0000
,
1001
0011
0101
1010
,
1001
0000
0100
0010
0000
0010
0001
0000
1000
0100
1000
0100
0010
0000
0100
0000
,
1001
0000
0100
0010
0000
0010
0100
0000
0001
0010
0001
0010
0100
0000
0010
0000
,
1001
0000
0010
0100
0000
0100
1000
0000
0010
0100
0010
0001
0010
0000
0100
0000
,
1001
0100
0010
0001
0100
0010
1000
0010
0100
0001
0100
0010
0100
0001
0010
0000
,
0101
0000
0010
0100
0000
0100
0001
0000
1000
0100
1000
0100
0010
0000
1000
0000
,
0110
0000
0001
1000
0000
1000
0010
0000
0100
0010
0001
0010
0001
0000
0100
0000
,
1001
0000
0010
0001
0000
0001
0100
0000
0010
0100
0010
0100
1000
0000
0001
0000
,
2010
0001
0100
0010
0100
0001
0100
0010
,
0100
0001
0100
0010
0100
0001
0010
3100
,
1001
0000
0010
0100
0000
0100
1000
0000
0010
0100
0010
0001
0010
0000
1000
0000
,
0110
0000
0001
0100
0000
0100
1000
0000
0001
0010
0001
0010
0100
0000
1000
0000
,
0101
1000
0010
0100
0001
0100
0010
0100
0001
0010
0100
1000
0010
0100
0010
0100
,
1001
0000
0100
0010
0000
0010
0001
0000
0010
0100
0010
0100
1000
0000
0010
0000
,
1001
0000
0010
0100
0000
0100
1000
0000
0100
0010
0100
0010
0001
0000
0010
0000
,
1100
0110
1010
0011
0101
0110
1010
1001
,
0100
0010
0100
0010
0100
0010
0100
0010
0100
0010
0100
0010
0100
0010
0100
0010
,
2002
0000
3003
0000
,
0000
0000
0000
0000
,
0001
0000
0100
0000
0010
0100
0010
0100
1000
0000
0010
0000
0100
0010
0100
0020
,
0000
0030
0000
0000
0000
0000
0000
0000
,
1000
0000
0010
0000
0100
0010
0200
0000
0300
0000
0000
0000
0000
0000
0000
0000
,
0000
0000
0000
0000
,
0100
0000
0001
0000
0010
0100
0010
0100
0010
0000
1000
0000
0100
0010
0100
0020
,
0000
0030
0000
0000
0000
0000
0000
0000
,
1000
0000
0010
0000
0100
1000
0200
0000
0300
0000
0000
0000
0000
0000
0000
0000
,
0000
0000
0000
0000
,
0010
0000
0001
0000
1000
0010
0100
0001
0010
0000
1000
0000
0001
0100
0010
2000
,
0000
3000
0000
0000
0000
0000
0000
0000
,
1000
0000
0001
0000
0100
0010
0200
0000
0300
0000
0000
0000
0000
0000
0000
0000
,
0000
0000
0000
0000
,
0010
0000
0100
0000
0001
0010
0100
1000
0001
0000
1000
0000
0001
0100
0010
1000
,
0010
0000
0100
0000
1000
0100
0010
0001
1000
0000
0001
0000
1000
0010
0100
0001
,
0220
0000
0000
0000
,
0000
0330
1000
0000
0010
0000
0100
0000
,
0001
0010
0000
0010
0100
0000
0100
0010
,
0100
1000
0000
1000
0100
0000
0100
0010
,
0000
0010
0000
0010
1000
0000
0100
0010
,
0100
0001
0000
0100
0010
0000
1000
0010
,
0100
0001
0000
0010
0100
0000
0001
0010
,
0100
1000
0000
0010
0100
0000
1000
0100
,
0000
0100
0000
0100
0010
0000
0010
0100
,
0010
0001
0000
0010
0100
0000
0100
0010
,
0100
1000
0000
1000
0010
0000
0100
1000
,
0010
0100
0000
0001
0010
0000
1000
0100
,
0010
0001
0000
0100
0010
0000
1000
0010
,
0100
0001
0000
0010
0100
0000
0100
0010
,
1000
0001
1000
0001
1000
0001
1000
0001
1000
0001
1000
0001
1000
0001
1000
0001
,
0100
0010
0100
0010
0100
0010
0100
0010
0100
0010
0100
0010
0100
0010
0100
0010
,
1001
0000
0000
0000
,
0200
0000
0000
0000
,
1301
0100
0001
1000
0100
0001
0100
0010
,
1000
0100
0001
1000
0100
0001
0100
0010
,
0001
0010
1000
0001
0010
1000
0010
0100
,
0001
0010
1000
0001
0010
1000
0010
0100
,
1000
0100
0001
1000
0100
0001
0100
0010
,
1000
0100
0001
1000
0100
0001
0100
0010
,
0001
0010
1000
0001
0010
1000
0010
0100
,
0001
0010
1000
0001
0010
1000
0010
0100
,
1001
0100
0001
1010
0100
0001
1100
0010
,
1001
0100
0001
1010
0100
0001
1100
0010
,
1001
0010
1000
0101
0010
1000
0011
0100
,
1001
0010
1100
0001
0110
1000
0011
0100
,
1001
0100
0001
1010
0100
0001
1100
0010
,
1001
0100
0001
1010
0100
0001
1100
0010
,
1001
0010
1000
0101
0010
1000
0011
0100
,
1001
0010
1100
0001
0110
1000
0011
0100
,
1001
0100
0010
1000
0100
0010
1000
0100
,
0001
0010
0100
0001
0010
0100
0001
0010
,
1000
0100
0010
1000
0100
0010
1000
0100
,
0001
0010
0100
0001
0010
0100
0001
0010
,
1001
0100
0011
1000
0100
0011
1000
0110
,
0001
0010
1100
0101
0010
1100
0101
0110
,
1001
0100
0011
1010
0100
0011
1010
0110
,
1001
0010
0100
1001
0010
0100
1001
0010
,
1001
0100
0011
1010
0100
0011
1010
0110
,
1001
0100
0011
1010
0100
0011
1010
0110
,
1001
0010
1100
0101
0010
1100
0101
0110
,
1001
0010
1100
0101
1010
0100
0011
0100
,
1001
0100
0011
1010
0100
0011
1010
0110
,
1001
0010
1100
0101
0010
1000
0001
0010
,
1100
0110
0011
0110
0011
1010
0110
0101
,
2002
0000
0000
0000
0000
0000
0000
3003
,
1001
0000
0100
0000
0001
0100
0010
1000
0101
0000
0010
0000
1000
0010
0100
0001
,
1010
0000
0001
0000
1000
0100
0001
0100
1001
0000
0010
0000
1000
0100
0010
0100
,
0011
0000
1000
0000
0100
0010
0001
0010
0101
0000
1000
0000
0010
0100
0010
0100
,
1001
0000
0010
0000
1000
0100
1010
0000
0001
0010
0101
0000
1000
0100
1010
0000
,
1001
0000
0010
0000
1000
0100
0010
0100
1001
0000
0010
0000
1000
0010
0100
0001
,
0110
0000
1000
0000
0001
0010
0100
1000
0110
0000
0001
0000
1000
0100
0010
0100
,
0011
0000
0100
0000
1000
0100
1000
0100
0011
0000
0100
0000
0001
0010
0100
1000
,
0101
0000
0010
0000
0100
0010
1100
0000
0010
0100
0011
0000
0100
0010
1100
0000
,
1001
0000
0100
0000
1000
0010
0100
0000
1001
0000
0010
0000
0001
0100
0010
0000
,
1001
0000
0100
0010
0100
0000
0011
0000
1000
0100
1000
0000
0101
0000
0010
0100
,
1001
0000
0010
0000
0100
0001
0010
0000
1001
0000
0100
0000
0010
1000
0100
0000
,
1001
0000
0100
0010
0001
0000
1100
0000
0010
0100
1000
0000
0011
0000
0100
0010
,
1001
0000
0100
0000
0001
0010
0001
0000
0110
0000
0001
0000
1000
0100
1000
0000
,
1001
0000
0100
0001
0010
0000
0110
0000
0010
1000
0100
0000
0011
0000
1000
0100
,
1001
0000
0010
0000
0100
0010
0001
0000
0110
0000
0100
0000
0010
0100
1000
0000
,
0110
0000
1000
0010
0100
0000
0011
0000
0100
0001
0010
1000
1001
0000
0110
0000
,
1001
0100
0010
0000
0010
0100
0011
0000
1100
0000
1010
0000
0100
0010
0100
0000
,
1001
0010
0100
0000
0010
0001
0110
0000
1100
0000
1010
0000
0100
0001
0010
0000
,
1001
0000
0100
0000
0001
0100
0010
0000
1100
0000
1000
0000
0001
0100
0010
0000
,
1001
0000
0100
0000
0001
0100
0010
0000
1000
0010
0100
0000
0001
0100
0010
0000
,
1001
0010
0100
0000
0010
0100
1010
0000
0110
0000
0101
0000
1000
0010
0100
0000
,
0011
0100
0010
0000
0100
0010
1100
0000
0011
0000
0101
0000
0010
0100
0010
0000
,
1001
0000
0100
0000
0001
0010
0100
0000
0011
0000
0100
0000
1000
0010
0100
0000
,
1001
0000
0010
0000
0100
0010
0001
0000
0010
0001
0100
0000
0010
0100
1000
0000
,
0110
0000
1000
0100
1000
0000
0110
0000
0001
0010
0001
0000
0110
0000
1000
0100
,
1001
0000
0010
0100
0010
0000
1001
0000
0100
0010
0100
0000
1001
0000
0010
0100
,
1001
0000
0010
0000
0100
0001
0010
0000
1100
0000
0010
0000
1000
0010
0100
0000
,
1001
0000
0100
0000
0001
0010
0100
0000
0010
0100
1000
0000
0001
0100
0010
1000
,
0110
0000
0001
0000
0100
0001
0010
0000
1100
0000
0001
0100
0010
0000
0100
0000
,
0101
0000
1000
0000
0010
0100
0010
0000
1100
0000
0001
0010
0100
0000
1000
0000
,
0001
1000
0001
1000
0001
1000
0001
1000
0001
1000
0001
1000
0001
1000
0001
1000
,
0002
0000
0000
0000
0000
0000
0000
0000
0100
0000
0000
0000
0100
0000
0103
0010
,
1001
0100
0010
0001
0100
0010
1000
0010
0100
0001
0100
0010
0100
0001
0100
0010
,
1000
0001
0010
0100
1000
0010
0100
0001
0010
0001
1000
0100
0010
0100
1000
0010
,
0100
0010
1000
0010
0100
0001
1000
0100
0001
0100
1000
0010
0100
0010
1000
0010
,
0100
0001
1000
0100
0010
0001
0100
0010
1001
0000
0000
0000
1010
0000
0110
0000
,
1001
0010
0100
1000
0010
0100
0001
0010
0001
1000
0010
1000
0010
0100
0001
0100
,
0010
1000
0010
0100
0010
1000
0100
0010
0001
0100
0010
1000
0100
1000
0001
0100
,
0001
0100
0010
1000
0010
0100
0001
0100
0010
1000
0100
0010
0100
1000
0001
0100
,
0010
1000
0010
0100
0010
1000
0100
0010
1001
0000
0000
0001
0101
0000
0110
0000
,
1001
0010
0100
0001
0100
0010
0100
0001
0010
0100
0010
0001
1000
0100
1000
0010
,
0100
0001
0010
0001
1000
0010
1000
0010
0100
0001
0100
0010
1000
0010
0100
0001
,
0010
0100
1000
0010
0100
0001
0010
0001
0100
0010
1000
0010
0100
0001
1000
0010
,
1000
0010
0100
0001
0010
0100
1000
0100
1001
0000
0000
0000
1100
0000
1010
0000
,
1001
0010
0100
0010
0001
0100
0010
0100
0001
0100
0010
1000
0010
0100
0001
0010
,
0001
1000
0100
0010
0001
1000
0010
0100
0001
1000
0100
0010
0100
1000
0001
0100
,
0010
1000
0010
0100
0001
0010
0100
1000
0010
0100
0010
1000
0010
1000
0010
0100
,
0001
0010
0100
1000
0010
0100
0001
0010
1001
0000
0000
0001
0011
0000
0101
0000
,
1001
0100
0010
0100
1000
0001
0100
0010
1000
0001
0010
0100
0010
0001
1000
0100
,
0010
0001
0100
0010
1000
0100
1000
0001
0100
0001
0100
0010
1000
0010
0100
0001
,
0010
0100
1000
0010
0100
0010
1000
0100
0010
0100
1000
0001
0010
0001
1000
0010
,
0100
0001
0100
0010
0100
0001
0010
0100
1001
0000
0000
0000
1001
0000
1010
0000
,
1001
0010
0100
0010
0001
1000
0100
0010
0100
1000
0001
0100
0010
1000
0001
0100
,
0010
1000
0001
0100
0001
0100
0010
1000
0100
0010
0001
0100
0010
1000
0100
1000
,
0001
0010
0100
0010
0001
1000
0010
1000
0010
0100
0001
0010
0001
1000
0100
0010
,
0001
1000
0010
0100
0001
0100
0010
0100
1001
0000
0000
0001
1001
0000
0101
0000
,
1001
0010
0001
0100
0010
0100
0001
0010
0100
0010
0001
1000
0010
0100
0001
1000
,
0100
0010
0001
1000
0010
1000
0010
0100
0001
0100
0010
1000
0001
0010
0100
1000
,
0010
0100
0010
1000
0100
0010
0001
0100
0010
1000
0100
1000
0001
0100
0001
0100
,
0010
1000
0010
0100
0001
0100
0010
1000
0110
0000
0000
0000
1001
0000
1010
0000
,
1001
0010
0100
1000
0010
0100
0001
0100
0010
1000
0010
0100
0001
0100
0001
0100
,
0010
1000
0010
1000
0010
0100
0001
0100
0010
1000
0010
0100
0001
1000
0100
0010
,
0001
0010
0100
0010
0100
0010
0100
0010
0100
0010
0100
0010
0100
0010
0100
0010
,
2002
0000
0000
0000
0000
0000
0000
3003
,
1001
1100
1010
1001
0000
0110
0000
0000
,
1001
1100
1010
1001
0000
0110
0000
0000
,
1001
0011
0101
1001
0000
0110
0000
0000
,
1001
0000
0011
0000
0101
0000
1001
0000
0000
0000
0100
0010
0100
0000
1010
0000
,
1001
0000
0010
0000
0011
0000
1000
0100
1000
0000
0110
0000
0001
0010
0001
0000
,
0110
0000
1000
0000
1010
0000
0100
0010
0100
0000
0011
0000
1000
0100
1000
0000
,
0101
0000
0010
0000
0011
0000
1000
0010
0100
0000
1010
0000
0001
0100
0010
0000
,
1001
0000
0100
0010
0100
0000
0001
0010
0001
0000
1000
0100
1000
0000
0010
0000
,
1001
0100
0010
0000
0010
0100
1001
0000
0100
0010
0100
0000
1010
0000
0010
0000
,
1001
0010
0100
0000
0100
0010
1001
0000
0010
0100
0010
0000
0101
0000
0100
0000
,
1010
0100
0010
0000
0010
0100
0011
0000
1000
0010
0100
0000
1001
0000
0100
0000
,
0101
0010
0100
0000
0100
0010
1100
0000
0001
0100
0010
0000
1001
0000
0010
0000
,
0101
0000
1000
0010
0100
0000
0011
0000
0010
0000
0110
0000
1000
0001
0010
0000
,
1001
0000
0100
0010
0100
0000
1010
0000
0010
0000
0011
0000
1000
0100
1000
0000
,
0110
0000
0001
0010
0001
0000
0110
0000
0010
0000
1001
0000
0100
0001
0010
0000
,
1001
0000
0100
0010
0001
0000
1010
0000
0100
0000
1010
0000
0100
0010
0100
0000
,
1001
0000
1000
0000
1010
0000
0001
0100
0010
1000
0100
0010
0001
0000
0100
0000
,
0101
0000
0001
0000
1001
0000
0100
0010
0100
0001
0010
0100
1000
0000
0001
0000
,
1001
0000
0010
0000
1100
0000
0001
0010
0100
0010
0001
0100
0010
0000
1000
0000
,
1010
0000
0100
0000
0011
0000
1000
0010
0100
0001
0100
0010
1000
0000
0010
0000
,
1001
0000
0010
0000
0101
0000
1000
0100
0001
0100
1000
0010
0100
0000
0001
0000
,
0101
0000
1000
0000
0110
0000
1000
0010
1000
0010
0100
0001
0010
0000
1000
0000
,
1010
0000
0100
0000
0011
0000
1000
0010
0100
0001
1000
0100
0010
0000
0100
0000
,
0101
0000
0010
0000
1001
0000
0100
0010
0100
0001
0010
0001
0010
0000
1000
0000
,
1010
0000
0110
0000
0101
0000
1000
0100
0010
0001
1000
0010
0100
0000
0011
0000
,
1001
0000
0110
0000
1010
0000
0001
0010
0100
0010
0001
0100
0010
0000
1100
0000
,
1001
0000
0011
0000
0101
0000
1000
0100
0001
0100
1000
0100
0001
0000
0110
0000
,
1010
0000
0011
0000
0101
0000
0100
0010
0100
1000
0100
0010
0001
0000
1100
0000
,
1010
0000
1001
0000
0101
0000
1000
0100
0010
0001
0100
0010
0100
0000
0011
0000
,
1001
0000
0110
0000
1001
0000
0010
0100
1000
0001
0010
0100
1000
0000
0100
0000
,
0101
0011
1001
1010
1100
0110
0011
0101
,
1000
0001
1000
0001
1000
0001
1000
0001
1000
0001
1000
0001
1000
0001
1000
0001
,
2000
0000
0000
0000
,
0000
3000
0110
0000
0011
0000
1010
0000
,
0110
0000
0000
0000
0000
0011
0000
0000
0000
0000
0000
0000
1010
0000
0100
0000
,
1001
0000
0000
0000
0000
0000
1010
0010
,
0011
0000
0000
0000
0000
0110
0000
0000
0000
0000
0000
0000
1010
0000
0000
0000
,
1001
0000
0110
0000
0000
0000
0011
0010
,
1010
0000
0000
1100
0000
0000
0010
0100
,
0010
0100
0000
0100
0010
0000
0010
0100
,
1001
0100
0000
0000
0100
0000
0100
0010
,
0100
0001
0000
0100
0010
0000
0100
0010
,
0100
1000
0000
0100
0010
0000
0001
0100
,
0010
1000
0000
0010
0100
0000
1000
0100
,
0010
0001
0000
0010
0100
0000
1000
0010
,
1000
0010
0000
0100
0001
0000
0010
0100
,
0010
0001
0000
0010
1000
0000
0100
0010
,
0002
0000
0000
0000
0000
0000
0000
1003
,
1001
0100
0001
1000
0100
0001
0100
0010
,
1000
0100
0001
1000
0100
0001
0100
0010
,
0001
0010
1000
0001
0010
1000
0010
0100
,
0001
0010
1000
0001
0010
1000
0010
0100
,
1001
0100
0011
1000
0100
0011
0100
0011
,
1000
0100
0011
1000
0100
0011
0100
1010
,
0001
0010
1100
0001
0010
1100
0010
1100
,
0101
0010
1000
0101
0010
1000
0011
0100
,
1001
0100
0011
1000
0100
0011
1000
0110
,
0001
0010
1100
0001
0010
1100
0001
0110
,
1000
0100
0011
1000
0100
0011
1000
0110
,
1001
0010
0100
1001
0010
0100
1001
0010
,
1001
0100
0011
1000
0100
0011
1000
0110
,
0001
0010
1100
0001
0010
1100
0001
0010
,
1001
0011
0110
0011
1010
0110
0101
1100
,
2002
0000
0000
0000
0000
0000
0000
3003
,
1001
0000
0110
0000
0001
0010
0001
0000
0100
0010
0100
0000
1000
0010
0100
0000
,
1001
0000
1100
0000
0001
0010
0001
0000
1000
0010
0100
0000
0001
0010
0100
0000
,
1001
0000
0101
0000
1000
0010
0100
0000
0001
0100
0010
0000
1000
0100
1000
0000
,
0110
0000
1000
0010
0100
0000
0011
0000
0101
0000
0010
0100
0010
0000
1100
0000
,
1001
0000
0011
0000
1000
0010
0100
0000
0001
0010
0001
0000
1000
0100
0010
0000
,
1001
0000
1100
0000
0001
0010
0001
0000
0100
0010
0001
0000
1000
0010
0100
0000
,
1001
0000
0110
0000
0001
0010
0100
0000
0010
0100
0010
0000
1000
0100
0010
0000
,
1001
0000
0100
0001
0010
0000
1100
0000
1010
0000
0100
0010
0100
0000
0011
0000
,
1001
0000
0010
0001
0010
0000
1100
0000
0010
1000
0100
0000
0001
0010
0001
0000
,
0110
0000
1000
0100
1000
0000
0110
0000
0001
0100
0010
0000
1000
0010
0100
0000
,
1001
0000
0010
0001
0010
0000
0101
0000
0010
0100
1000
0000
0010
0100
0001
0000
,
1010
0000
0100
0001
0100
0001
0010
0000
1001
0000
0010
1000
0010
1000
0100
0000
,
1001
0000
0010
0100
1000
0000
0110
0000
1000
0100
0010
0000
0100
0001
0010
0000
,
1001
0000
0010
0001
0010
0000
0101
0000
0010
0100
0010
0000
1000
0100
1000
0000
,
0110
0000
0001
0100
0010
0000
1100
0000
0010
0100
0010
0000
1000
0010
0100
0000
,
1001
0000
0100
0010
0100
0010
1000
0000
0101
0000
0000
0001
0011
0000
0101
0000
,
1001
0100
0010
0001
0100
0010
1000
0010
0100
0001
0010
0100
1000
0010
0100
0001
,
0100
0010
1000
0001
0100
0001
0100
0010
1000
0010
0100
0001
1000
0100
0010
0001
,
0100
0010
1000
0100
1000
0001
0010
0100
0010
0001
1000
0100
0010
0100
1000
0010
,
0100
0010
0001
0010
0100
1000
0010
0100
1001
0000
0000
0000
1100
0000
1010
0000
,
1001
0010
0100
0010
0001
1000
0010
0100
0001
1000
0010
1000
0010
0100
0001
0100
,
0001
0100
0010
1000
0010
0100
0001
0100
0010
1000
0001
0010
0100
1000
0001
0100
,
0010
1000
0010
0100
0001
0010
0001
1000
0010
0100
0001
1000
0100
0010
0100
1000
,
0001
0010
0100
1000
0010
0100
0001
0010
1001
0000
0000
0001
0011
0000
0101
0000
,
1001
0100
0010
0001
0100
0010
1000
0010
0100
0001
0100
0010
0100
0001
0010
0100
,
1000
0001
0010
0100
0010
0001
1000
0010
1000
0010
0100
0001
0010
0100
0010
0001
,
0100
0010
0100
0001
0100
0001
0100
0010
1000
0010
0100
0001
1000
0100
0010
0001
,
0100
0010
1000
0100
1000
0001
0010
0100
1001
0000
0000
0000
1100
0000
1010
0000
,
1001
0010
0100
0010
0001
0100
0010
0100
1000
0001
0100
0010
1000
0001
0010
0100
,
1000
0010
0100
0001
0100
0010
1000
0001
0100
0001
0100
0010
1000
0100
0010
0001
,
1000
0001
1000
0001
1000
0001
1000
0001
1000
0001
1000
0001
1000
0001
1000
0001
,
0010
0100
0010
0100
0010
0100
0010
0100
0010
0100
0010
0100
0010
0100
0010
0100
,
2002
0000
0000
0000
,
0000
0000
0000
0000
,
3003
0000
0000
0000
;
