#TITLE:Love Me or Hate Me;
#SUBTITLE:;
#ARTIST:Lady Sovereign;
#TITLETRANSLIT:;
#SUBTITLETRANSLIT:;
#ARTISTTRANSLIT:;
#CREDIT:;
#BANNER:;
#BACKGROUND:;
#LYRICSPATH:;
#CDTITLE:;
#MUSIC:Love Me or Hate Me.ogg;
#OFFSET:-0.012;
#SAMPLESTART:15.981;
#SAMPLELENGTH:11.980;
#SELECTABLE:YES;
#BPMS:0.000=120.000;
#STOPS:176.000=1.000
;
#BGCHANGES:;
// cache tags:
#FIRSTBEAT:16.000;
#LASTBEAT:280.500;
#SONGFILENAME:Songs/SSSC Pack 2/Love Me - [Aoreo]/Love Hate.sm;
#HASMUSIC:1;
#HASBANNER:0;
#MUSICLENGTH:143.482;
// end cache tags

//---------------dance-single - J. Nero----------------
#NOTES:
     dance-single:
     J. Nero:
     Challenge:
     10:
     0.717,0.855,0.258,0.544,0.641,596.000,37.000,78.000,165.000,4.000:

0000
0000
0000
0000
,
0000
0000
0000
0000
,
0000
0000
0000
0000
,
0000
0000
0000
0000
,
1001
0001
1001
1000
1010
0000
0101
0000
,
1001
1001
0000
0110
0110
0000
0110
0000
,
0001
1000
0001
0000
1000
0000
0100
1000
,
0020
0230
0304
0000
,
1MM3
0000
0010
0100
0010
0000
M1MM
0000
0001
1000
0100
0000
0100
0000
0100
0000
,
1MMM
0000
0001
0010
0001
0000
10MM
0100
0000
0100
0000
0001
0100
0000
1000
0000
,
0M1M
1000
0010
0000
0100
0000
MM1M
0000
0000
0000
0220
0330
2200
0000
3300
0000
,
M10M
0010
0100
0000
0010
0000
1M1M
0000
0000
0000
2200
3300
0202
0303
0100
0000
,
1MMM
0000
0010
0100
0010
0000
M1MM
0000
0001
1000
0010
0000
0010
0000
0010
0000
,
1MMM
0000
0010
0100
0001
0000
10MM
0100
0000
0100
0000
0001
0100
0000
1000
0000
,
M01M
0100
0010
0000
0100
0000
MMM1
0000
0000
0000
0220
0330
2200
0000
3300
0000
,
M01M
0100
0010
0000
0100
0000
0001
0000
0000
0000
2222
3333
2222
3333
0000
0000
,
1000
0100
0010
0001
0010
0100
1000
0010
0100
0001
0010
0001
0010
0100
1000
0100
,
1000
0010
0100
0001
0010
0100
1000
0100
1000
0010
0100
0001
0010
0100
1000
0100
,
0010
0100
1000
0010
0100
0001
0010
0001
0100
0001
0010
0001
1000
0100
0010
0001
,
0010
0001
0100
0010
0100
0010
1000
0010
0100
0010
1000
0100
0010
0001
0100
0100
,
1000
0010
0100
0001
0010
0100
1000
0001
0010
0001
1000
0100
1000
0100
0010
0100
,
0001
0100
1000
0100
1000
0010
0100
0001
0010
0001
0100
0010
1000
0100
0010
0100
,
0001
0100
1000
0010
0100
0001
0010
0001
0010
0100
1000
0100
1000
0010
0001
0010
,
0001
0010
1000
0100
1000
0010
1000
0001
0100
0010
0001
0010
0001
0010
0100
1000
,
0200
0000
0000
0000
0310
0000
0100
0001
1000
0000
0100
1000
0000
0000
0100
0000
,
0000
0000
1000
0010
1000
0000
0010
0000
0100
0000
0001
0010
0000
0100
0000
1000
,
0000
0000
0010
0000
0100
0001
1000
1000
0010
0000
0100
0000
0001
0000
0010
0000
,
M100
010M
1M00
10M0
M01M
0M10
M22M
0000
,
0330
0000
0100
0000
0001
1000
0100
0000
1000
0010
0000
0100
0000
0000
0001
0010
,
0100
0000
1000
0000
0100
0000
1000
0000
0010
0010
0100
0001
0000
0000
2000
0000
,
3002
0000
0013
0000
0100
1000
0010
0000
0100
0000
0001
1000
0000
0000
0100
0000
,
100M
10M0
M010
0M10
01M0
010M
0M01
M001
,
000M
0000
2000
0000
0000
0000
0000
3000
0010
0000
0100
0001
1000
0000
0100
0000
,
1000
0010
1000
0000
0001
0000
0100
0010
0100
0001
1000
0000
0001
0000
0200
0000
,
2300
0000
3100
0010
0000
0010
0000
0000
1000
0100
0000
0100
0010
0000
0002
0000
,
0203
0000
0000
0000
0000
0000
0000
0000
0001
0000
0000
0000
0000
0000
0000
0300
0100
0000
0000
0000
0000
0000
0000
0000
0000
0000
0000
0000
0000
0000
0000
0000
0001
0000
0000
0000
0000
0000
0000
0000
0010
0000
0000
0000
0100
0000
0000
0000
1000
0000
0000
0000
0000
0000
0000
0000
0100
0000
0000
0000
0000
0000
0000
0000
,
1MMM
0000
0100
0010
0100
0000
MM1M
0000
0001
1000
0010
0000
0010
0000
0010
0000
,
M1MM
0000
0001
1000
0100
0000
10MM
0100
0000
0100
0000
0001
0100
0000
1000
0000
,
M01M
0100
0010
0000
0100
0000
MMM1
0000
0000
0000
0202
0303
2200
0000
3300
0000
,
M10M
0010
0100
0000
0001
0000
1MMM
0000
0000
0000
2200
3300
0202
0000
0303
0000
,
M1MM
0000
1000
0010
0100
0000
MMM1
0000
0010
0100
1000
0000
1000
0000
1000
0000
,
MMM1
0000
0100
0010
0100
0000
M0M1
0100
0000
0100
0000
1000
0100
0000
0010
0000
,
10MM
0100
1000
0000
0001
0000
MM1M
0000
0000
0000
0022
0033
2020
0000
3030
0000
,
MM10
0001
0010
0000
0001
0000
1MMM
0000
0000
0000
2020
3030
0022
0000
0033
0000
,
0110
0000
0000
0200
0302
0003
0100
0100
,
0000
0001
1000
0200
2300
3000
0010
0010
,
1000
0000
0001
0100
0001
0000
0100
0000
0010
0000
1000
0000
0100
0000
0020
0000
,
0000
0001
0001
0001
0034
0003
0000
1000
,
0001
0000
0100
0010
0100
0000
0001
0000
1000
0100
1000
0010
0000
0100
0010
0000
,
0100
0000
0001
0010
0100
0000
1000
0010
0000
0010
0000
0100
0001
0000
0010
0000
,
0001
0000
0010
0100
0000
0100
0000
0000
1000
0000
0100
0000
0010
0000
0100
0000
,
0001
0000
0100
0000
1000
0000
0001
0000
0100
0001
0010
0100
1000
0010
0100
0010
,
0000
1000
0010
1000
0100
1000
0001
0100
0010
0000
0100
0010
1000
0000
0001
0000
,
0010
0000
0001
0010
0100
0100
1000
0000
0100
1000
0010
1000
0100
0000
0000
1000
,
0001
1000
0010
0000
0000
1000
0100
0010
0100
1000
0010
0100
0001
0000
0000
0100
,
0001
0000
0010
0100
1000
0010
0100
0000
0002
0000
0003
0000
1000
0000
0000
0100
,
0010
0100
0000
1000
0001
0000
0200
0000
0320
0000
1030
0100
0000
1000
0000
0001
,
0100
0001
0000
1000
0010
0000
0200
0000
0302
0000
0013
0100
0000
0100
0000
0000
,
1000
0010
0000
0010
0100
0000
0001
0000
MMMM
0000
1000
0000
0010
0000
0100
0000
,
0001
0010
0000
0010
0100
0000
1000
0000
MM1M
0000
1000
0100
1000
0000
MM1M
0000
,
0100
0001
0100
0000
0100
0000
0100
0000
MM1M
0000
1000
0001
0100
0000
M01M
0100
,
0000
0100
0000
1000
0100
0000
0001
0000
M01M
0100
1000
0000
0010
0000
M1MM
0000
,
0000
0000
0220
0330
2200
0000
3300
0000
M10M
0010
0100
0000
0001
0000
MM1M
0000
,
0000
0000
0022
0033
2020
0000
3030
0000
MM1M
0000
0001
0100
0010
0000
1MMM
0000
,
0100
1000
0100
0000
0100
0000
0100
0000
1MMM
0000
0001
0100
0001
0000
M01M
0100
,
0000
0100
0000
0001
0100
0000
1000
0000
M01M
0100
0010
0000
1000
0000
MM1M
0000
,
0000
0000
0220
0330
2200
3300
0000
0000
M1M0
0001
0100
0000
0001
0000
1MMM
0000
,
0000
0000
2222
3333
2222
3333
0000
0000
M000
0000
M000
0000
0M00
0000
0M00
0000
,
00M0
00M0
000M
000M
00M0
00M0
0M00
0M00
,
M000
M000
00M0
00M0
0M00
0M00
000M
000M
,
M000
M000
0000
0000
0000
0000
0000
0000
;
