#TITLE:RED ZONE;
#SUBTITLE:;
#ARTIST:Tatsh & NAOKI;
#TITLETRANSLIT:;
#SUBTITLETRANSLIT:;
#ARTISTTRANSLIT:;
#CREDIT:;
#BANNER:redzone.png;
#BACKGROUND:redzone-bg.png;
#LYRICSPATH:;
#CDTITLE:!skorTitle.png;
#MUSIC:REDZONE.mp3;
#OFFSET:-0.458;
#SAMPLESTART:36.124;
#SAMPLELENGTH:12.000;
#SELECTABLE:YES;
#BPMS:0.000=165.000;
#STOPS:;
#BGCHANGES:;
// cache tags:
#FIRSTBEAT:12.000;
#LASTBEAT:284.000;
#SONGFILENAME:Songs/StepmaniaFreak's Favorites/RED ZONE v2 [Skor]/RED ZONE.sm;
#HASMUSIC:1;
#HASBANNER:1;
#MUSICLENGTH:107.702;
// end cache tags

//---------------dance-single - ----------------
#NOTES:
     dance-single:
     :
     Hard:
     11:
     1.000,1.000,1.000,0.046,1.000,760.000,133.000,5.000,0.000,0.000:
0000
0000
0000
0000
,
0000
0000
0000
0000
,
0000
0000
0000
0000
,
0100
0010
0100
0010
0100
0000
1000
0001
0000
1000
0001
0000
0010
0001
0100
0001
,
1001
0100
0000
1000
0100
0000
0001
0100
0000
1000
0100
0000
0001
0000
0010
0000
,
1000
0100
1000
0001
0010
0001
0100
0001
0010
0100
1000
0010
1002
1000
0000
1000
,
1003
0100
0000
0010
0100
0000
0001
0100
0000
0010
0100
0000
0001
0000
0001
0000
,
0010
0000
0000
0100
0000
0000
1000
0000
0000
0001
0000
0000
0100
0000
0000
1000
0000
0000
0001
0000
0000
0010
0000
0000
1001
0000
0000
0000
0000
0000
0110
0000
0000
0000
0000
0000
1001
0000
0000
0000
1001
0000
0000
0000
1001
0000
0000
0000
,
0110
0001
0000
0010
1000
0000
0010
0001
0000
0010
1000
0000
0010
0000
0010
0000
,
1000
0010
1000
0001
0100
0010
0100
0001
0010
0100
0010
0001
1000
0100
0010
0100
,
1000
0001
0000
0100
0001
0000
0010
0001
0000
0100
0001
0100
0010
0000
1000
0010
,
0000
1000
0000
0000
1000
0001
1000
0010
0100
0010
1000
0001
0100
0001
0010
0100
,
1000
0011
0100
0011
1000
1010
0100
1010
,
0100
1001
0100
1001
0010
0101
0010
0101
,
1000
0100
0000
0001
0100
0000
1000
0010
0000
0001
0010
0000
1000
0100
0010
0000
,
0001
0100
0010
1000
0100
0010
0001
0100
0001
0010
0100
1000
0100
0010
0001
0100
,
0001
0011
1000
0011
0100
1010
0001
1010
,
0010
0101
1000
0101
0100
1100
0001
1100
,
1000
0100
1001
0010
0100
0000
1001
0100
0000
0100
1001
0000
0010
0100
1001
0000
,
2002
0000
0000
0000
0000
0000
3003
0000
0001
0010
0100
1000
0010
0100
0001
1000
,
0001
0001
0100
0000
0010
0000
0100
0000
0001
0001
0100
0010
0000
0100
0001
0100
,
0010
0010
1000
0000
0100
0000
0010
0000
0001
0001
1000
0100
0000
1000
0010
0100
,
0001
0001
0100
0000
0010
0000
1000
0000
0100
0100
0010
0001
0000
0000
0100
0000
,
0010
1000
0001
1000
0010
0000
0100
0000
0001
1000
0100
0000
0010
0001
0100
0010
,
1000
1000
0100
0000
0010
0000
0001
0000
0100
0100
0001
0010
0000
0100
1000
0100
,
0010
0010
0001
0000
0100
0000
0001
0000
0010
0010
0100
1000
0000
0010
0100
0001
,
0010
0010
0100
0000
1000
0000
0010
0000
0100
0100
0001
1000
0000
0000
0100
0000
,
0010
0001
1000
0001
0010
0000
0100
0000
1000
0010
1000
0000
0100
0000
0010
0000
,
1001
0000
1100
0000
0011
0000
1001
0101
0000
1010
0000
1100
1001
0000
0011
0000
,
1000
0000
0010
0000
0100
0001
0000
0100
0010
0000
0100
1000
0000
0000
0100
0000
,
0101
0000
1001
0000
0011
0000
1100
1001
0000
1010
0000
0110
0101
0000
1001
0000
,
1000
0010
0100
0001
0010
0100
1000
0010
0100
0001
0010
0100
1000
0001
0010
0000
,
1001
0000
0110
0000
1001
0000
0110
1100
0000
0011
0000
1100
0110
0000
1001
0000
,
0100
0001
0100
0010
0000
0100
1000
0000
0100
0010
0000
0100
0001
0000
0100
0010
,
1001
0000
0110
0000
0100
1000
0001
0000
0101
0000
0010
1000
0001
0000
1100
0000
,
0010
0000
0101
0000
0010
1000
0001
0000
0011
0100
0010
1001
0000
0010
1100
0000
,
1001
0000
0100
0000
0010
0000
0000
0001
0100
0000
0001
0000
0010
0000
0100
0000
,
1000
0000
0011
0000
0100
0000
1001
0010
1000
0000
0101
1000
0001
0000
0010
0000
,
1100
0000
0010
0000
0100
0000
0000
0001
0010
0000
0100
0000
1000
0000
0010
0000
,
0100
0000
1010
0000
0100
0000
1000
0100
0011
0000
1001
0000
0101
0000
1000
0000
,
1010
0100
1001
0010
0101
0001
1100
0010
,
0101
1000
0101
0010
1100
0001
0110
0001
,
1100
0010
1001
1000
0110
0010
1001
1000
,
0001
0100
0010
1000
0100
0010
0001
0100
0001
0010
0100
1000
0010
0100
0001
1000
,
0001
0001
0100
0000
0010
0000
1000
0000
0100
0100
0010
0001
0000
0100
0010
1000
,
0100
0100
0010
0000
0001
0000
1000
0000
0010
0010
0100
0001
0000
1000
0100
1000
,
0010
0010
0100
0000
0001
0000
0010
0000
0100
0100
1000
0001
0000
0000
0100
0000
,
0010
1000
0001
1000
0010
0000
0100
0000
0001
1000
0010
0000
0100
0001
0010
0100
,
1000
1000
0100
0000
0010
0000
0001
0000
0100
0100
0010
1000
0000
0100
0010
0001
,
1000
1000
0010
0000
0100
0000
0001
0000
0010
0010
0100
1000
0000
0001
0100
0001
,
0010
0010
0100
0000
1000
0000
0010
0000
0100
0100
0001
0010
0000
0000
0100
0000
,
1000
0100
0010
0100
1000
0000
0100
0000
0010
0001
1000
0000
0010
0000
0100
0000
,
1001
0000
0110
0000
1001
0000
0110
1100
0000
0011
0000
1100
0110
0000
1001
0000
,
1000
0000
0010
0000
0100
0001
0000
0100
0010
0000
0100
1000
0000
0000
0100
0000
,
1010
0000
1100
0000
0011
0000
0101
1001
0000
1010
0000
1100
0011
0000
1001
0000
,
1000
0100
0001
1000
0100
0001
1000
0100
0001
1000
0010
0001
0010
1000
0000
0000
,
1001
0000
1100
0000
0011
0000
0101
1010
0000
1001
0000
1100
0011
0000
1001
0000
,
1000
0010
0001
0010
0000
1000
0100
0000
0001
0100
0000
1000
0010
0000
0001
0010
,
1001
0000
0101
0000
0010
1000
0001
0000
1100
0000
0001
0010
0100
0000
1000
0000
,
0010
0000
0101
0000
0010
1000
0100
0000
0011
0100
1000
0110
0000
0001
1100
0000
,
2002
0000
0000
0000
0000
0000
0000
3003
,
1000
0100
0010
0100
1000
0001
0010
0100
1000
0100
0010
0001
0100
0010
0100
0001
,
1000
0010
0100
0001
0100
0010
1000
0001
1000
0100
0010
0001
1000
0010
0100
0001
,
1000
0010
0100
0001
0001
0010
0100
1000
1000
0001
0100
0010
0010
0100
0001
0100
,
0010
1000
0001
0010
0010
0100
1000
0010
0100
0001
0010
0100
1000
0010
0100
0001
,
1000
0100
1000
0100
0010
0100
0001
0100
1000
0100
1000
0100
0010
0100
0001
0100
,
1000
0010
1000
0010
0100
0010
0100
0001
1000
0100
0010
0001
1000
0010
0100
0001
,
1000
0100
0001
1000
0010
0001
0100
0001
1000
0100
0001
1000
0010
0001
0100
1000
,
0001
0010
1000
0100
0010
1000
0001
0100
1000
0100
0010
0001
0100
0010
1000
0001
,
0110
0000
0000
1001
0000
0000
0110
0000
0000
0000
0011
0000
1100
0000
0011
0000
,
1100
0000
0000
1010
0000
0000
0101
0000
0000
0000
1010
0000
1100
0000
0101
0000
,
0011
0000
0000
0000
;
