#TITLE:GENOM SCREAMS;
#SUBTITLE:(IVKAS Style);
#ARTIST:L.E.D. LIGHT;
#TITLETRANSLIT:;
#SUBTITLETRANSLIT:;
#ARTISTTRANSLIT:;
#CREDIT:;
#BANNER:GENOM SCREAMS.png;
#BACKGROUND:GENOM SCREAMS-bg.png;
#LYRICSPATH:;
#CDTITLE:!dmTitle.png;
#MUSIC:GENOM SCREAMS.mp3;
#OFFSET:-0.033;
#SAMPLESTART:51.230;
#SAMPLELENGTH:11.980;
#SELECTABLE:YES;
#DISPLAYBPM:150.000;
#BPMS:0.000=150.000;
#STOPS:;
#BGCHANGES:;
// cache tags:
#FIRSTBEAT:8.000;
#LASTBEAT:192.000;
#SONGFILENAME:Songs/Ace Megapack/GENOM SCREAMS Ivkas/GENOM SCREAMS.sm;
#HASMUSIC:1;
#HASBANNER:1;
#MUSICLENGTH:78.184;
// end cache tags

//---------------dance-single - ----------------
#NOTES:
     dance-single:
     :
     Beginner:
     1:
     0.166,0.215,0.090,0.000,0.000,84.000,7.000,0.000,0.000,0.000:
0000
0000
0000
0000
,
0000
0000
0000
0000
,
0000
0000
0000
0000
,
0000
0000
0000
0000
,
1000
0000
1000
0000
,
0010
0000
0010
0000
,
0001
0001
0000
0000
,
1000
1000
0000
0000
,
0001
0001
0000
0000
,
0100
0100
0100
0000
,
1000
1000
0000
0000
,
0001
0001
0000
0000
,
1000
1000
0000
0000
,
0100
0100
0100
0000
,
0010
0000
0010
0000
,
0100
0000
0100
0000
,
0001
0000
1000
0000
,
0100
0000
0100
0000
,
0000
0000
0000
0000
,
0000
0000
0000
0000
,
0000
0100
0000
0100
,
0000
0100
0000
0100
,
0000
1000
0000
1000
,
0000
1000
0000
1000
,
0000
0001
0000
0001
,
0000
0001
0000
0001
,
0000
0010
0000
0010
,
0000
0010
0000
0010
,
0000
1000
0000
1000
,
0000
0001
0000
0001
,
0000
0000
0000
0000
,
0000
0000
0000
0000
,
0000
0100
0000
0100
,
0000
0001
0000
0001
,
0000
1000
0000
1000
,
0000
0010
0000
0010
,
0000
0100
0000
0100
,
0000
0001
0000
0001
,
0000
1000
0000
1000
,
0000
0010
0000
0010
,
0000
0110
0000
0100
,
0000
0110
0000
0100
,
0000
0110
0000
0100
,
0000
0100
0100
0100
,
0000
1001
0000
1000
,
0000
1001
0000
0001
,
0000
1001
0000
1000
,
0000
1001
0000
0001
,
0001
0000
0000
0000
;

//---------------dance-single - ----------------
#NOTES:
     dance-single:
     :
     Hard:
     10:
     0.937,1.000,1.000,0.627,1.000,374.000,90.000,49.000,0.000,0.000:
0000
0000
0000
0000
,
0000
0000
0000
0000
,
2002
0000
0000
0000
,
0000
0000
0000
0003
,
0001
0001
0001
3001
,
1100
1100
0011
0011
,
1000
0100
0000
0100
0000
1000
0100
0000
1000
0100
0000
0100
0000
1000
0100
0000
,
0001
0010
0000
0010
0000
0001
0010
0000
0001
0010
0000
0010
0000
0001
0010
0000
,
0010
0100
0000
0100
0000
0010
0100
0000
0010
0100
0000
0100
0000
0010
0100
0000
,
0001
1000
0000
1000
0000
0001
1000
0000
0001
1000
0000
1000
0000
0001
1000
0000
,
2000
3200
2300
3020
0230
0302
0203
0300
,
0002
0203
0320
2030
3200
0320
0032
0003
,
0020
0230
0302
2003
3200
0320
0032
0003
,
2000
3200
0320
0230
2300
3020
0230
0300
,
1100
0000
1001
0000
0000
0000
0001
0000
0001
0000
0001
0000
0001
0001
0001
0000
,
0011
0000
1001
0000
0000
0000
1000
0000
1000
0000
1000
0000
1000
1000
1000
0000
,
1001
0000
1010
0000
0000
0000
0010
0000
0010
0000
0010
0000
0010
0010
0010
0000
,
0110
0000
1001
0000
0000
0000
0100
0000
0100
0000
0100
0000
0100
0100
0100
0000
,
0200
0000
0000
0000
,
0000
0000
0000
0300
,
1001
0000
1000
2000
0000
0001
0002
0000
3000
0000
1000
2003
0000
0001
0002
0000
,
3000
0000
1000
2003
0000
0001
0002
0000
3000
0000
1000
2003
0000
0001
0002
0000
,
3000
0000
0010
0023
0000
0100
0200
0000
0030
0000
0010
0320
0000
0100
0200
0000
,
0030
0000
0010
0320
0000
0100
0200
0000
0030
0000
0010
0320
0000
0200
0000
0000
,
0030
0000
0010
0310
0000
0110
0110
0000
0000
0000
1001
1001
0000
1001
1001
0000
,
0000
0000
1001
1001
0000
1001
1001
0000
0000
0000
1100
1100
0000
1100
1100
0000
,
0000
0000
0011
0011
0000
0011
0011
0000
0000
0000
1010
1010
0000
0101
0101
0000
,
0000
0000
0011
0011
0000
1100
1100
0000
0000
0000
1010
1100
0000
1100
1010
0000
,
0000
0000
0011
0101
0000
0101
0011
0000
0000
0000
1100
1001
0000
0011
1001
0000
,
0000
0000
1010
0011
0000
0101
1100
0000
0000
0000
1100
0101
0000
0011
1010
0000
,
2002
0000
0000
0003
,
3001
0000
1000
0000
0100
0000
0010
0000
0001
0000
1000
0000
0100
0000
0010
0000
0001
1000
0100
0010
0001
1000
0100
0010
0001
1000
0100
0010
0001
1000
0100
0010
,
0001
0100
0000
0100
0000
0001
0100
0000
1000
0010
0000
0010
0000
0100
0001
0000
,
0001
0010
0000
0010
0000
0100
1000
0000
1000
0100
0000
0100
0000
1000
0010
0000
,
1000
0100
0000
0010
0000
1000
0100
0000
0001
0100
0000
0010
0000
0010
1000
0000
,
0001
0100
0000
0100
0000
0010
1000
0000
1000
0100
0000
0100
0000
0010
0001
0000
,
1000
1000
0000
1000
0000
1000
1000
0000
0100
0100
0000
0100
0000
0100
0100
0000
,
0010
0010
0000
0010
0000
0010
0010
0000
0001
0001
0000
0001
0000
0001
0001
0000
,
1000
1000
0000
1000
0000
1000
1000
0000
0100
0100
0000
0100
0000
0100
0100
0000
,
0010
0010
0000
0010
0000
0010
0010
0000
0001
0001
0000
0001
0000
0001
0001
0000
,
1100
0000
0000
0110
0000
0000
0011
0000
0000
1000
0100
1000
0100
1000
0100
1000
,
1100
0000
0000
0110
0000
0000
0011
0000
0000
0001
0010
0001
0010
0001
0010
0001
,
0011
0000
0000
0110
0000
0000
1100
0000
0000
0100
0010
0001
1000
0100
0010
0001
,
1100
0000
0000
0110
0000
0000
0011
0000
1100
0000
1010
0000
0001
0100
0001
0100
,
0101
0000
0000
0110
0000
0000
1100
0000
0000
0001
0100
0010
1000
0100
0010
0001
,
0011
0000
0000
0110
0000
0000
1100
0000
0000
1000
0010
0100
0001
0100
0010
0100
,
0101
0000
0000
0110
0000
0000
1010
0000
0000
0001
0010
0100
1000
0100
0010
0001
,
1001
0000
0000
0110
0000
0000
1001
0000
0110
0000
1001
0000
0100
0010
0100
0010
,
1001
0000
0000
0000
;
