#TITLE:Armored Armadillo;
#SUBTITLE:MegaMan X1;
#ARTIST:Capcom;
#TITLETRANSLIT:;
#SUBTITLETRANSLIT:;
#ARTISTTRANSLIT:;
#CREDIT:;
#BANNER:Armored Armadillo.png;
#BACKGROUND:Armored Armadillo-bg.png;
#LYRICSPATH:;
#CDTITLE:cdtitle.png;
#MUSIC:Armored Armadillo.mp3;
#OFFSET:1.640;
#SAMPLESTART:41.052;
#SAMPLELENGTH:11.880;
#SELECTABLE:YES;
#BPMS:0.000=140.540;
#STOPS:;
#BGCHANGES:;
// cache tags:
#FIRSTBEAT:4.000;
#LASTBEAT:258.250;
#SONGFILENAME:Songs/VGMP 2/Armored Armadillo (Zaghurim)/Armored Armadillo.sm;
#HASMUSIC:1;
#HASBANNER:1;
#MUSICLENGTH:114.498;
// end cache tags

//---------------dance-single - ----------------
#NOTES:
     dance-single:
     :
     Hard:
     12:
     1.000,1.000,1.000,0.227,1.000,786.000,338.000,26.000,0.000,0.000:

0000
0000
0000
0000
,
1100
0000
1010
0000
0101
0000
0011
0000
0000
0011
0000
0000
0011
0000
0011
0000
,
0000
0101
0000
0000
0110
0000
1010
0100
0010
0001
0000
0010
0000
0100
0000
0000
,
1000
0000
0100
1000
0101
0010
1001
0010
0000
1001
0000
0100
0001
0010
0001
0000
,
0000
0010
0000
0000
0100
0000
1000
0000
1000
0100
0010
0001
0010
0100
0010
0000
,
1001
0010
0101
1010
0101
0010
1001
0100
0000
1001
0000
0100
1010
0001
1010
0000
,
0000
0010
0000
0000
0100
0000
1010
0100
0000
0100
0000
0001
0000
0010
0000
0000
,
1000
0000
0100
1000
0101
0010
0101
0010
0000
1001
0000
0100
1001
0010
0001
1100
,
0000
0010
1001
0000
0101
0010
1001
0000
0100
1001
0000
0000
0000
0000
0011
1100
,
0011
0100
1010
0001
1010
0101
1000
0010
0101
1010
0100
0011
1000
0101
0011
1000
,
0101
0110
1000
0110
0101
1010
0011
0100
0011
0100
1010
0001
1100
0010
0001
0100
,
0010
0001
0100
0010
0001
0010
1000
0001
0110
1001
0100
0011
1000
0101
0110
1000
,
0110
0101
1000
0101
1010
0101
1001
0100
0011
0100
1010
0001
1100
0010
0001
0100
,
0010
0001
0100
0010
0001
0010
1000
0100
0011
1001
0100
0011
1000
0101
0110
1000
,
0110
0101
1000
0101
0110
1001
0101
0010
1001
0100
1010
0001
1100
0010
0001
0100
,
0010
0001
0100
0010
0001
0010
1000
0100
0011
1010
0100
0011
1000
0101
0110
1000
,
0110
0101
1000
0101
1010
0110
1001
0100
0011
1001
0110
0001
1100
0010
1001
0100
,
0010
0001
1100
0010
0001
0010
1001
0000
1001
0110
0000
1010
0101
0010
1001
0000
,
1100
0001
0010
0100
1001
0000
0101
0000
1010
0001
0100
0001
1010
0000
0100
0000
,
0010
0001
0000
0001
0010
0000
1001
0000
1100
0001
0010
0001
0110
0000
1010
0000
,
0110
0001
0100
0010
0101
0000
1010
0000
1100
0011
1000
0011
1100
0010
1001
0100
,
1010
0101
0010
0101
1010
0100
1001
0000
0101
1000
0010
1000
0101
0000
0011
0000
,
0101
1000
0010
1000
0101
0000
0011
0000
0110
0001
1000
0001
0110
0000
1000
0000
,
1000
0010
0000
0010
1001
0000
0101
0000
1010
0001
0100
0001
1010
0000
1001
0000
,
1010
0001
0100
0001
1100
0000
0011
0000
1000
0101
0000
0010
1001
0000
0001
0000
,
1001
0010
0101
1000
0011
0100
1000
0010
0101
1000
0100
0010
1001
0100
0010
0001
,
1100
0010
0001
1000
0101
0010
0001
0010
1100
0001
0010
0100
1001
0010
0100
0001
,
1010
0100
0001
0010
1100
0000
1001
0010
0101
0010
0100
1000
0011
0100
1000
0010
,
0101
1000
0010
0100
1001
0000
0110
0000
0101
1010
0100
1000
0001
0000
0021
0000
,
0000
0001
0100
0032
0100
0000
2003
0000
,
0001
3200
0320
0032
0023
0230
2300
3002
,
0203
0000
0320
0000
2030
0000
3001
0000
0110
0001
0000
0010
1001
0000
0001
1100
,
0000
0010
1001
0000
0101
0001
1001
0000
0010
1001
0000
0000
0000
0000
0000
0000
,
0011
0000
0101
0000
1010
0000
1100
0000
0000
1100
0000
0000
1100
0000
1100
0000
,
0000
1010
0000
0000
0110
0000
0101
0010
0100
1000
0000
0100
0000
0010
0000
0000
,
0001
0000
0010
0001
1010
0100
1001
0100
0000
1001
0000
0010
1000
0100
1000
0000
,
0000
0100
0000
0000
0010
0000
0001
0000
0001
0010
0100
1000
0100
0010
0100
0000
,
1001
0100
1010
0101
1010
0100
1001
0010
0000
1001
0000
0010
0101
1000
0101
0000
,
0000
0100
0000
0000
0010
0000
0101
0010
0000
0010
0000
1000
0000
0100
0000
0000
,
0001
0000
0010
0001
1010
0100
1010
0100
0000
1001
0000
0010
1001
0100
1000
0011
,
0000
0100
1001
0000
1010
0100
1001
0000
0010
1001
0000
0000
0000
0000
1100
0011
,
1100
0010
0101
1000
0101
1010
0001
0100
1010
0101
0010
1100
0001
1010
1100
0001
,
1010
0110
0001
0110
1010
0101
1100
0010
1100
0010
0101
1000
0011
0100
1000
0010
,
0100
1000
0010
0100
1000
0100
0001
1000
0110
1001
0010
1100
0001
1010
0110
0001
,
0110
1010
0001
1010
0101
1010
1001
0010
1100
0010
0101
1000
0011
0100
1000
0010
,
0100
1000
0010
0100
1000
0100
0001
0010
1100
1001
0010
1100
0001
1010
0110
0001
,
0110
1010
0001
1010
0110
1001
1010
0100
1001
0010
0101
1000
0011
0100
1000
0010
,
0100
1000
0010
0100
1000
0100
0001
0010
1100
0101
0010
1100
0001
1010
0110
0001
,
0110
1010
0001
1010
0101
0110
1001
0010
1100
1001
0110
1000
0011
0100
1001
0010
,
0100
1000
0011
0100
1000
0100
1001
0000
1001
0110
0000
0101
1010
0100
1001
0000
,
0011
1000
0100
0010
1001
0000
1010
0000
0101
1000
0010
1000
0101
0000
0010
0000
,
0100
1000
0000
1000
0100
0000
1001
0000
0011
1000
0100
1000
0110
0000
0101
0000
,
0110
1000
0010
0100
1010
0000
0101
0000
0011
1100
0001
1100
0011
0100
1001
0010
,
0101
1010
0100
1010
0101
0010
1001
0000
1010
0001
0100
0001
1010
0000
1100
0000
,
1010
0001
0100
0001
1010
0000
1100
0000
0110
1000
0001
1000
0110
0000
0001
0000
,
0001
0100
0000
0100
1001
0000
1010
0000
0101
1000
0010
1000
0101
0000
1001
0000
,
0101
1000
0010
1000
0011
0000
1100
0000
0001
1010
0000
0100
1001
0000
1000
0000
,
1001
0100
1010
0001
1100
0010
0001
0100
1010
0001
0010
0100
1001
0010
0100
1000
,
0011
0100
1000
0001
1010
0100
1000
0100
0011
1000
0100
0010
1001
0100
0010
1000
,
0101
0010
1000
0100
0011
0000
1001
0100
1010
0100
0010
0001
1100
0010
0001
0100
,
1010
0001
0100
0010
1001
0000
0110
0000
1010
0101
0010
0001
1000
0000
1200
0000
,
0000
0001
0010
2300
0010
0000
3002
0000
,
1000
0023
0230
2300
3200
0320
0032
2003
,
3020
0000
0230
0000
0302
0000
0013
0000
0110
1000
0000
0100
1001
0000
1000
0011
,
0000
0100
1001
0000
1010
1000
1001
0000
0100
1001
0000
0000
0000
0000
0000
0000
;
