#TITLE:Delirium;
#SUBTITLE:EXoduz Violation II;
#ARTIST:Smile;
#TITLETRANSLIT:;
#SUBTITLETRANSLIT:;
#ARTISTTRANSLIT:Smiley;
#CREDIT:;
#BANNER:../banner.png;
#BACKGROUND:../background.png;
#LYRICSPATH:;
#CDTITLE:;
#MUSIC:Delirium.ogg;
#OFFSET:-0.037;
#SAMPLESTART:64.820;
#SAMPLELENGTH:11.830;
#SELECTABLE:YES;
#DISPLAYBPM:163.000;
#BPMS:0.000=163.000,217.000=326.000,219.000=163.000;
#STOPS:208.000=0.368
,209.000=0.368
,210.000=0.368
,211.000=0.368
,216.000=0.368
,217.000=0.368
;
#BGCHANGES:;
// cache tags:
#FIRSTBEAT:0.000;
#LASTBEAT:319.000;
#SONGFILENAME:Songs/EXoduz Violation II/Delirium - [Ov3rHell3XoduZ]/Delirium.sm;
#HASMUSIC:1;
#HASBANNER:1;
#MUSICLENGTH:123.615;
// end cache tags

//---------------dance-single - C. Foy----------------
#NOTES:
     dance-single:
     C. Foy:
     Beginner:
     12:
     1.000,1.000,0.000,0.510,1.000,931.000,0.000,63.000,0.000,0.000:

1000
0100
1000
0010
0100
0001
0010
0100
1000
0001
0100
0001
1000
0100
0010
0100
,
1000
0010
0100
0001
0010
0001
1000
0100
0010
0001
1000
0001
0100
0001
0010
0100
,
1000
0010
0100
0010
1000
0100
0010
0001
1000
0001
0100
0001
0010
0001
0010
0100
,
1000
0010
0100
0010
1000
0100
0010
0001
1000
0001
0100
0001
0010
0100
1000
0001
,
2000
0000
3200
0000
0320
0000
0031
1000
,
0020
0000
0000
0000
0230
0000
0000
0000
0302
0000
0000
0013
0100
0000
1000
0001
,
0100
0010
1000
0100
1000
0010
0100
0001
0010
0001
1000
0100
0010
0001
1000
0001
,
1000
0100
1000
0010
0100
0001
0010
0001
1000
0100
0010
0001
1000
0001
0100
0001
,
0010
0100
1000
0001
0100
0001
1000
0100
,
0010
0100
1000
0010
0100
0001
0010
0001
,
1000
0100
1000
0001
0100
0010
1000
0001
,
0010
0100
1000
0001
0100
0001
1000
0001
,
1000
0100
0010
0100
1000
0010
0100
0010
,
1000
0100
0010
0001
1000
0001
0100
0001
,
0010
0100
1000
0010
0100
0001
1000
0100
,
1000
0001
0100
0010
1000
0001
0010
0100
,
1000
0100
0010
0001
0010
0001
1000
0010
0100
0001
0100
0001
0010
0100
1000
0010
,
0100
0010
1000
0100
1000
0100
0010
0001
1000
0001
0100
0001
0010
0100
1000
0001
,
1000
0100
1000
0010
0100
0001
0010
0001
0010
0100
1000
0010
0100
0010
1000
0100
,
0010
0001
1000
0001
0100
0001
0100
0001
0010
0100
1000
0010
1000
0010
0100
0001
,
1000
0100
1000
0010
0100
0001
0010
0100
,
0010
0000
0001
0000
1000
0000
0001
0000
1000
0000
0000
0001
0100
0000
0010
1000
,
0100
0010
0001
1000
0001
0100
0001
0010
,
0100
0000
1000
0000
0010
0000
0100
0000
0001
0000
0000
1000
0100
0000
0010
0001
,
1000
0001
0100
0001
0010
0100
1000
0010
,
0100
0000
0010
0000
1000
0000
0100
0000
0010
0000
0000
0001
0100
0000
0010
1000
,
0100
0010
0001
0100
0001
0010
0100
1000
,
0010
0000
0100
0000
0001
0000
1000
0000
0100
0010
0001
1000
0001
0100
0001
0010
,
0100
1000
0001
0100
0001
1000
0100
0010
,
0001
0000
1000
0000
0010
0000
0100
0000
0001
0000
0000
0010
0100
0000
1000
0001
,
0100
0010
1000
0100
0010
0100
1000
0010
,
0100
0000
0001
0000
1000
0000
0001
0000
0010
0000
0000
0100
1000
0000
0010
0100
,
0001
1000
0100
1000
0010
0100
0001
0010
,
0100
0000
0010
0000
0001
0000
1000
0000
0001
0000
0000
1000
0100
0000
0010
0001
,
1000
0100
1000
0010
0100
0001
0010
0001
,
1000
0000
0100
0000
1000
0000
0010
0000
0100
0001
1000
0100
1000
0010
0100
0001
,
1000
0100
0010
0001
1000
0010
1000
0010
0100
0001
0010
0001
0010
0100
1000
0010
,
0100
0010
1000
0100
1000
0001
0100
0001
0100
0010
1000
0100
0010
0001
1000
0001
,
0010
0001
0010
0100
1000
0010
0100
0010
1000
0100
1000
0100
0010
0001
1000
0001
,
0100
0001
0010
0100
1000
0010
1000
0010
0100
0001
0010
0100
1000
0001
0100
0001
,
1000
0001
0100
0001
0010
0100
1000
0010
,
1000
0100
1000
0010
0100
0001
0010
0001
,
0010
0100
1000
0001
0100
0001
1000
0100
,
0020
0032
0203
0320
,
1030
0100
0010
0100
1000
0010
0100
0001
0010
0001
0010
0100
1000
0010
0100
0010
,
1000
0100
0010
0001
1000
0001
0100
0001
0100
0010
1000
0100
1000
0100
0010
0001
,
1000
0010
1000
0010
0100
0001
0010
0100
0010
0001
1000
0100
0010
0001
1000
0001
,
0100
0001
0010
0100
1000
0010
0100
0010
1000
0100
1000
0100
0010
0001
1000
0001
,
1000
0100
1000
0010
1000
0010
0100
0001
0010
0100
1000
0001
0100
0001
0100
0010
,
1000
0001
1000
0001
0010
0001
1000
0010
1000
0100
0010
0100
1000
0001
1000
0001
,
1000
0100
1000
0010
0100
0001
0010
0001
0100
0001
0100
0010
1000
0100
0010
0100
,
1000
0100
1000
0010
0100
0001
0010
0001
2000
3020
2030
3020
2030
3020
2030
3020
,
2030
3200
0320
0032
2003
3020
0230
0000
,
0302
0023
0230
2300
3002
2003
3200
0320
,
0032
0000
2003
0000
0000
0000
3010
0100
,
0001
1000
0100
1000
0001
0100
0001
0010
,
0100
1000
0010
0100
0010
1000
0100
0010
,
0001
1000
0001
0100
0001
0010
0100
1000
,
0010
0000
0100
0000
0010
0000
1000
0000
0100
0000
0010
0000
0001
1000
0100
1000
,
0010
0100
0001
0010
0001
0010
0100
1000
0100
1000
0010
0100
0001
1000
0001
1000
,
0100
1000
0010
0100
0001
0010
0001
0010
0100
1000
0100
1000
0010
0100
0001
1000
,
0001
0100
0001
0010
0001
0100
0001
0010
0001
0010
0100
1000
0100
1000
0010
0100
,
0010
1000
0001
0100
0001
0010
0100
1000
0010
1000
0010
0100
0001
0010
0100
1000
,
0001
0100
0010
1000
0100
1000
0010
0100
0001
0010
0001
0010
0100
1000
0100
1000
,
0010
0100
0010
1000
0100
1000
0100
0010
0001
0010
0001
1000
0010
0100
0001
0010
,
0100
0010
0001
1000
0001
0100
0001
0100
0010
1000
0010
1000
0100
0010
0100
1000
,
0010
0100
0001
1000
0002
0023
0230
2300
3002
0023
0230
2300
3001
0100
0001
0010
,
0001
0010
0100
1000
0010
0100
0010
1000
0100
0010
0001
1000
0001
0010
0001
1000
,
0010
1000
0010
0100
0001
0010
0100
1000
0010
0100
0010
1000
0100
0010
0001
1000
,
0001
0100
0001
0100
0010
1000
0100
1000
0100
0010
0001
1000
0010
0100
0001
0010
,
0001
0010
0100
1000
0001
0100
0001
1000
0100
1000
0010
0100
0001
1000
0001
1000
,
0010
0100
0001
0010
0100
0010
0001
1000
0100
1000
0100
0010
0001
0010
0001
1000
,
0010
1000
0010
0100
0001
0100
0001
1000
0100
0010
0100
1000
0010
0100
0001
0010
,
0100
0010
0001
1000
0001
0100
0001
0100
0010
1000
0010
1000
0100
1000
0010
1000
,
0010
0100
0001
0010
0200
2300
3200
2300
3200
2300
3200
2300
3002
0000
0000
0000
,
2003
0000
3200
0000
0310
0001
2000
0000
,
3020
0000
0000
0000
0230
0000
0000
0301
0010
0000
0100
1000
0002
0000
0000
0000
,
0203
0000
0302
0000
1003
0100
0020
0000
,
0032
0000
0000
0000
0103
0010
1000
0100
1000
0010
0100
0001
0020
0000
0000
0000
,
0000
0000
0000
0030
;

//---------------lights-cabinet - ----------------
#NOTES:
     lights-cabinet:
     :
     Easy:
     1:
     0.579,0.900,0.194,0.057,0.101,456.000,24.000,7.000,0.000,9.000:

000000
000000
000000
000000
,
000000
000000
000000
000000
,
000000
000000
000000
000000
,
000000
000000
000000
000000
,
100000
000100
100000
000100
100000
000100
100000
000100
,
010000
001000
010000
001000
010000
001000
010000
000000
,
000100
100000
000100
100000
000100
100000
001000
010000
,
200200
011000
011000
300300
,
001000
000000
000000
001000
010000
000000
000000
000000
001000
000000
000000
001000
010000
000000
000000
000000
,
001000
000000
010000
000000
001000
100000
010000
000000
,
010000
000000
000000
010000
001000
000000
000000
000000
001000
000000
000000
001000
010000
000000
000000
000000
,
100000
000000
000100
000000
010000
000100
010000
000000
,
001000
000000
000000
001000
010000
000000
000000
000000
010000
000000
000000
010000
001000
000000
000000
000000
,
001000
000000
100000
000000
100000
000100
010000
000000
,
010000
000000
000000
010000
001000
000000
000000
000000
001000
000000
000000
001000
010000
000000
000000
000000
,
000100
000000
100000
000000
001000
010000
001000
000000
,
100000
000000
001000
000000
100000
000000
000100
010000
,
001000
000000
100000
000000
000100
010000
000100
100000
,
000100
100000
001000
010000
,
001000
110000
001000
110000
,
100000
001000
100000
010000
100000
001000
100000
000100
,
100000
001000
100000
010000
100000
001000
100000
000000
,
010000
000100
010000
001000
010000
000100
010000
001000
,
010000
000100
010000
001000
020000
000000
030100
000000
,
100000
001000
100000
010000
100000
001000
100000
000100
,
100000
001000
100000
010000
100000
000000
100000
000000
,
010000
000100
010000
001000
010000
000100
010000
001000
,
010000
000100
010000
001000
010000
001000
001000
000000
,
010000
000100
010000
000000
001000
100000
001000
000000
,
010000
000100
010000
001000
100000
001000
010000
000000
,
000100
010000
000100
000000
100000
001000
100000
000000
,
000100
000000
100000
000000
000100
000000
010000
000000
001000
000000
010000
000100
001000
000000
000000
000000
,
100000
001000
100000
000000
000100
010000
000100
000000
,
001000
000100
000100
010000
001000
100000
001000
000000
,
100000
001000
100000
000000
000100
010000
000100
000000
,
100000
000000
001000
000000
001000
000000
010000
000000
001000
000000
010000
000100
010000
000000
000000
000000
,
100000
000000
000000
001000
000000
000000
010000
000000
000100
000000
000000
100000
000000
000000
001000
000000
,
100000
000000
000000
001000
000000
000000
010000
000000
000100
000000
000000
100000
000000
000000
001000
000000
,
100000
000000
000000
001000
000000
000000
010000
000000
000100
000000
000000
100000
000000
000000
001000
000000
,
010000
000100
010000
001000
020000
000000
030100
000000
,
100000
000100
000000
000000
100000
000000
000000
000000
001000
000000
010000
000000
001000
000000
000000
000000
,
001000
100000
000000
000000
001000
000000
000000
000000
010000
000000
001000
000000
100000
000000
000000
000000
,
100000
001000
000000
000000
100000
000000
000000
000000
001000
000000
010000
000000
001000
000000
000000
000000
,
001000
010000
000000
000000
010000
001000
000000
000000
001000
010000
000000
000000
010000
001000
000000
000000
,
100000
010000
000100
000000
000100
010000
100000
000000
,
100000
000000
001000
000000
010000
000100
000100
000000
,
100000
010000
000100
000000
000100
010000
100000
000000
,
000100
100000
100000
001100
,
000100
001000
100000
000000
100000
001000
000100
000000
,
100000
000000
010000
000000
100000
000100
000100
000000
,
100000
010000
000100
000000
000100
010000
100000
000000
,
002000
100000
000100
103000
,
100111
011011
100111
011011
,
101000
001100
010100
011000
,
100111
011011
000000
100000
,
000100
000000
010000
000000
001000
100000
000100
000000
,
010000
000000
001000
100000
001000
010000
000100
000000
,
100000
000000
001000
000000
100000
001000
100000
010000
,
100000
010000
100000
000000
001100
000000
100000
001000
,
100000
010000
100000
001000
100000
000100
100000
001000
,
100000
010000
100000
001000
100000
000000
010000
000100
,
010000
001000
010000
000100
010000
001000
010000
000100
,
010000
001000
010000
000000
000100
000000
100000
001000
,
100000
010000
100000
001000
100000
000100
100000
001000
,
100000
010000
100000
001000
100000
000000
010000
000100
,
010000
001000
010000
000100
010000
001000
010000
001000
,
100000
001000
100000
100000
100000
000000
001000
100000
,
010000
000000
010000
100000
010000
000000
010000
100000
,
000100
010000
001000
100000
001000
000000
000100
001000
,
000100
000000
000100
001000
000100
000000
000100
100000
,
000100
000000
010000
000000
001000
000000
010000
000100
100000
000000
000000
000000
010000
000000
100000
000000
,
010000
000000
100000
001000
100000
000000
000100
010000
,
000100
100000
001000
010000
000100
000000
100000
001000
,
010000
000000
000100
001000
000100
000000
100000
000100
,
010000
000000
001000
000000
010000
000000
000100
010000
001000
000000
000000
000000
010000
000000
000000
000000
,
001100
010000
001100
000100
,
110000
000100
110000
010000
,
001100
010000
001100
000100
,
100000
000000
001000
010000
000100
000000
200211
000000
,
000000
000000
300300
000000
;

//---------------dance-single - ----------------
#NOTES:
     dance-single:
     :
     Easy:
     13:
     1.000,1.000,0.000,0.461,1.000,1121.000,0.000,57.000,0.000,0.000:
1000
0100
1000
0010
0100
0001
0010
0100
1000
0001
0100
0001
1000
0100
0010
0100
,
1000
0010
0100
0001
0010
0001
1000
0100
0010
0001
1000
0001
0100
0001
0010
0100
,
1000
0010
0100
0010
1000
0100
0010
0001
1000
0010
0100
0010
1000
0100
0010
0001
,
1000
0001
0100
0001
0010
0100
1000
0010
0100
0010
1000
0100
0010
0001
1000
0001
,
0010
0100
1000
0001
0100
0001
1000
0100
0010
0100
1000
0010
0100
0001
1000
0001
,
0100
0001
0010
0100
1000
0001
0100
0001
1000
0100
1000
0010
0100
0001
0010
0100
,
1000
0001
1000
0100
1000
0010
0100
0001
0010
0001
1000
0100
0010
0001
1000
0010
,
1000
0100
1000
0010
0100
0001
0010
0001
1000
0100
0010
0001
1000
0001
0100
0001
,
1000
0100
0010
0100
1000
0010
0100
0001
0010
0001
1000
0100
1000
0010
0100
0001
,
1000
0001
0010
0001
1000
0010
0100
0010
1000
0100
0010
0001
1000
0100
0010
0001
,
1000
0010
0100
0010
1000
0100
0010
0001
1000
0001
0100
0001
0010
0001
1000
0100
,
0010
0100
1000
0010
0100
0010
1000
0001
0100
0001
0010
0001
1000
0100
1000
0010
,
0100
0010
1000
0100
0010
0001
1000
0001
0100
0001
0010
0001
1000
0010
1000
0001
,
0100
0010
1000
0001
0100
0001
0010
0100
1000
0010
0100
0010
1000
0100
1000
0001
,
0010
0100
1000
0001
0100
0001
1000
0100
0010
0001
1000
0010
0100
0010
1000
0001
,
0010
0100
1000
0001
0100
0010
1000
0100
1000
0010
0100
0001
0010
0100
1000
0001
,
1000
0100
0010
0001
0010
0001
1000
0010
0100
0001
0100
0001
0010
0100
1000
0010
,
0100
0010
1000
0100
1000
0100
0010
0001
1000
0001
0100
0001
0010
0100
1000
0001
,
1000
0100
1000
0010
0100
0001
0010
0001
0010
0100
1000
0010
0100
0010
1000
0100
,
0010
0001
1000
0001
0100
0001
0100
0001
0010
0100
1000
0010
1000
0010
0100
0001
,
1000
0100
0010
0001
1000
0010
0100
0010
1000
0100
1000
0100
0010
0001
1000
0010
,
0100
0001
0010
0100
1000
0001
0100
0001
0100
0010
1000
0100
0010
0001
1000
0001
,
0010
0001
1000
0010
0100
0010
1000
0100
0010
0001
1000
0001
0100
0001
0010
0100
,
1000
0010
0100
0010
1000
0100
0010
0001
1000
0001
0100
0001
0010
0100
1000
0010
,
0100
0010
1000
0100
0010
0001
1000
0001
0100
0001
0010
0001
1000
0100
0010
0001
,
1000
0010
0100
0010
1000
0100
1000
0001
0100
0001
0010
0100
1000
0010
0100
0010
,
1000
0100
0010
0001
1000
0001
0100
0001
0010
0100
1000
0001
0010
0001
1000
0100
,
0010
0000
0001
0000
1000
0000
0100
0000
1000
0001
0100
0001
0010
0100
1000
0001
,
1000
1000
0001
0100
0001
1000
0100
0010
,
0001
0000
1000
0000
0010
0000
0100
0000
0001
0010
0100
1000
0001
0100
0001
1000
,
0100
0010
0001
1000
0001
0100
0001
0010
,
0100
0000
1000
0000
0010
0000
0100
0000
0001
1000
0100
1000
0010
0100
0001
0010
,
0100
1000
0100
1000
0010
0100
0001
0010
,
0100
0000
0010
0000
0001
0000
1000
0000
0001
1000
0100
0010
0001
0010
0100
1000
,
0001
0100
0001
1000
0100
0010
0001
0010
0100
1000
0010
0100
0010
1000
0100
0010
,
0001
1000
0001
0100
0001
0010
0100
1000
0001
0100
0001
0010
0100
1000
0010
0100
,
0001
1000
0010
0100
0010
1000
0100
0010
0001
1000
0001
0100
0001
0010
0100
1000
,
0010
0100
0010
1000
0100
0010
0001
1000
0001
0100
0001
0010
0100
1000
0010
0100
,
0010
1000
0100
0010
0001
1000
0001
0100
0001
0010
0100
1000
0010
0100
0010
1000
,
0100
0010
0001
1000
0001
0100
0001
0010
0001
1000
0100
0010
0001
1000
0001
0100
,
0001
1000
0100
1000
0010
0100
0001
1000
0001
0010
0001
1000
0100
0010
0001
1000
,
0010
0100
0010
1000
0100
0010
0001
1000
0001
0100
0001
0010
0100
1000
0010
0100
,
0010
1000
0100
0010
0001
1000
0001
0100
0001
0010
0001
1000
0010
0100
0010
1000
,
0002
2003
3200
0320
,
0031
1000
0100
1000
0010
0100
0001
1000
0001
0010
0001
1000
0100
0010
0100
1000
,
0010
0100
0001
0010
0001
1000
0010
0100
0010
1000
0100
0010
0001
1000
0001
0100
,
0001
0010
0100
1000
0010
0100
0010
1000
0001
0100
0001
0010
0001
1000
0100
0010
,
0100
1000
0010
0100
0010
1000
0100
0010
0001
1000
0001
0100
0001
0010
0100
1000
,
0010
0100
0010
1000
0100
0010
0001
1000
0001
0010
0001
1000
0010
1000
0100
1000
,
0010
0100
0001
1000
0100
0010
0100
1000
0010
0100
0001
0010
0001
1000
0100
0010
,
0100
1000
0010
0100
0010
1000
0100
0010
0001
1000
0001
0010
0001
1000
0010
0100
,
0010
1000
0100
0010
0001
1000
0001
0010
0200
2300
3200
2300
3200
2300
3200
2300
,
3002
0203
0302
0023
0230
2300
3020
0000
,
0230
0302
0023
0230
2300
3002
0203
0302
,
2003
0000
3200
0000
0000
0000
0310
0001
,
1000
0100
1000
0010
0100
0001
1000
0001
,
0010
0001
1000
0100
0010
0001
1000
0010
,
0100
0010
1000
0100
0010
0001
1000
0001
,
0100
0000
0000
0000
0000
0000
0001
0000
0000
0000
0000
0000
0010
0000
0100
0000
1000
0000
0001
0000
0100
0000
0001
0000
1000
0000
0100
0000
1000
0000
0010
0000
0100
0000
0001
0000
1000
0000
0000
0100
0000
0000
0010
0000
0000
0001
0000
0000
,
1000
0010
0100
0010
1000
0100
0010
0001
1000
0001
0100
0001
0010
0001
1000
0100
,
1000
0010
0100
0010
1000
0100
0010
0001
1000
0001
0100
0001
0010
0100
1000
0010
,
0100
0010
1000
0100
0010
0001
1000
0010
0100
0010
1000
0100
0010
0001
1000
0001
,
0100
0001
0010
0001
1000
0100
0010
0100
1000
0010
0100
0010
1000
0100
0010
0001
,
1000
0001
0100
0001
0010
0001
1000
0100
0010
0001
1000
0010
1000
0100
1000
0010
,
0100
0001
0010
0001
1000
0010
0100
0010
1000
0100
0010
0001
1000
0001
0100
0001
,
0010
0100
1000
0010
0100
0001
1000
0100
1000
0010
0100
0001
0010
0100
0010
0001
,
1000
0100
0010
0001
2000
3200
2300
3020
0230
0302
2003
3200
0310
0001
0100
0001
,
0010
0100
1000
0010
0100
0010
1000
0100
0010
0001
1000
0001
0100
0001
0010
0100
,
1000
0010
0100
0010
1000
0100
0010
0001
1000
0001
0010
0001
1000
0010
0100
0010
,
1000
0100
1000
0001
0100
0010
1000
0001
0010
0001
1000
0100
0010
0100
1000
0010
,
0100
0001
1000
0001
0010
0001
1000
0100
0010
0001
1000
0010
0100
0010
1000
0100
,
1000
0001
0100
0010
1000
0001
0010
0001
1000
0100
0010
0100
1000
0010
0100
0001
,
1000
0001
0010
0001
1000
0100
0010
0100
1000
0010
0100
0010
1000
0100
0010
0001
,
1000
0001
0100
0001
0010
0001
1000
0100
0010
0100
1000
0010
0100
0010
1000
0100
,
0010
0001
1000
0001
0020
0230
0320
0230
0320
0230
0320
0230
2300
0000
0000
0000
,
3002
0000
2003
0000
3100
0010
0002
0000
,
2003
0000
0000
0000
3020
0000
0000
0130
0001
0000
0010
0100
2000
0000
0000
0000
,
3002
0000
0203
0000
0310
1000
0200
0000
,
0320
0000
0000
0000
0031
1000
0100
1000
0010
0100
0001
1000
0020
0000
0000
0000
,
0000
0000
0000
0030
;

//---------------dance-single - ----------------
#NOTES:
     dance-single:
     :
     Medium:
     14:
     1.000,1.000,0.000,0.380,1.000,1235.000,0.000,47.000,0.000,0.000:
1000
0100
1000
0010
0100
0001
0010
0100
1000
0001
0100
0001
1000
0100
0010
0100
,
1000
0010
0100
0001
0010
0001
1000
0100
0010
0001
1000
0001
0100
0001
0010
0100
,
1000
0010
0100
0010
1000
0100
0010
0001
1000
0010
0100
0010
1000
0100
0010
0001
,
1000
0001
0100
0001
0010
0100
1000
0010
0100
0010
1000
0100
0010
0001
1000
0001
,
0010
0100
1000
0001
0100
0001
1000
0100
0010
0100
1000
0010
0100
0001
1000
0001
,
0100
0001
0010
0100
1000
0001
0100
0001
1000
0100
1000
0010
0100
0001
0010
0100
,
1000
0001
1000
0100
1000
0010
0100
0001
0010
0001
1000
0100
0010
0001
1000
0010
,
1000
0100
1000
0010
0100
0001
0010
0001
1000
0100
0010
0001
1000
0001
0100
0001
,
1000
0100
0010
0100
1000
0010
0100
0001
0010
0001
1000
0100
1000
0010
0100
0001
,
1000
0001
0010
0001
1000
0010
0100
0010
1000
0100
0010
0001
1000
0100
0010
0001
,
1000
0010
0100
0010
1000
0100
0010
0001
1000
0001
0100
0001
0010
0001
1000
0100
,
0010
0100
1000
0010
0100
0010
1000
0001
0100
0001
0010
0001
1000
0100
1000
0010
,
0100
0010
1000
0100
0010
0001
1000
0001
0100
0001
0010
0001
1000
0010
1000
0001
,
0100
0010
1000
0001
0100
0001
0010
0100
1000
0010
0100
0010
1000
0100
1000
0001
,
0010
0100
1000
0001
0100
0001
1000
0100
0010
0001
1000
0010
0100
0010
1000
0001
,
0010
0100
1000
0001
0100
0010
1000
0100
1000
0010
0100
0001
0010
0100
1000
0001
,
1000
0100
1000
0010
0100
0001
1000
0001
0010
0001
1000
0100
0010
0100
1000
0010
,
0100
0010
1000
0100
0010
0001
1000
0001
0100
0001
0010
0100
1000
0010
0100
0010
,
1000
0100
0010
0001
1000
0001
0100
0001
0010
0100
1000
0010
0100
0010
1000
0100
,
0010
0001
1000
0010
1000
0100
1000
0010
0100
0001
0010
0100
1000
0001
0010
0100
,
1000
0001
0100
0001
1000
0100
0010
0001
1000
0010
0100
0010
1000
0100
0010
0100
,
1000
0001
0010
0100
1000
0001
0010
0001
0100
0010
1000
0100
0010
0001
1000
0001
,
0010
0001
1000
0010
0100
0010
1000
0100
0010
0001
1000
0001
0100
0001
0010
0100
,
1000
0010
0100
0010
1000
0100
0010
0001
1000
0001
0100
0001
0010
0100
1000
0010
,
0100
0010
1000
0100
0010
0001
1000
0001
0100
0001
0010
0001
1000
0100
0010
0001
,
1000
0010
0100
0010
1000
0100
1000
0001
0100
0001
0010
0100
1000
0010
0100
0010
,
1000
0100
0010
0001
1000
0001
0100
0001
0010
0100
1000
0001
0010
0001
1000
0100
,
0010
0001
0100
0001
0010
0100
1000
0010
0100
0010
1000
0100
0010
0001
1000
0001
,
0100
0010
1000
0100
1000
0010
0100
0001
0010
0001
1000
0100
0010
0001
1000
0010
,
0100
0010
1000
0100
0010
0001
1000
0001
0100
0001
0010
0001
1000
0100
0010
0001
,
1000
0100
1000
0010
0100
0001
1000
0001
0010
0001
1000
0100
0010
0001
1000
0010
,
0100
0010
1000
0100
0010
0100
1000
0001
0100
0010
1000
0001
0010
0001
1000
0100
,
0010
0100
1000
0001
0100
0010
1000
0001
0010
0001
1000
0100
0010
0001
1000
0010
,
0100
0010
1000
0100
0010
0001
1000
0001
0100
0001
0010
0100
1000
0010
0100
0001
,
1000
0100
0010
0100
1000
0010
0100
0001
0010
0001
1000
0100
0010
0001
1000
0001
,
0100
0010
1000
0100
1000
0010
0100
0001
0010
0100
1000
0001
0100
0001
1000
0100
,
0010
0001
1000
0010
1000
0001
0010
0100
1000
0010
1000
0001
0100
0001
0010
0100
,
1000
0010
0100
0010
1000
0100
0010
0001
1000
0001
0100
0001
0010
0100
1000
0010
,
0100
0010
1000
0100
0010
0001
1000
0001
0100
0001
0010
0100
1000
0001
1000
0100
,
1000
0001
0100
0001
0010
0100
1000
0010
0100
0010
1000
0100
0010
0001
1000
0001
,
0010
0100
1000
0010
0100
0010
1000
0100
0010
0001
1000
0001
0100
0001
1000
0010
,
0100
0010
1000
0100
0010
0001
1000
0001
0100
0001
0010
0100
1000
0010
0100
0010
,
1000
0100
0010
0001
1000
0001
0100
0001
0010
0100
1000
0010
0100
0001
1000
0100
,
1000
0001
0100
0001
1000
0100
1000
0010
0100
0001
0010
0100
1000
0001
0100
0010
,
1000
0000
0100
0000
1000
0000
0100
0000
0010
0000
0001
0000
1000
0000
0010
0000
1000
0000
0010
0000
0100
0000
0001
0000
1000
0000
0000
0100
0000
0000
0010
0000
0000
0001
0000
0000
1000
0000
0000
0001
0000
0000
0100
0000
0000
0001
0000
0000
,
1000
0000
0100
0000
1000
0000
0100
0000
0010
0000
0001
0000
0010
0000
0001
0000
1000
0000
0010
0000
0100
0000
0010
0000
1000
0000
0000
0100
0000
0000
0010
0000
0000
0001
0000
0000
1000
0000
0000
0001
0000
0000
0100
0000
0000
0001
0000
0000
,
0010
0000
0100
0000
1000
0000
0001
0000
0100
0000
0001
0000
0100
0000
0010
0000
1000
0000
0010
0000
1000
0000
0100
0000
0010
0000
0000
0001
0000
0000
0100
0000
0000
0001
0000
0000
0010
0000
0000
0100
0000
0000
1000
0000
0000
0010
0000
0000
,
0100
0000
0001
0000
1000
0000
0100
0000
1000
0000
0010
0000
0100
0000
0001
0000
0010
0000
0001
0000
0010
0000
0100
0000
1000
0000
0000
0001
0000
0000
0100
0000
0000
0001
0000
0000
0010
0000
0000
0100
0000
0000
1000
0000
0000
0010
0000
0000
,
0100
0000
0001
0000
1000
0000
0100
0000
1000
0000
0001
0000
0100
0000
0001
0000
0010
0000
0001
0000
0010
0000
0100
0000
1000
0000
0000
0001
0000
0000
0100
0000
0000
0001
0000
0000
1000
0000
0000
0100
0000
0000
0010
0000
0000
0001
0000
0000
,
1000
0000
0100
0000
1000
0000
0010
0000
0100
0000
0001
0000
0010
0000
0001
0000
0010
0000
0100
0000
1000
0000
0100
0000
1000
0000
0000
0001
0000
0000
0100
0000
0000
0001
0000
0000
1000
0000
0000
0100
0000
0000
0010
0000
0000
0001
0000
0000
,
1000
0000
0010
0000
1000
0000
0010
0000
0100
0000
0001
0000
0010
0000
0100
0000
1000
0000
0001
0000
0100
0000
0001
0000
1000
0000
0000
0100
0000
0000
0010
0000
0000
0001
0000
0000
1000
0000
0000
0010
0000
0000
0100
0000
0000
0001
0000
0000
,
0010
0000
0100
0000
1000
0000
0001
0000
0100
0000
0001
0000
1000
0000
0100
0000
0010
0000
0001
0000
0100
0000
0001
0000
2000
0000
0000
3002
0000
0000
2003
0000
0000
3002
0000
0000
2003
0000
0000
3002
0000
0000
2003
0000
0000
3002
0000
0000
,
0203
0320
2030
3200
0320
0032
2003
0000
,
3020
0230
0302
0023
0230
2300
3002
0203
,
0302
0000
0000
0000
2003
0000
0000
0000
0000
0000
0000
0000
3100
0010
0001
1000
,
0010
0100
0010
1000
0100
0010
0001
1000
0001
0100
0001
0010
0100
1000
0010
0100
,
0010
1000
0100
0010
0001
1000
0001
0100
0001
0010
0100
1000
0001
0100
0001
0010
,
0100
1000
0010
0100
0010
1000
0100
0010
0001
1000
0001
0100
0001
0010
0100
1000
,
0010
0100
0010
1000
0100
0010
0001
1000
0001
0100
0001
1000
0100
0010
0100
1000
,
0010
0100
0010
1000
0100
0010
0001
1000
0001
0100
0001
0010
0001
1000
0100
0010
,
0001
1000
0010
0100
0010
1000
0100
1000
0001
0100
0010
1000
0001
0010
0100
1000
,
0001
0100
0001
0010
0100
1000
0010
0100
0010
1000
0100
1000
0001
0100
0010
1000
,
0001
0010
0100
0010
0001
1000
0010
0100
0010
1000
0100
0010
0001
0100
0001
0010
,
0100
1000
0100
0010
0100
1000
0010
0100
0010
1000
0100
0010
0001
0100
0001
0010
,
0100
1000
0010
0100
0010
1000
0100
0010
0001
0100
0001
0010
0100
1000
0001
0100
,
0001
1000
0100
0010
0001
1000
0001
0100
0001
0010
0100
1000
0010
0100
0010
1000
,
0100
0010
0001
1000
0002
0023
0230
2300
3020
0230
0320
2030
3100
0010
0001
0100
,
0001
0010
0100
1000
0010
0100
0010
1000
0100
0010
0001
1000
0001
0100
0001
0010
,
0100
1000
0010
0100
0010
1000
0100
0010
0001
1000
0001
0100
0001
0010
0100
1000
,
0001
0100
0001
1000
0100
0010
0100
1000
0010
0100
0001
0010
0001
1000
0100
0010
,
0001
1000
0010
0100
0010
1000
0100
0010
0001
1000
0001
0100
0001
0010
0100
1000
,
0010
0100
0010
1000
0100
0010
0001
1000
0001
0100
0001
1000
0100
1000
0010
0100
,
0001
0010
0001
1000
0100
0010
0001
1000
0010
0100
0010
1000
0100
1000
0001
0100
,
0010
1000
0001
0010
0001
1000
0010
0100
0001
1000
0100
1000
0001
0100
0001
0010
,
0100
1000
0010
0100
0002
0023
0032
0023
0032
0023
0032
0023
0130
0000
1000
0000
,
0010
0100
0010
1000
0100
0010
0002
0000
,
2003
0000
0000
0000
3020
0000
0000
0130
0001
0000
0010
0100
1000
0000
0001
0000
,
0100
0001
0010
0100
1000
0001
0200
0000
,
0320
0000
0000
0000
1030
0100
0010
0001
1000
0010
0100
0001
2000
0000
0000
0000
,
0000
0000
0000
3000
;

//---------------dance-single - ----------------
#NOTES:
     dance-single:
     :
     Hard:
     16:
     1.000,1.000,0.000,0.315,1.000,1267.000,0.000,39.000,0.000,0.000:
1000
0100
1000
0010
0100
0001
0010
0100
1000
0001
0100
0001
1000
0100
0010
0100
,
1000
0010
0100
0001
0010
0001
1000
0100
0010
0001
1000
0001
0100
0001
0010
0100
,
1000
0010
0100
0010
1000
0100
0010
0001
1000
0010
0100
0010
1000
0100
0010
0001
,
1000
0001
0100
0001
0010
0100
1000
0010
0100
0010
1000
0100
0010
0001
1000
0001
,
0010
0100
1000
0001
0100
0001
1000
0100
0010
0100
1000
0010
0100
0001
1000
0001
,
0100
0001
0010
0100
1000
0001
0100
0001
1000
0100
1000
0010
0100
0001
0010
0100
,
1000
0001
1000
0100
1000
0010
0100
0001
0010
0001
1000
0100
0010
0001
1000
0010
,
1000
0100
1000
0010
0100
0001
0010
0001
1000
0100
0010
0001
1000
0001
0100
0001
,
1000
0100
0010
0100
1000
0010
0100
0001
0010
0001
1000
0100
1000
0010
0100
0001
,
1000
0001
0010
0001
1000
0010
0100
0010
1000
0100
0010
0001
1000
0100
0010
0001
,
1000
0010
0100
0010
1000
0100
0010
0001
1000
0001
0100
0001
0010
0001
1000
0100
,
0010
0100
1000
0010
0100
0010
1000
0001
0100
0001
0010
0001
1000
0100
1000
0010
,
0100
0010
1000
0100
0010
0001
1000
0001
0100
0001
0010
0001
1000
0010
1000
0001
,
0100
0010
1000
0001
0100
0001
0010
0100
1000
0010
0100
0010
1000
0100
1000
0001
,
0010
0100
1000
0001
0100
0001
1000
0100
0010
0001
1000
0010
0100
0010
1000
0001
,
0010
0100
1000
0001
0100
0010
1000
0100
1000
0010
0100
0001
0010
0100
1000
0001
,
1000
0100
1000
0010
0100
0001
1000
0001
0010
0001
1000
0100
0010
0100
1000
0010
,
0100
0010
1000
0100
0010
0001
1000
0001
0100
0001
0010
0100
1000
0010
0100
0010
,
1000
0100
0010
0001
1000
0001
0100
0001
0010
0100
1000
0010
0100
0010
1000
0100
,
0010
0001
1000
0010
1000
0100
1000
0010
0100
0001
0010
0100
1000
0001
0010
0100
,
1000
0001
0100
0001
1000
0100
0010
0001
1000
0010
0100
0010
1000
0100
0010
0100
,
1000
0001
0010
0100
1000
0001
0010
0001
0100
0010
1000
0100
0010
0001
1000
0001
,
0010
0001
1000
0010
0100
0010
1000
0100
0010
0001
1000
0001
0100
0001
0010
0100
,
1000
0010
0100
0010
1000
0100
0010
0001
1000
0001
0100
0001
0010
0100
1000
0010
,
0100
0010
1000
0100
0010
0001
1000
0001
0100
0001
0010
0001
1000
0100
0010
0001
,
1000
0010
0100
0010
1000
0100
1000
0001
0100
0001
0010
0100
1000
0010
0100
0010
,
1000
0100
0010
0001
1000
0001
0100
0001
0010
0100
1000
0001
0010
0001
1000
0100
,
0010
0001
0100
0001
0010
0100
1000
0010
0100
0010
1000
0100
0010
0001
1000
0001
,
0100
0010
1000
0100
1000
0010
0100
0001
0010
0001
1000
0100
0010
0001
1000
0010
,
0100
0010
1000
0100
0010
0001
1000
0001
0100
0001
0010
0001
1000
0100
0010
0001
,
1000
0100
1000
0010
0100
0001
1000
0001
0010
0001
1000
0100
0010
0001
1000
0010
,
0100
0010
1000
0100
0010
0100
1000
0001
0100
0010
1000
0001
0010
0001
1000
0100
,
0010
0100
1000
0001
0100
0010
1000
0001
0010
0001
1000
0100
0010
0001
1000
0010
,
0100
0010
1000
0100
0010
0001
1000
0001
0100
0001
0010
0100
1000
0010
0100
0001
,
1000
0100
0010
0100
1000
0010
0100
0001
0010
0001
1000
0100
0010
0001
1000
0001
,
0100
0010
1000
0100
1000
0010
0100
0001
0010
0100
1000
0001
0100
0001
1000
0100
,
0010
0001
1000
0010
1000
0001
0010
0100
1000
0010
1000
0001
0100
0001
0010
0100
,
1000
0010
0100
0010
1000
0100
0010
0001
1000
0001
0100
0001
0010
0100
1000
0010
,
0100
0010
1000
0100
0010
0001
1000
0001
0100
0001
0010
0100
1000
0001
1000
0100
,
1000
0001
0100
0001
0010
0100
1000
0010
0100
0010
1000
0100
0010
0001
1000
0001
,
0010
0100
1000
0010
0100
0010
1000
0100
0010
0001
1000
0001
0100
0001
1000
0010
,
0100
0010
1000
0100
0010
0001
1000
0001
0100
0001
0010
0100
1000
0010
0100
0010
,
1000
0100
0010
0001
1000
0001
0100
0001
0010
0100
1000
0010
0100
0001
1000
0100
,
1000
0001
0100
0001
1000
0100
1000
0010
0100
0001
0010
0100
1000
0001
0100
0010
,
1000
0100
1000
0010
0100
0001
0010
0001
1000
0100
0010
0001
1000
0010
0100
0010
1000
0100
1000
0001
0100
0001
0010
0100
,
1000
0010
0100
0010
1000
0100
0010
0001
1000
0001
0100
0001
0010
0100
0010
0001
1000
0010
0100
0010
1000
0100
0010
0001
,
1000
0001
0100
0001
0010
0100
1000
0010
0100
0010
1000
0100
0010
0001
1000
0001
0100
0001
0010
0100
1000
0010
0100
0010
,
1000
0100
0010
0001
1000
0001
0100
0001
0010
0100
1000
0010
0100
0010
1000
0100
0010
0001
1000
0001
0100
0001
0010
0100
,
1000
0001
0100
0001
1000
0100
0010
0001
1000
0010
0100
0010
1000
0100
0010
0001
0100
0001
0010
0100
0010
0001
1000
0010
,
0100
0001
1000
0100
1000
0001
0100
0001
0010
0001
0100
0001
1000
0100
1000
0001
1000
0010
0100
0010
1000
0100
0010
0001
,
1000
0001
0100
0001
0010
0100
0010
0001
1000
0010
0100
0010
1000
0100
0010
0001
1000
0001
0100
0001
0010
0100
1000
0010
,
0100
0010
1000
0100
0010
0001
1000
0001
0100
0001
0010
0100
1000
0001
0100
0001
0010
0100
1000
0010
0100
0010
1000
0100
,
2000
3020
2030
3200
0320
0032
2003
0000
,
3020
0230
0302
0023
0230
2300
3002
0203
,
0302
0000
0000
0000
2003
0000
0000
0000
0000
0000
0000
0000
3100
0010
0001
1000
,
0010
0100
0010
1000
0100
0010
0001
1000
0001
0100
0001
0010
0100
1000
0010
0100
,
0010
1000
0100
0010
0001
1000
0001
0100
0001
0010
0100
1000
0001
0100
0001
0010
,
0100
1000
0010
0100
0010
1000
0100
0010
0001
1000
0001
0100
0001
0010
0100
1000
,
0010
0100
0010
1000
0100
0010
0001
1000
0001
0100
0001
1000
0100
0010
0100
1000
,
0010
0100
0010
1000
0100
0010
0001
1000
0001
0100
0001
0010
0001
1000
0100
0010
,
0001
1000
0010
0100
0010
1000
0100
1000
0001
0100
0010
1000
0001
0010
0100
1000
,
0001
0100
0001
0010
0100
1000
0010
0100
0010
1000
0100
1000
0001
0100
0010
1000
,
0001
0010
0100
0010
0001
1000
0010
0100
0010
1000
0100
0010
0001
0100
0001
0010
,
0100
1000
0100
0010
0100
1000
0010
0100
0010
1000
0100
0010
0001
0100
0001
0010
,
0100
1000
0010
0100
0010
1000
0100
0010
0001
0100
0001
0010
0100
1000
0001
0100
,
0001
1000
0100
0010
0001
1000
0001
0100
0001
0010
0100
1000
0010
0100
0010
1000
,
0100
0010
0001
1000
0002
0023
0230
2300
3020
0230
0320
2030
3100
0010
0001
0100
,
0001
0010
0100
1000
0010
0100
0010
1000
0100
0010
0001
1000
0001
0100
0001
0010
,
0100
1000
0010
0100
0010
1000
0100
0010
0001
1000
0001
0100
0001
0010
0100
1000
,
0001
0100
0001
1000
0100
0010
0100
1000
0010
0100
0001
0010
0001
1000
0100
0010
,
0001
1000
0010
0100
0010
1000
0100
0010
0001
1000
0001
0100
0001
0010
0100
1000
,
0010
0100
0010
1000
0100
0010
0001
1000
0001
0100
0001
1000
0100
1000
0010
0100
,
0001
0010
0001
1000
0100
0010
0001
1000
0010
0100
0010
1000
0100
1000
0001
0100
,
0010
1000
0001
0010
0001
1000
0010
0100
0001
1000
0100
1000
0001
0100
0001
0010
,
0100
1000
0010
0100
0002
0023
0032
0023
0032
0023
0032
0023
0130
0000
1000
0000
,
0010
0100
0010
1000
0100
0010
0002
0000
,
2003
0000
0000
0000
3020
0000
0000
0130
0001
0000
0010
0100
1000
0000
0001
0000
,
0100
0001
0010
0100
1000
0001
0200
0000
,
0320
0000
0000
0000
1030
0100
0010
0001
1000
0010
0100
0001
2000
0000
0000
0000
,
0000
0000
0000
3000
;

//---------------dance-single - ----------------
#NOTES:
     dance-single:
     :
     Challenge:
     19:
     1.000,1.000,0.000,0.186,1.000,1587.000,0.000,23.000,0.000,0.000:
1000
0100
1000
0010
0100
0001
0010
0100
1000
0001
0100
0001
1000
0100
0010
0100
,
1000
0010
0100
0001
0010
0001
1000
0100
0010
0001
1000
0001
0100
0001
0010
0100
,
1000
0010
0100
0010
1000
0100
0010
0001
1000
0010
0100
0010
1000
0100
0010
0001
,
1000
0001
0100
0001
0010
0100
1000
0010
0100
0010
1000
0100
0010
0001
1000
0001
,
0010
0100
1000
0001
0100
0001
1000
0100
0010
0100
1000
0010
0100
0001
1000
0001
,
0100
0001
0010
0100
1000
0001
0100
0001
1000
0100
1000
0010
0100
0001
0010
0100
,
1000
0001
1000
0100
1000
0010
0100
0001
0010
0001
1000
0100
0010
0001
1000
0010
,
1000
0100
1000
0010
0100
0001
0010
0001
1000
0100
0010
0001
1000
0001
0100
0001
,
1000
0001
0100
0001
0010
0100
1000
0010
0100
0010
1000
0100
0010
0001
1000
0001
0100
0001
0010
0100
1000
0010
0100
0010
,
1000
0100
0010
0100
1000
0010
0100
0001
0010
0001
1000
0100
0010
0001
1000
0010
0100
0010
1000
0100
0010
0001
1000
0001
,
0100
0001
0010
0100
1000
0010
0100
0010
1000
0100
0010
0001
1000
0001
0100
0001
0010
0001
1000
0100
0010
0001
1000
0001
,
0100
0001
0010
0100
1000
0010
0100
0010
1000
0100
1000
0001
0100
0001
1000
0010
0100
0010
1000
0100
0010
0001
1000
0001
,
0100
0001
0010
0001
1000
0100
1000
0001
0100
0001
1000
0100
0010
0001
1000
0010
0100
0010
1000
0100
0010
0001
1000
0001
,
0100
0001
0010
0001
1000
0010
0100
0010
1000
0100
0010
0001
1000
0001
0100
0001
0010
0100
1000
0010
0100
0010
1000
0100
,
0010
0001
1000
0001
0100
0001
0010
0001
1000
0010
0100
0010
1000
0100
0010
0001
1000
0001
0100
0001
0010
0001
1000
0010
,
0100
0010
1000
0100
0010
0001
1000
0001
0100
0001
0010
0100
1000
0010
1000
0100
0010
0001
1000
0001
0100
0001
0010
0100
,
1000
0001
1000
0010
0100
0001
1000
0001
0010
0001
1000
0100
0010
0100
1000
0010
,
0100
0010
1000
0100
0010
0001
1000
0001
0100
0001
0010
0100
1000
0010
0100
0010
,
1000
0100
0010
0001
1000
0001
0100
0001
0010
0100
1000
0010
0100
0010
1000
0100
,
0010
0001
1000
0010
1000
0100
1000
0010
0100
0001
0010
0100
1000
0001
0010
0100
,
1000
0001
0100
0001
0010
0100
1000
0010
0100
0010
1000
0100
0010
0001
1000
0001
0100
0001
1000
0100
1000
0010
0100
0001
,
0010
0001
1000
0100
0010
0001
1000
0010
0100
0010
1000
0100
0010
0001
1000
0001
0100
0001
0010
0100
1000
0001
0100
0010
,
1000
0100
1000
0010
0100
0001
0010
0100
1000
0001
0100
0001
1000
0100
0010
0001
1000
0010
0100
0010
1000
0100
0010
0001
,
1000
0001
0100
0001
0010
0001
1000
0100
0010
0001
1000
0010
0100
0010
1000
0100
0010
0001
1000
0001
0100
0001
0010
0001
,
1000
0100
0010
0001
1000
0010
0100
0010
1000
0100
1000
0001
0100
0001
0010
0100
1000
0010
0100
0010
1000
0100
0010
0001
,
1000
0001
0100
0001
0010
0001
1000
0010
1000
0100
1000
0001
0100
0001
0010
0100
1000
0010
0100
0010
1000
0100
0010
0001
,
1000
0001
0100
0001
0010
0100
1000
0010
0100
0010
1000
0100
0010
0001
1000
0001
0100
0001
0010
0001
1000
0010
0100
0010
,
1000
0100
1000
0001
0100
0001
0010
0100
1000
0010
0100
0010
1000
0100
0010
0001
1000
0001
0100
0001
0010
0001
1000
0010
,
0100
0010
1000
0100
0010
0001
1000
0001
0100
0001
0010
0001
1000
0100
0010
0001
1000
0010
0100
0010
1000
0100
1000
0001
,
0100
0001
0010
0100
1000
0010
0100
0010
1000
0100
0010
0001
1000
0001
0100
0001
0010
0001
1000
0010
0100
0010
1000
0100
,
1000
0001
0100
0001
0010
0100
1000
0010
0100
0010
1000
0100
0010
0001
1000
0001
0100
0001
0010
0100
1000
0010
1000
0100
,
1000
0010
0100
0010
1000
0100
0010
0001
0100
0001
0010
0100
1000
0001
0100
0001
1000
0100
0010
0001
1000
0010
1000
0001
,
0010
0100
1000
0001
0100
0001
1000
0100
0010
0100
1000
0010
1000
0100
1000
0001
0100
0001
0010
0100
1000
0010
0100
0010
,
1000
0100
0010
0001
1000
0001
0100
0001
0010
0001
1000
0010
0100
0010
1000
0100
0010
0001
1000
0001
0100
0001
0010
0100
,
1000
0001
0100
0001
1000
0100
1000
0010
0100
0001
0010
0100
1000
0010
0100
0010
1000
0100
0010
0001
1000
0010
1000
0001
,
0010
0001
1000
0010
0100
0010
1000
0100
0010
0001
1000
0001
0100
0001
0010
0001
1000
0100
0010
0001
1000
0010
0100
0001
,
1000
0001
1000
0010
1000
0001
0010
0100
1000
0010
1000
0001
0100
0001
0010
0100
,
1000
0010
0100
0010
1000
0100
0010
0001
1000
0001
0100
0001
0010
0100
1000
0010
,
0100
0010
1000
0100
0010
0001
1000
0001
0100
0001
0010
0100
1000
0001
1000
0100
,
1000
0001
0100
0001
0010
0100
1000
0010
0100
0010
1000
0100
0010
0001
1000
0001
,
0010
0100
1000
0010
0100
0010
1000
0100
0010
0001
1000
0001
0100
0001
1000
0010
,
0100
0010
1000
0100
0010
0001
1000
0001
0100
0001
0010
0100
1000
0010
0100
0010
,
1000
0100
0010
0001
1000
0001
0100
0001
0010
0100
1000
0010
0100
0001
1000
0100
,
1000
0001
0100
0001
1000
0100
1000
0010
0100
0001
0010
0100
1000
0001
0100
0010
,
1000
0100
1000
0010
0100
0001
0010
0001
1000
0100
0010
0001
1000
0010
0100
0010
1000
0100
1000
0001
0100
0001
0010
0100
,
1000
0010
0100
0010
1000
0100
0010
0001
1000
0001
0100
0001
0010
0100
0010
0001
1000
0010
0100
0010
1000
0100
0010
0001
,
1000
0001
0100
0001
0010
0100
1000
0010
0100
0010
1000
0100
0010
0001
1000
0001
0100
0001
0010
0100
1000
0010
0100
0010
,
1000
0100
0010
0001
1000
0001
0100
0001
0010
0100
1000
0010
0100
0010
1000
0100
0010
0001
1000
0001
0100
0001
0010
0100
,
1000
0001
0100
0001
1000
0100
0010
0001
1000
0010
0100
0010
1000
0100
0010
0001
0100
0001
0010
0100
0010
0001
1000
0010
,
0100
0001
1000
0100
1000
0001
0100
0001
0010
0001
0100
0001
1000
0100
1000
0001
1000
0010
0100
0010
1000
0100
0010
0001
,
1000
0001
0100
0001
0010
0100
0010
0001
1000
0010
0100
0010
1000
0100
0010
0001
1000
0001
0100
0001
0010
0100
1000
0010
,
0100
0010
1000
0100
0010
0001
1000
0001
0100
0001
0010
0100
1000
0001
0100
0001
0010
0100
1000
0010
0100
0010
1000
0100
,
2000
3020
2030
3200
0320
0032
2003
0000
,
3020
0230
0302
0023
0230
2300
3002
0203
,
0302
0000
0000
0000
2003
0000
0000
0000
0000
0000
0000
0000
3100
0010
0001
1000
,
0010
0100
0010
1000
0100
0010
0001
1000
0001
0100
0001
0010
0100
1000
0010
0100
,
0010
1000
0100
0010
0001
1000
0001
0100
0001
0010
0100
1000
0001
0100
0001
0010
,
0100
1000
0010
0100
0010
1000
0100
0010
0001
1000
0001
0100
0001
0010
0100
1000
,
0010
0000
0000
0100
0000
0000
0010
0000
0000
1000
0000
0000
0100
0000
0000
0010
0000
0000
0001
0000
0000
1000
0000
0000
0001
0000
0000
0100
0000
0000
0001
0000
0000
1000
0000
0000
0100
0000
0010
0000
0001
0000
1000
0000
0001
0000
0100
0000
,
0001
0010
0100
1000
0010
0100
0010
1000
0100
0010
0001
1000
0001
0100
0001
0010
0001
1000
0100
0010
0001
1000
0010
1000
,
0100
1000
0001
0100
0001
0010
0100
1000
0010
0100
0010
1000
0100
0010
0001
1000
0001
0100
0001
0010
0100
0010
0001
1000
,
0100
1000
0010
0100
0010
1000
0100
0010
0001
1000
0001
0100
0001
0010
0100
1000
0010
0100
0010
1000
0100
0010
0001
1000
,
0001
0100
0010
1000
0100
1000
0010
0100
0001
0010
0100
1000
0001
0100
0001
1000
0100
0010
0001
1000
0010
0100
0010
1000
,
0100
0010
0001
1000
0001
0100
0001
0010
0100
1000
0010
0100
0010
1000
0100
0010
0001
1000
0001
0100
0001
0010
0001
1000
,
0010
0100
0010
1000
0100
1000
0001
0100
0001
0010
0100
1000
0010
0100
0010
1000
0100
0010
0001
1000
0001
0010
0001
1000
,
0010
0100
0010
1000
0100
0010
0001
1000
0001
0100
0001
1000
0100
1000
0001
0010
0100
1000
0010
0100
0010
1000
0100
0010
,
0001
1000
0001
0100
0001
0010
0100
1000
0010
1000
0100
1000
0010
0100
0001
0010
0100
0010
0001
1000
0100
0010
0001
1000
,
0001
0100
0001
1000
0100
1000
0010
0100
0001
0010
0001
1000
0100
0010
0001
1000
0010
0100
0010
1000
0100
1000
0001
0100
,
0001
0010
0100
1000
0010
0100
0010
1000
0100
0010
0001
1000
0001
0100
0001
0010
0100
1000
0010
0100
0010
1000
0100
1000
,
0001
0100
0001
0010
0100
1000
0010
0100
0010
1000
0100
0010
0001
1000
0001
0100
0001
0010
0001
1000
0010
1000
0001
0100
,
0010
1000
0001
0010
0001
1000
0100
0010
0001
1000
0010
0100
0010
1000
0100
1000
0001
0100
0001
0010
0100
1000
0010
0100
,
0010
1000
0100
0010
0001
1000
0001
0100
0001
1000
0100
1000
0010
0100
0001
0010
0001
1000
0100
0010
0001
1000
0010
1000
,
0001
0100
0001
0010
0100
1000
0010
0100
0010
1000
0100
0010
0001
1000
0001
0100
0001
0010
0100
1000
0001
0100
0001
1000
,
0100
1000
0010
0100
0001
0010
0100
1000
0001
0100
0001
1000
0100
0010
0001
1000
0010
0100
0010
1000
0001
0010
0001
1000
,
0100
0010
0001
1000
0010
0100
0001
0010
0001
1000
0100
0010
0001
1000
0001
0100
0001
0010
0100
0000
0000
1000
0000
0000
,
0010
0100
0010
1000
0100
0010
0002
0000
,
2003
0000
0000
0000
3020
0000
0000
0130
0001
0000
0010
0100
1000
0000
0001
0000
,
0100
0001
0010
0100
1000
0001
0200
0000
,
0320
0000
0000
0000
1030
0100
0010
0001
1000
0010
0100
0001
2000
0000
0000
0000
,
0000
0000
0000
3000
;
