#TITLE:Big Money;
#SUBTITLE:;
#ARTIST:The Quick Brown Fox;
#TITLETRANSLIT:;
#SUBTITLETRANSLIT:;
#ARTISTTRANSLIT:;
#CREDIT:;
#BANNER:../fallback - bn.png;
#BACKGROUND:../fallback - bg.png;
#LYRICSPATH:;
#CDTITLE:;
#MUSIC:money.ogg;
#OFFSET:0.000;
#SAMPLESTART:30.597;
#SAMPLELENGTH:12.000;
#SELECTABLE:YES;
#BPMS:0.000=280.000;
#STOPS:;
#BGCHANGES:;
// cache tags:
#FIRSTBEAT:0.000;
#LASTBEAT:528.000;
#SONGFILENAME:Songs/Beast Aoreo BEAST!/Big Money - [Aoreo]/money.sm;
#HASMUSIC:1;
#HASBANNER:1;
#MUSICLENGTH:114.799;
// end cache tags

//---------------dance-single - J. Nero----------------
#NOTES:
     dance-single:
     J. Nero:
     Challenge:
     13:
     0.983,1.000,0.889,0.044,0.353,650.000,102.000,5.000,0.000,17.000:
1001
0000
0101
0000
,
0100
0010
1000
1100
,
0000
0100
0010
0000
,
0001
0100
0010
1000
,
1010
0000
0101
0000
,
0001
1000
0100
0110
,
0000
0010
0001
0000
,
0100
0010
1000
0001
,
1001
0000
1001
0000
,
0001
0100
0101
0000
,
0001
0000
0000
0000
0011
0000
0000
0001
,
0010
0100
1000
0000
0010
0000
0100
0000
,
0101
0000
0000
0000
,
0000
0000
0000
0000
,
0000
0000
0000
0000
,
0000
0000
0000
0000
,
1111
0001
0100
0010
,
1000
0000
0100
0000
1000
0000
0001
0100
,
0010
0100
0001
0010
,
0001
0100
0010
1111
,
1111
1000
0010
0100
,
0001
0000
0010
0000
0100
0000
1000
0010
,
0100
0010
0100
0001
,
1000
0000
0100
0000
1000
0000
0010
0100
,
0110
0100
0001
0011
,
0010
0000
0100
0000
1100
0000
1000
0001
,
0100
0010
0100
0001
,
1000
1111
0100
1111
,
1111
0001
0100
0010
,
1111
0000
0100
0000
0001
0000
0100
0001
,
0101
0001
0101
0100
,
0120
0000
1100
0030
0011
1100
0011
1100
,
0011
0000
0000
0000
,
0000
0000
0000
0000
,
0000
0000
0000
0000
,
0000
0000
0000
0000
0000
0000
0000
0000
1000
0001
1000
0001
1000
0001
1000
0001
,
1000
0001
1000
0010
0000
0100
0001
0000
,
0010
0100
1000
0010
0000
0100
0001
0000
,
1000
0010
0100
0001
0000
1000
0100
0000
,
0010
0001
0100
0010
0000
1000
0010
0100
,
0010
0100
0001
0010
0000
0100
1000
0000
,
0001
0010
0100
1000
0000
0001
0010
0000
,
0100
1000
0001
0100
0000
0010
0100
0000
,
0001
0000
1000
0000
0100
1000
0100
1000
0100
0000
1000
0000
0010
0000
0100
0010
,
0100
0010
1000
0001
0000
0010
0100
0000
,
1000
0010
0100
0001
0000
1000
0010
0000
,
0100
0001
0010
0100
0000
1000
0010
0000
,
1000
0100
0010
0100
0000
1000
0001
0000
,
0100
0010
1000
0001
0000
0010
0100
0000
,
1000
0001
0100
0010
0000
0100
0001
0000
,
0101
0000
0000
0000
,
0000
0000
0000
0000
,
1001
0000
0001
0100
0000
0010
0000
1000
,
0100
1000
0010
0000
0100
0000
0101
0000
,
1001
0000
1000
0100
0000
0100
0000
0010
,
0001
0100
0010
0000
0100
0000
0101
0000
,
1001
0000
1000
0010
0000
0010
0000
0100
,
0001
0010
0100
0000
1100
0000
1010
0000
,
0010
0000
0100
0001
0000
0010
0000
0100
,
1000
0010
0100
0000
0101
0000
0001
1000
,
1100
0000
0100
0010
0000
0010
0000
0001
,
0100
0010
1000
0000
1001
0000
0101
0000
,
0110
0000
0010
1000
0000
0010
0000
0101
,
0000
0001
0010
0000
1100
0000
1010
0000
,
0101
0000
0000
0000
,
0000
0000
0000
0000
,
1010
0000
1001
0000
,
0000
0000
0000
0000
1111
0000
0000
0000
1111
0000
0000
0000
0001
1000
0001
1000
,
0001
0000
1001
0000
1000
0000
0010
0100
,
0000
0100
0010
0000
0110
0000
1010
0000
,
1001
0000
0101
0000
0100
0000
0001
0100
,
0000
0100
0010
0000
1010
0000
1000
0000
,
1001
0000
0011
0000
0010
0000
0100
1000
,
0000
1000
0010
0000
0110
0000
0101
0000
,
0001
1100
1000
0101
,
0002
0000
0000
0000
0000
0000
0000
0000
0100
0000
0000
0000
0000
0000
0000
0000
2003
0000
0000
0000
0000
0000
0000
0000
0010
0000
0000
0000
0000
0000
0000
3000
,
1001
0000
0101
0000
0100
0000
0010
1000
,
0000
1000
0100
0000
0110
0000
0011
0000
,
0101
0000
1010
0000
1000
0000
0010
0100
,
0000
0100
0001
0000
1001
0000
1000
0000
,
0110
0000
0101
0000
0001
0000
1000
0100
,
0000
0100
0010
0000
0011
0000
0101
0000
,
0100
1001
0010
1001
,
2000
0000
0000
3000
0001
1000
0000
0000
,
0001
0010
0100
1000
0100
0010
0001
1000
,
0001
0010
0100
1000
0100
0010
0001
1000
,
0001
0100
0010
1000
0010
0100
0001
1000
,
0001
0100
0010
1000
0001
1000
0002
0000
,
1003
0100
0010
0001
0010
0100
1000
0001
,
1000
0100
0010
0001
0010
0100
1000
0001
,
1000
0010
0100
0001
0100
0010
1000
0000
,
1111
1111
1111
1111
,
0001
0000
0000
0000
0000
0100
0000
0000
0000
0000
0001
0000
0000
0000
0000
0100
0000
0000
0000
0000
0001
0000
0000
0000
0000
1000
0000
0000
0000
0000
0001
0000
0000
0000
0000
1000
0000
0000
0000
0000
0001
0000
0000
0000
0000
0010
0000
0000
0000
0000
0100
0000
0000
0000
0000
1000
0000
0000
0000
0000
0100
0000
0000
0000
,
0000
1000
0000
0000
0000
0000
0100
0000
0000
0000
0000
1000
0000
0000
0000
0000
0001
0000
0000
0000
0000
0010
0000
0000
0000
0000
0001
0000
0000
0000
0000
0010
0000
0000
0000
0000
0001
0000
0000
0000
0000
1000
0000
0000
0000
0000
0001
0000
0000
0000
0000
1000
0000
0000
0000
0000
0001
0000
0000
0000
0000
0100
0000
0000
,
0000
0000
0010
0000
0000
0000
0000
0100
0000
0000
0000
0000
0010
0000
0000
0000
0000
0100
0000
0000
0000
0000
0010
0000
0000
0000
0000
1000
0000
0000
0000
0000
0001
0000
0000
0000
0000
1000
0000
0000
0000
0000
0001
0000
0000
0000
0000
0010
0000
0000
0000
0000
0100
0000
0000
0000
0000
1000
0000
0000
0000
0000
0100
0000
,
0000
0000
0000
1000
0000
0000
0000
0000
0100
0000
0000
0000
0000
0010
0000
0000
0000
0000
0001
0000
0000
0000
0000
1000
0000
0000
0000
0000
0001
0000
0000
0000
0000
1000
0000
0000
0000
0000
0001
0000
0000
0000
0000
1000
0000
0000
0000
0000
0001
0000
0000
0000
0000
0010
0000
0000
0000
0000
0100
0000
0000
0000
0000
1000
,
0000
0000
0000
0000
0100
0000
0000
0000
0000
0010
0000
0000
0000
0000
0001
0000
0000
0000
0000
1000
0000
0000
0000
0000
0100
0000
0000
0000
0000
1000
0000
0000
0000
0000
0010
0000
0000
0000
0000
0100
0000
0000
0000
0000
0001
0000
0000
0000
0000
0100
0000
0000
0000
0000
0010
0000
0000
0000
0000
1000
0000
0000
0000
0000
,
0001
0000
0000
0000
0000
0010
0000
0000
0000
0000
0100
0000
0000
0000
0000
1000
0000
0000
0000
0000
0010
0000
0000
0000
0000
0100
0000
0000
0000
0000
0001
0000
0000
0000
0000
0010
0000
0000
0000
0000
0001
0000
0000
0000
0000
0100
0000
0000
0000
0000
0010
0000
0000
0000
0000
1000
0000
0000
0000
0000
0001
0000
0000
0000
,
0100
0000
0000
0000
,
0000
0000
0000
0000
,
1001
0000
1000
0010
0000
0100
0000
0001
,
0010
0001
0100
0000
0010
0000
1010
0000
,
1001
0000
0001
0010
0000
0010
0000
0001
,
1000
0100
0010
0000
0100
0000
1010
0000
,
1001
0000
0001
0010
0000
0010
0000
0100
,
1000
0010
0100
0000
0101
0000
0011
0000
,
0001
0000
0010
0100
0000
0100
0000
1000
,
0010
0100
0001
0000
1010
0000
1000
0001
,
0011
0000
0010
0100
0000
0100
0000
1000
,
0010
0100
0001
0000
1001
0000
1010
0000
,
0110
0000
0100
0001
0000
0100
0000
1010
,
0000
1000
0100
0000
0110
0000
0011
0000
,
1100
0000
1000
0000
,
0010
0000
0400
0300
,
0101
0000
0101
0000
,
0000
0000
0000
0000
1111
0000
0000
0000
1111
0000
0000
0000
1000
0001
1000
0001
,
1000
0100
0010
0001
0000
0100
0010
0000
,
1000
0001
0100
0010
0000
0100
0001
0000
,
0100
0001
0010
0100
0000
1000
0010
0000
,
1000
0100
0010
0001
0000
0100
0001
1000
,
0001
0010
0100
1000
0000
0010
0100
0000
,
0001
0010
0100
1000
0000
0001
0010
0000
,
0100
1000
0001
0100
0000
0010
0100
0000
,
0001
0000
0100
0000
0001
0100
0001
0100
0001
0000
0100
0000
0010
0000
1000
0100
,
1000
0000
0100
1000
0001
0000
1000
0100
,
0010
0000
0001
0100
0010
0000
1000
0100
,
0010
0000
0001
0100
0010
0000
1000
0100
,
0010
0000
0001
0010
0100
0000
1000
0100
,
0010
0100
1000
0001
0100
0010
1000
0100
,
0010
0001
0010
0100
1000
0001
0100
0010
,
0110
0000
0000
0000
,
0000
0000
0000
0000
,
1111
0000
0000
0000
;
