#TITLE:Invisible Full Moon;
#SUBTITLE:;
#ARTIST:Xi;
#TITLETRANSLIT:;
#SUBTITLETRANSLIT:;
#ARTISTTRANSLIT:;
#CREDIT:Arvin;
#BANNER:../Tachyon Delta-bn.png;
#BACKGROUND:../Tachyon Delta-bg.png;
#LYRICSPATH:;
#CDTITLE:;
#MUSIC:toeys-khcut.ogg;
#OFFSET:-0.009;
#SAMPLESTART:24.730;
#SAMPLELENGTH:12.000;
#SELECTABLE:YES;
#DISPLAYBPM:182.000;
#BPMS:0.000=180.200,58.000=175.000,60.000=185.000,85.000=190.000,109.000=170.000,112.000=182.000,268.000=182.300;
#STOPS:;
#BGCHANGES:;
// cache tags:
#FIRSTBEAT:16.000;
#LASTBEAT:337.000;
#SONGFILENAME:Songs/Tachyon Delta/Invisible Full Moon - [Arvin]/ifm.sm;
#HASMUSIC:1;
#HASBANNER:1;
#MUSICLENGTH:112.826;
// end cache tags

//---------------dance-single - Arvin----------------
#NOTES:
     dance-single:
     Arvin:
     Challenge:
     15:
     1.000,1.000,0.168,0.363,1.000,860.000,19.000,41.000,0.000,0.000:

0000
0000
0000
0000
,
0000
0000
0000
0000
,
0000
0000
0000
0000
,
0000
0000
0000
0000
,
1000
0000
1000
0000
0200
0000
0310
0001
,
1000
0010
1000
0001
0040
0000
0000
0032
,
0000
0000
1003
0000
0010
0000
1000
0000
0001
0000
0010
0100
0010
0100
1000
0001
,
1000
0100
0010
0001
0100
0010
1000
0001
0010
0001
1000
0100
0010
0001
0010
0001
,
1000
0010
1000
0100
0010
0001
1000
0010
1000
0001
0010
0100
1000
0001
0010
0001
,
1000
0100
0010
0001
0100
0010
1000
0001
0010
0001
1000
0100
0010
0001
0010
0001
,
1000
0010
1000
0100
0010
0001
1000
0010
1000
0001
0010
0100
1000
0001
0010
0001
,
1000
0010
0100
0001
0010
0100
1000
0001
0100
0001
1000
0010
0100
0001
0100
0001
,
1000
0100
1000
0010
0100
0001
1000
0100
1000
0001
0100
0010
1000
0001
0100
0001
,
1000
0010
0100
0001
0010
0100
1000
0001
0100
0001
1000
0010
0100
0001
0100
0001
,
1000
0000
0000
0100
0000
0000
1000
0000
0000
0010
0000
0000
0100
0000
0000
0001
0000
0000
1000
0000
0000
0100
0000
0000
1000
0000
0001
0000
0100
0000
0001
0000
1000
0000
0010
0000
1000
0000
0001
0000
0010
0000
0001
0000
1000
0000
0100
0000
,
1000
0000
0000
0000
0000
0000
0000
0000
0000
0000
0000
0000
0000
0000
0000
0000
1100
0000
0000
0000
0000
0000
0000
0000
0000
0000
0000
0000
0000
0000
0000
0000
2000
3000
0000
0000
0000
0000
0000
0000
0100
0000
0000
0000
0010
0000
0000
0000
0002
0003
0000
0000
0000
0000
0000
0000
0000
0000
0000
0000
0000
0000
0000
0000
,
1000
0000
0000
0000
0000
0000
0000
0000
0000
0000
0000
0000
0000
0000
0000
0000
0200
0300
0000
0000
0000
0000
0000
0000
0000
0000
0000
0000
0000
0000
0000
0000
0020
0030
0000
0000
0000
0000
0000
0000
0001
0000
0000
0000
0100
0000
0000
0000
0010
0000
0000
0000
0000
0000
0000
0000
0000
0000
0000
0000
0000
0000
0000
0000
,
2000
3000
0000
0000
0000
0000
0000
0000
0000
0000
0000
0000
0000
0000
0000
0000
0002
0003
0000
0000
0000
0000
0000
0000
0000
0000
0000
0000
0000
0000
0000
0000
0010
0000
0000
0000
0000
0000
0000
0000
0000
0000
0000
0000
0000
0000
0000
0000
0110
0000
0000
0000
0000
0000
0000
0000
0000
0000
0000
0000
0000
0000
0000
0000
,
2100
3000
0000
0000
0000
0000
0000
0000
0000
0000
0000
0000
0000
0000
0000
0000
0100
0000
0000
0000
0000
0000
0000
0000
0000
0000
0000
0000
0000
0000
0000
0000
0010
0000
0000
0000
0000
0000
0000
0000
0001
0000
0000
0000
1000
0000
0000
0000
0010
0000
0000
0000
0000
0000
0000
0000
0000
0000
0000
0000
0000
0000
0000
0000
,
1000
0000
0000
0000
0000
0000
0000
0000
0000
0000
0000
0000
0000
0000
0000
0000
1010
0000
0000
0000
0000
0000
0000
0000
0000
0000
0000
0000
0000
0000
0000
0000
0200
0300
0000
0000
0000
0000
0000
0000
0001
0000
0000
0000
0010
0000
0000
0000
0100
0000
0000
0000
0000
0000
0000
0000
1000
0000
0000
0000
0000
0000
0000
0000
,
1001
0001
0101
0100
0110
0010
1010
0000
,
0000
0000
0001
0010
0100
0000
1000
0000
,
0001
0000
0100
0000
0010
0000
0100
0010
,
1000
0001
0010
0100
,
1000
0000
0000
0000
1000
0000
0010
0000
0100
0000
0000
0000
0001
0010
0001
1000
,
0001
0100
0001
0010
0100
1000
0001
0010
0001
0100
0010
1000
0100
0010
0001
1000
,
0010
1000
0001
0010
0100
1000
0100
0010
0001
1000
0100
0010
0001
0010
0100
1000
,
0001
0000
0000
0000
0000
0000
1000
0000
0000
0010
0000
0000
0100
0000
0000
0000
0000
0000
0001
0000
0100
0000
0001
0000
1000
0000
0010
0000
1000
0000
0001
0000
0000
1000
0000
0000
0100
0000
0000
0010
0000
0000
0001
0000
0000
1000
0000
0000
,
0001
0000
0001
0000
0200
0000
0310
1000
,
0001
0100
0001
1000
0200
0000
0300
2000
,
0000
3001
0100
0001
1000
0100
0010
0002
,
0000
1003
0010
0100
0001
0000
0101
0000
,
0001
0000
0001
0000
0200
0000
0310
1000
,
0100
0010
0001
1000
0002
0000
0000
2003
,
0000
0000
3100
0000
0010
0000
0001
0000
0100
0000
0000
0010
0000
0000
1000
0000
,
0002
0000
0003
1001
,
0004
0000
0000
0000
0000
0000
0000
0000
0000
0000
0000
0000
0000
0000
0000
0000
0000
0000
0000
0000
0000
0000
0000
0000
1003
0000
0000
0100
0000
0000
1000
0000
0000
0001
0000
0000
0010
0000
0100
0000
1000
0000
0001
0000
0010
0000
0100
0000
,
2000
0000
0000
0000
0000
0000
3010
0000
0000
0100
0000
0000
0000
0000
0000
0100
0000
0000
0001
0000
0000
0000
0000
0000
1000
0000
0000
0100
0000
0000
0000
0000
0000
0010
0000
0000
0001
0000
1000
0000
0001
0000
0010
0000
0100
0000
1000
0000
,
0001
1000
0001
0100
0020
0000
2030
0000
3010
0100
0001
1000
0002
0000
0023
0000
,
0130
0000
0000
1000
0000
0000
0010
0000
0000
1000
0000
0000
0001
0000
0000
0010
0000
0000
0001
0000
0000
1000
0000
0000
0001
0000
0100
0000
0010
0000
1000
0000
0001
0000
1000
0000
0001
0000
0000
0010
0000
0000
0100
0000
0000
1000
0000
0000
,
0100
0000
0010
0000
0001
0000
0010
0000
0100
0000
1000
0000
0001
0000
0010
0000
0100
0000
1000
0000
0100
0000
0010
0000
0001
0000
0000
0000
0000
0000
1000
0000
0000
0100
0000
0000
0000
0000
0000
0100
0000
0000
0010
0000
0000
0001
0000
0000
,
2000
0000
0000
3000
0000
0000
2000
0000
0000
0000
0000
0000
3001
0000
0000
0010
0000
0000
0001
0000
0000
1000
0000
0000
0010
0000
0100
0000
0001
0000
1000
0000
0000
0100
0000
0000
0010
0000
0000
0100
0000
0000
0010
0000
0000
0001
0000
0000
,
1000
0000
0000
0100
0000
0000
1000
0000
0000
0100
0000
0000
1000
0000
0000
0100
0000
0000
1000
0000
0001
0000
1000
0000
0001
0000
1000
0000
0001
0000
1000
0000
0000
0100
0000
0000
0010
0000
0000
0001
0000
0000
0010
0000
0000
0100
0000
0000
,
1000
0001
1000
0010
0100
0010
1000
0001
0010
0001
1000
0100
0010
0001
0010
0001
,
1000
0010
1000
0100
0010
0001
1000
0010
1000
0001
0010
0100
1000
0001
0010
0001
,
1000
0100
0010
0001
0100
0010
1000
0001
0010
0001
1000
0100
0010
0001
0010
0001
,
1000
0010
1000
0100
0010
0001
1000
0010
1000
0001
0010
0100
1000
0001
0010
0001
,
1000
0010
0100
0001
0010
0100
1000
0001
0100
0001
1000
0010
0100
0001
0100
0001
,
1000
0100
1000
0010
0100
0001
1000
0100
1000
0001
0100
0010
1000
0001
0100
0001
,
1000
0010
0100
0001
0010
0100
1000
0001
0100
0001
1000
0010
0100
0001
0100
0001
,
1000
0100
1000
0010
0100
0001
1000
0100
1000
0001
0100
0010
1000
0010
0100
0001
,
1000
0000
1000
0000
0200
0000
0310
0001
,
1000
0010
1000
0100
0040
0000
0000
0032
,
0000
1003
0010
1000
0100
0010
0001
2000
,
0000
0000
0000
3010
0000
0000
0100
0000
0000
0001
0000
0000
2000
0000
0000
3100
0010
0001
0010
0100
1000
0001
1000
0001
,
1000
0000
1000
0000
0200
0000
0310
0001
,
1000
0100
1000
0010
0400
0000
0000
0302
,
0000
0000
0013
0000
0100
0000
1000
0000
0002
0000
0000
0203
0000
0000
0320
0000
,
0230
0000
0000
0000
0000
0000
0301
0000
0010
0000
0100
0000
1000
0000
0100
0000
0010
0000
0001
0000
1000
0000
0001
0000
1000
0000
0000
0100
0000
0000
0010
0000
0000
0001
0000
0000
1000
0000
0000
0010
0000
0000
0100
0000
0000
0001
0000
0000
,
1000
0000
1000
0000
0020
0000
0130
0001
,
1000
0100
0010
0001
4000
0000
0000
3020
,
0000
1030
0100
0010
0001
1000
0010
0200
,
0000
0301
0010
0100
4000
0000
0000
0000
,
3001
0000
0001
0000
0200
0000
0310
1000
,
0100
0010
0001
0100
0040
0000
0000
2030
,
0000
0000
3100
0000
0010
0000
0001
0000
1000
0000
0000
0010
0000
0000
0100
0000
,
0001
0000
0000
1000
0000
0000
0001
0000
0000
0010
0000
0000
0100
0000
0000
1000
0000
0000
0010
0000
0000
0100
0000
0000
0001
0000
0000
0010
0000
0000
0100
0000
0000
1000
0000
0000
0001
0000
0010
0000
0001
0000
1000
0000
0100
0000
1000
0000
,
0004
0000
0000
0000
0000
0000
0000
0000
1003
0100
1000
0001
0000
1000
0001
1000
,
0001
1000
0100
0010
0001
1000
0001
1000
0100
0010
0001
1000
0004
0000
0000
0000
0000
0000
0000
0000
0000
0003
0000
0000
,
1000
0100
1000
0001
1000
0100
1000
0001
1000
0100
1000
0001
1000
0100
1000
0001
,
1000
0000
0001
0000
0100
0000
0001
0000
1000
0000
0010
0000
1000
0000
0000
0001
0000
0000
0100
0000
0000
0001
0000
0000
1000
0000
0100
0000
0010
0000
0001
0000
1000
0000
0100
0000
1000
0000
0100
0000
0010
0000
0001
0000
0010
0000
0001
0000
,
1000
0100
0040
0000
0000
0000
0000
0000
0031
0000
0000
1000
0000
0000
0010
0000
,
0100
0000
0000
0001
0000
0000
1000
0000
0100
0000
0000
1000
0000
0000
0100
0000
,
0020
0000
0000
0000
0000
0000
0000
0000
0000
0000
0000
0000
0000
0000
0000
0000
0000
0000
0000
0000
0000
0000
0030
0000
0001
0000
1000
0000
0001
0000
1000
0000
0000
0001
0000
0000
0010
0000
0000
0100
0000
0000
1000
0000
0000
0100
0000
0000
,
1000
0010
0100
0001
0010
0100
1000
0001
0100
0001
1000
0010
0100
0001
0100
0001
,
1000
0100
1000
0010
0100
0001
1000
0100
1000
0001
0100
0010
1000
0001
0100
0001
,
1000
0010
0100
0001
0010
0100
1000
0001
0100
0001
1000
0010
0100
0001
0100
0001
,
1000
0100
1000
0010
0100
0001
1000
0100
1000
0001
0100
0010
1000
0001
0100
0001
,
1000
0100
0010
0001
0100
0010
1000
0001
0010
0001
1000
0100
0010
0001
0010
0001
,
1000
0010
1000
0100
0010
0001
1000
0010
1000
0001
0010
0100
1000
0001
0010
0001
,
1000
0100
0010
0001
0100
0010
1000
0001
0010
0001
1000
0100
0010
0001
0010
0001
,
1000
0000
0000
0010
0000
0000
1000
0000
0000
0001
0000
0000
0010
0000
0000
0001
0000
0000
0100
0000
0000
0010
0000
0000
1000
0000
0001
0000
1000
0000
0001
0000
0010
0000
0100
0000
1000
0000
0100
0000
0010
0000
0001
0000
1000
0000
0001
0000
,
4000
0000
0000
0000
,
0000
0000
0000
0000
,
0000
3000
0000
0000
;
