#TITLE:Spring Breeze;
#SUBTITLE:Kirby Air Ride;
#ARTIST:Hirokazu Ando;
#TITLETRANSLIT:;
#SUBTITLETRANSLIT:;
#ARTISTTRANSLIT:;
#CREDIT:;
#BANNER:bn.jpg;
#BACKGROUND:bg-stage1.jpg;
#LYRICSPATH:;
#CDTITLE:super_sonic.PNG;
#MUSIC:spring breeze.mp3;
#OFFSET:-0.050;
#SAMPLESTART:6.280;
#SAMPLELENGTH:12.000;
#SELECTABLE:YES;
#BPMS:0.000=183.660;
#STOPS:;
#BGCHANGES:;
// cache tags:
#FIRSTBEAT:0.000;
#LASTBEAT:170.250;
#SONGFILENAME:Songs/Definitive Keyboard Megapack/Spring Breeze(SonicX)/spring breeze.sm;
#HASMUSIC:1;
#HASBANNER:1;
#MUSICLENGTH:75.284;
// end cache tags

//---------------dance-single - ----------------
#NOTES:
     dance-single:
     :
     Hard:
     13:
     1.000,1.000,1.000,0.943,1.000,563.000,157.000,71.000,0.000,4.000:

1000
1000
0000
1000
1000
0000
1000
0000
1000
0000
0010
0010
0010
0000
0001
0010
,
2000
3000
0000
0000
0000
0000
0000
0000
0010
0000
0000
0000
0000
0000
0000
0000
0010
0000
0000
0000
0000
0000
0000
0000
0010
0000
0000
0000
0000
0000
0000
0000
0010
0000
0000
0000
0000
0000
0000
0000
0010
0000
0000
0000
0000
0000
0000
0000
0010
0000
0000
0000
0000
0000
0000
0000
0010
0000
0000
0000
0000
0000
0000
0000
,
2000
3000
0000
0000
0000
0000
0000
0000
0010
0000
0000
0000
0000
0000
0000
0000
0010
0000
0000
0000
0000
0000
0000
0000
0010
0000
0000
0000
0000
0000
0000
0000
0010
0000
0000
0000
0000
0000
0000
0000
0010
0000
0000
0000
0000
0000
0000
0000
0010
0000
0000
0000
0000
0000
0000
0000
0010
0000
0000
0000
0000
0000
0000
0000
,
0200
0300
0000
0000
0000
0000
0000
0000
0001
0000
0000
0000
0000
0000
0000
0000
0001
0000
0000
0000
0000
0000
0000
0000
0001
0000
0000
0000
0000
0000
0000
0000
0001
0000
0000
0000
0000
0000
0000
0000
0001
0000
0000
0000
0000
0000
0000
0000
0001
0000
0000
0000
0000
0000
0000
0000
0001
0000
0000
0000
0000
0000
0000
0000
,
0000
0000
0000
0000
0000
0000
0000
0000
2001
3000
0000
0000
0000
0000
0000
0000
2001
3000
0000
0000
0000
0000
0000
0000
0210
0300
0000
0000
0000
0000
0000
0000
0210
0300
0000
0000
0000
0000
0000
0000
0000
0000
0000
0000
0000
0000
0000
0000
1000
0000
0000
0000
0000
0000
0000
0000
0000
0000
0000
0000
1000
0000
0000
0000
,
0210
0000
0000
0000
0000
0000
0000
0000
0010
0000
0000
0000
1000
0000
0000
0000
0001
0000
0000
0000
0000
0000
0000
0000
0010
0000
0000
0000
1000
0000
0000
0000
0001
0000
0000
0000
0000
0000
0000
0000
0010
0000
0000
0000
1000
0000
0000
0300
0110
0000
0000
0000
0001
0000
0000
0000
0100
0000
0000
0000
1010
0000
0000
0000
,
0101
0000
0011
1000
0110
0000
1100
0001
1010
0000
0010
1000
0110
0001
1000
0101
,
1010
0000
0100
0001
0110
0000
0100
1001
0110
0000
0010
0100
1001
0010
0100
0011
,
1200
0000
0001
0010
1000
0000
0001
0010
1000
0000
0001
0010
1301
0100
0010
1001
,
0210
0000
0000
0000
0000
0000
0000
0000
0010
0000
0000
0000
1000
0000
0000
0000
0001
0000
0000
0000
0000
0000
0000
0000
0010
0000
0000
0000
1000
0000
0000
0000
0001
0000
0000
0000
0000
0000
0000
0000
0010
0000
0000
0000
1000
0000
0000
0300
0110
0000
0000
0000
0001
0000
0000
0000
0100
0000
0000
0000
1010
0000
0000
0000
,
0101
0000
0011
1000
0110
0000
1100
0001
1010
0000
0010
1000
0110
0001
1000
0101
,
1010
0000
0100
0001
0110
0000
0100
1001
0110
0000
0010
0100
1001
0010
0100
0011
,
1200
0010
0001
0010
0001
0010
0001
0010
1300
0010
0001
1000
0001
1000
0001
1000
,
0201
0300
0000
0000
0000
0000
0000
0000
0000
0000
0000
0000
0201
0300
0000
0000
0010
0000
0000
0000
0000
0000
0000
0000
0001
0000
0000
0000
0000
0000
0000
0000
0120
0030
0000
0000
0000
0000
0000
0000
0120
0030
0000
0000
0000
0000
0000
0000
0010
0000
0000
0000
0000
0000
0000
0000
0100
0000
0000
0000
0000
0000
0000
0000
,
1000
0000
0011
0100
0011
0000
0011
0100
0011
0000
0011
0100
0011
0100
0011
0100
,
1000
0000
0011
0100
0011
0000
0011
0100
0011
0000
0011
0100
1001
0100
0001
1100
,
0011
1000
0010
0001
0100
0001
1000
0010
0001
0100
1000
0001
0010
1000
0001
0100
,
0001
0010
1000
0001
0100
0001
0010
0001
1000
0100
0010
0001
1000
0100
0001
0100
,
0010
1000
0010
0001
0100
0001
1000
0010
0001
0010
0100
1000
0010
0001
1000
0100
,
0002
0000
0000
0000
0010
0000
0000
0000
0103
0000
0000
0000
1000
0000
0000
0000
0100
0000
0000
0000
1000
0000
0000
0000
0100
0000
0000
0000
1000
0000
0000
0000
0200
0000
0000
0000
0310
0000
0000
0000
0001
0000
0000
0000
0010
0000
0000
0000
2000
3000
0000
0000
0001
0000
0000
0000
1000
0000
0000
0000
0200
0300
0000
0000
,
0020
0030
0000
0000
0001
0000
0000
0000
0010
0000
0000
0000
1000
0000
0000
0000
0200
0300
0000
0000
0001
0000
0000
0000
1000
0000
0000
0000
0020
0030
0000
0000
0002
0003
0000
0000
0100
0000
0000
0000
1000
0000
0000
0000
0001
0000
0000
0000
0020
0030
0000
0000
1000
0000
0000
0000
0001
0000
0000
0000
0200
0300
0000
0000
,
0002
0003
0000
0000
0010
0000
0000
0000
0100
0000
0000
0000
1000
0000
0000
0000
0200
0300
0000
0000
0010
0000
0000
0000
1000
0000
0000
0000
0002
0003
0000
0000
2000
3000
0000
0000
0100
0000
0000
0000
0010
0000
0000
0000
0001
0000
0000
0000
2000
3000
0000
0000
0010
0000
0000
0000
0001
0000
0000
0000
0200
0300
0000
0000
,
0020
0030
0000
0000
0001
0000
0000
0000
0010
0000
0000
0000
1000
0000
0000
0000
0200
0300
0000
0000
0001
0000
0000
0000
1000
0000
0000
0000
0020
0030
0000
0000
0002
0003
0000
0000
0100
0000
0000
0000
1000
0000
0000
0000
0001
0000
0000
0000
0020
0030
0000
0000
1000
0000
0000
0000
0100
0000
0000
0000
0002
0003
0000
0000
,
2100
0000
0010
0100
0001
0000
0010
0100
3012
0003
0000
0000
1000
0000
0000
1000
,
0210
0000
0000
0000
0000
0000
0000
0000
0010
0000
0000
0000
1000
0000
0000
0000
0001
0000
0000
0000
0000
0000
0000
0000
0010
0000
0000
0000
1000
0000
0000
0000
0001
0000
0000
0000
0000
0000
0000
0000
0010
0000
0000
0000
1000
0000
0000
0300
0110
0000
0000
0000
0001
0000
0000
0000
0100
0000
0000
0000
1010
0000
0000
0000
,
0101
0000
0011
1000
0110
0000
1100
0001
1010
0000
0010
1000
0110
0001
1000
0101
,
1010
0000
0100
0001
0110
0000
0100
1001
0110
0000
0010
0100
1001
0010
0100
0011
,
1200
0000
0001
0010
1000
0000
0001
0010
1000
0000
0001
0010
1301
0100
0010
1001
,
0210
0000
0000
0000
0000
0000
0000
0000
0010
0000
0000
0000
1000
0000
0000
0000
0001
0000
0000
0000
0000
0000
0000
0000
0010
0000
0000
0000
1000
0000
0000
0000
0001
0000
0000
0000
0000
0000
0000
0000
0010
0000
0000
0000
1000
0000
0000
0300
0110
0000
0000
0000
0001
0000
0000
0000
0100
0000
0000
0000
1010
0000
0000
0000
,
0101
0000
0011
1000
0110
0000
1100
0001
1010
0000
0010
1000
0110
0001
1000
0101
,
1010
0000
0100
0001
0110
0000
0100
1001
0110
0000
0010
0100
1001
0010
0100
0011
,
1200
0010
0001
0010
0001
0010
0001
0010
1300
0010
0001
1000
0001
1000
0001
1000
,
0201
0300
0000
0000
0000
0000
0000
0000
0000
0000
0000
0000
0201
0300
0000
0000
0010
0000
0000
0000
0000
0000
0000
0000
0001
0000
0000
0000
0000
0000
0000
0000
0120
0030
0000
0000
0000
0000
0000
0000
0120
0030
0000
0000
0000
0000
0000
0000
0010
0000
0000
0000
0000
0000
0000
0000
0100
0000
0000
0000
0000
0000
0000
0000
,
1000
0000
0011
0100
0011
0000
0011
0100
0011
0000
0011
0100
0011
0100
0011
0100
,
1000
0000
0011
0100
0011
0000
0011
0100
0011
0000
0011
0100
1001
0100
0001
1100
,
0011
1000
0010
0001
1100
0001
1000
0110
1001
0100
1000
0001
0110
1000
0001
0110
,
1001
0010
1000
0001
0110
0001
0010
0101
1010
0100
0010
0001
1010
0100
0001
1100
,
0011
1000
0010
0001
0110
0001
1000
0110
1001
0010
0100
1000
0110
0001
1000
0110
,
1002
0000
0000
0000
0010
0000
0000
0000
0103
0000
0000
0000
1000
0000
0000
0000
0100
0000
0000
0000
1000
0000
0000
0000
0100
0000
0000
0000
1000
0000
0000
0000
0201
0000
0000
0000
0310
0000
0000
0000
0001
0000
0000
0000
0010
0000
0000
0000
2100
3000
0000
0000
0001
0000
0000
0000
1000
0000
0000
0000
0201
0300
0000
0000
,
1020
0030
0000
0000
0001
0000
0000
0000
0010
0000
0000
0000
1000
0000
0000
0000
0210
0300
0000
0000
0001
0000
0000
0000
1000
0000
0000
0000
0120
0030
0000
0000
1002
0003
0000
0000
0100
0000
0000
0000
1000
0000
0000
0000
0001
0000
0000
0000
0120
0030
0000
0000
1000
0000
0000
0000
0001
0000
0000
0000
0210
0300
0000
0000
,
1002
0003
0000
0000
0010
0000
0000
0000
0100
0000
0000
0000
1000
0000
0000
0000
0201
0300
0000
0000
0010
0000
0000
0000
1000
0000
0000
0000
0102
0003
0000
0000
2010
3000
0000
0000
0100
0000
0000
0000
0010
0000
0000
0000
0001
0000
0000
0000
2100
3000
0000
0000
0010
0000
0000
0000
1000
0000
0000
0000
0201
0300
0000
0000
,
1020
0030
0000
0000
0001
0000
0000
0000
0010
0000
0000
0000
1000
0000
0000
0000
0210
0300
0000
0000
0001
0000
0000
0000
1000
0000
0000
0000
0120
0030
0000
0000
1002
0003
0000
0000
0100
0000
0000
0000
1000
0000
0000
0000
0001
0000
0000
0000
0120
0030
0000
0000
1000
0000
0000
0000
0100
0000
0000
0000
0012
0003
0000
0000
,
2100
0000
0010
0100
0001
0000
0010
0100
3012
0003
0000
0000
0000
0000
0000
0000
;
