#TITLE:Gold;
#SUBTITLE:;
#ARTIST:Owl City;
#TITLETRANSLIT:;
#SUBTITLETRANSLIT:;
#ARTISTTRANSLIT:;
#CREDIT:;
#BANNER:../Banner.png;
#BACKGROUND:../BG.png;
#LYRICSPATH:;
#CDTITLE:../CDTitleBRAEDEN.png;
#MUSIC:Owl City - Gold (Lyrics).ogg;
#OFFSET:-0.400;
#SAMPLESTART:33.333;
#SAMPLELENGTH:12.000;
#SELECTABLE:YES;
#BPMS:0.000=84.000;
#STOPS:;
#BGCHANGES:;
// cache tags:
#FIRSTBEAT:5.000;
#LASTBEAT:113.000;
#SONGFILENAME:Songs/Index Tesseract/Gold - [Braeden]/Gold.sm;
#HASMUSIC:1;
#HASBANNER:1;
#MUSICLENGTH:237.284;
// end cache tags

//---------------dance-single - ----------------
#NOTES:
     dance-single:
     :
     Hard:
     8:
     0.157,0.149,0.114,0.030,0.124,226.000,27.000,7.000,0.000,0.000:
0000
0000
0000
0000
,
0000
0000
0000
0000
,
0000
0000
0000
0000
1001
0000
0010
1000
0010
0000
1000
0010
0000
0100
0010
0000
,
0100
2002
0000
0000
,
3003
0000
0000
0000
1001
0000
0010
0100
0010
0000
1000
0100
0000
0010
0001
0000
,
1001
0000
0000
0000
0010
0000
1000
0010
0100
0010
1000
0010
0000
0100
0001
0000
,
0101
0000
0000
0000
1010
0000
1000
0001
0100
0000
0010
1000
0000
1000
0010
0000
,
0001
0000
0000
0000
1001
0000
0010
1000
0010
0100
0010
1000
0000
0001
0000
0000
,
1001
0000
0000
0000
1100
0000
1000
0000
0100
0000
0010
0001
0010
0000
0001
0000
,
0200
0000
0010
0000
0310
0000
1000
0000
0001
0000
0100
0010
0100
0000
0001
0000
,
0010
0000
0100
0000
1000
0000
0001
0100
0001
0000
0010
0001
0000
0001
0100
0000
,
0001
0000
0000
0000
1001
0000
0010
1000
0010
1000
0010
1000
0000
0001
0000
0000
,
0100
0010
0100
0010
0100
0000
0000
0000
0001
0010
0001
0010
0000
0000
0000
0000
,
1000
0001
0100
0001
0000
0000
0000
0000
0100
0000
0010
1000
0000
1000
0010
0000
,
0101
0000
0000
0000
0011
0000
0001
0100
0001
1000
0001
0100
0000
0000
0000
0000
,
1000
0010
0100
0010
0000
0000
0000
0000
1001
0000
0010
0000
0100
0000
0001
0000
,
0010
0000
0001
0000
1001
0000
1000
0010
0100
0000
0100
0001
0000
0001
0010
0000
,
0011
0000
1000
0001
0101
0000
0010
1000
,
1010
0000
0000
0000
1001
0000
0001
0100
0001
0000
1000
0010
0000
0100
0001
0000
,
0101
0000
0010
1000
1010
0000
0100
0001
,
0100
0000
0000
0000
0010
0100
0010
0100
0010
0000
0000
0000
1000
0000
0000
0000
0001
0000
0000
0000
0100
0000
0000
0000
0010
0000
0000
0000
1000
0000
0000
0000
,
0100
0020
0001
0001
0031
0100
0010
1000
,
0001
0000
0100
0000
0020
0000
1000
0000
1030
0000
0002
0000
0100
0000
0100
0003
,
0020
0100
0100
0100
0130
1000
0001
0100
,
0010
0000
1000
0000
1001
0000
0001
0100
0001
0000
0010
0001
0000
0001
0100
0000
,
0101
0010
1000
0010
1010
1000
0001
0100
,
0101
0000
0010
0000
1010
0000
1000
0001
0100
0000
0100
0010
0000
0010
1000
0000
,
1001
0000
0000
0000
0010
0000
0000
0000
0100
0000
0000
0000
0010
0000
0000
0000
1010
0000
0000
0000
1000
0000
0000
0000
0100
0000
0000
0000
0010
0000
0100
0010
,
0100
0000
0000
0000
0001
1000
0001
1000
0001
0000
0000
0000
0000
0000
0000
0000
0000
0000
0000
0000
0000
0000
0000
0000
0000
0000
0000
0000
0000
0000
0000
0000
;

//---------------dance-single - Copied from----------------
#NOTES:
     dance-single:
     Copied from:
     Medium:
     7:
     0.104,0.125,0.080,0.030,0.032,146.000,19.000,7.000,0.000,0.000:
0000
0000
0000
0000
,
0000
0000
0000
0000
,
0000
1000
0001
0100
,
0010
2002
0000
0000
,
3003
0000
0000
0000
1001
0000
0001
0000
0100
0000
0000
0100
0000
0000
0100
0000
,
0000
0000
0000
0000
0010
0000
1000
0000
0010
0000
0000
0010
0000
0000
0000
0000
,
1001
0000
0000
0000
1000
0000
0001
0000
0100
0000
0000
0100
0000
0000
0010
0000
,
1000
0000
0000
0000
0001
0000
0100
0000
0010
0000
0000
1000
0000
0000
0000
0000
,
1001
0000
1000
0100
1000
0100
0010
0001
,
0010
0000
0100
1000
0100
1000
0001
0100
,
0010
0000
1001
0010
1000
0000
0000
0000
,
1001
0000
0100
0001
0010
0000
0000
0000
,
0001
0000
1000
0000
0001
0000
0000
0000
0100
0000
0000
0010
0000
0000
0000
0000
,
1000
0000
0000
0000
0001
0000
1000
0000
0001
0000
0000
0100
0000
0000
0000
0000
,
1010
0201
0310
0000
,
0010
0000
0000
0000
0001
1000
0001
0100
,
0010
0000
0000
0000
1100
0000
1000
0000
0100
0000
0000
0100
0000
0000
0010
0000
,
0011
0000
0000
0001
0200
0000
0000
0310
,
2000
0000
0000
0000
3001
0000
0001
0000
0001
0000
0000
0100
0000
0000
0010
0000
,
1001
0000
1000
0100
0011
0000
0100
0100
,
0110
0000
1000
0001
0100
0001
1000
0001
,
0010
0200
0000
0000
0300
1000
0001
0100
,
0010
1000
0001
0010
0100
1000
0001
0100
,
0010
2000
0000
0000
0000
3001
0100
0010
,
1000
0000
0010
0000
0100
0000
0001
0100
0001
0000
0000
0100
0000
0000
0100
0000
,
0110
0000
1000
0001
0101
0000
1000
0010
,
0101
0000
0000
0000
1001
0000
1000
0001
1000
0000
1000
0001
0000
0001
1000
0000
,
1001
0000
0000
0000
1000
0000
0100
0000
0011
0000
0000
0000
0001
0000
0100
0010
,
0100
0000
0001
1000
0001
0000
0000
0000
0000
0000
0000
0000
0000
0000
0000
0000
;

//---------------dance-single - ----------------
#NOTES:
     dance-single:
     :
     Easy:
     2:
     0.035,0.042,0.021,0.013,0.000,50.000,5.000,3.000,0.000,0.000:
0000
0000
0000
0000
,
0000
0000
0000
0000
,
0000
1000
0001
1000
,
0000
0002
0000
0000
,
0003
1001
0000
1000
,
0000
0010
0000
0100
,
0000
0001
0000
1000
,
0000
0010
0000
0100
,
0000
0002
0000
0003
,
0000
2000
0000
3000
,
0000
0010
0000
0000
,
0000
0100
0000
0000
,
0000
0001
0000
0001
,
0000
1000
0000
1000
,
0000
0010
0000
0010
,
0000
0100
0000
0000
,
0000
1001
0000
1000
,
0000
0001
0000
0100
,
0000
0010
0000
1000
,
0000
0001
0000
1000
,
0000
1001
0000
0100
,
0000
0010
0000
1000
,
0000
0001
0000
0100
,
0000
0010
0000
1000
,
0000
1001
0000
0100
,
0000
0000
0000
0010
0010
0000
0000
0100
,
0100
0000
0001
0000
,
1000
0000
0010
0000
,
0100
1001
0000
0000
;

//---------------dance-single - Copied from----------------
#NOTES:
     dance-single:
     Copied from:
     Beginner:
     1:
     0.022,0.024,0.000,0.000,0.000,36.000,0.000,0.000,0.000,0.000:
0000
0000
0000
0000
,
0000
1000
0000
0000
,
0000
0001
0000
0000
,
0000
1000
0000
0000
,
0000
0000
0000
0000
,
0000
0001
0000
0000
,
0000
1000
0000
0000
,
0000
0001
0000
1000
,
0000
0001
0000
0001
,
0000
1000
0000
1000
,
0000
0001
0000
0000
,
0000
1000
0000
0000
,
0000
0001
0000
0000
,
0000
1000
0000
0000
,
0000
0001
0000
0000
,
0000
1000
0000
0000
,
0000
0001
0000
0001
,
0000
1000
0000
1000
,
0000
0001
0000
0001
,
0000
0000
0000
0000
,
0000
0001
0000
1000
,
0000
0001
0000
1000
,
0000
1000
0000
0001
,
0000
1000
0000
0001
,
0000
1000
0000
0000
,
0000
0001
0000
0000
,
0000
1000
0000
0000
,
0000
0001
0000
0000
,
0000
1000
0000
0000
;
