#TITLE:Vanessa;
#SUBTITLE:;
#ARTIST:Suzaku;
#TITLETRANSLIT:;
#SUBTITLETRANSLIT:;
#ARTISTTRANSLIT:;
#CREDIT:;
#BANNER:Vanessa bn.png;
#BACKGROUND:Vanessa bg.png;
#LYRICSPATH:;
#CDTITLE:cdtitle.png;
#MUSIC:VANESSA.mp3;
#OFFSET:-0.840;
#SAMPLESTART:65.680;
#SAMPLELENGTH:12.920;
#SELECTABLE:YES;
#BPMS:0.000=185.000;
#STOPS:;
#BGCHANGES:;
// cache tags:
#FIRSTBEAT:0.000;
#LASTBEAT:272.000;
#SONGFILENAME:Songs/juju step2/Vanessa/Vanessa.sm;
#HASMUSIC:1;
#HASBANNER:1;
#MUSICLENGTH:94.563;
// end cache tags

//---------------dance-single - ----------------
#NOTES:
     dance-single:
     :
     Hard:
     13:
     1.000,1.000,1.000,0.296,1.000,680.000,239.000,28.000,0.000,46.000:  // measure 1
1101
0000
0010
0000
,  // measure 2
0010
0000
0000
0000
0010
0000
0000
0110
,  // measure 3
1011
0000
0100
0000
,  // measure 4
0100
0000
0000
0000
0000
0000
0100
0000
0000
0010
0000
0010
,  // measure 5
1001
0000
0000
1010
0000
0100
1010
0000
0000
0010
0000
0010
,  // measure 6
0101
0000
0000
0100
0000
0010
1001
0100
0010
1100
0001
0010
,  // measure 7
1001
0000
0000
1100
0000
0000
2002
0000
3003
2002
0000
3003
,  // measure 8
1010
1010
1010
1010
1010
1010
0101
0101
0101
0101
0101
0101
,  // measure 9
2002
0000
0000
0000
0000
0000
0000
0000
0000
0000
3003
0000
,  // measure 10
1000
0010
0100
0010
1000
0100
1000
0001
0100
0011
0100
0010
,  // measure 11
1100
0010
0001
1100
0010
0001
1100
0010
0001
1100
0010
0001
,  // measure 12
1100
0010
0001
1100
0010
0001
1010
0100
0001
0010
0001
0100
,  // measure 13
0011
0100
1000
0011
0100
1000
0011
0100
1000
0011
0100
1000
,  // measure 14
0011
0100
1000
0011
0100
1000
0101
0010
1000
0100
0001
0010
,  // measure 15
1001
0100
0010
0100
0001
0010
0001
1000
0010
0100
0001
0100
,  // measure 16
0010
1000
0100
0010
0100
0001
0100
0010
0100
0001
0010
0100
,  // measure 17
1001
0100
0010
0100
0010
0001
1001
0010
0100
0010
0100
1000
,  // measure 18
0101
0101
0101
0010
1000
0100
0010
0100
0001
0100
0010
0100
,  // measure 19
1011
0100
0010
1101
0010
0100
1011
0100
0010
1101
0010
0100
,  // measure 20
1011
0100
0010
1101
0010
0100
0011
1000
0010
0100
0001
0010
,  // measure 21
1101
0010
0100
1011
0100
0010
1101
0010
0100
1011
0100
0010
,  // measure 22
1101
0010
0100
1011
0100
0010
1100
0001
0010
0100
0010
0001
,  // measure 23
1010
0100
0010
0100
0001
0100
1000
0010
0100
0010
1000
0010
,  // measure 24
0101
0010
0100
0001
0100
0010
1000
0010
0100
0010
0001
1010
,  // measure 25
1011
0000
1010
1011
0000
0101
1101
0000
0101
1101
0000
0010
,  // measure 26
1001
0100
1000
0010
1000
0010
0100
0010
0100
0001
0100
0010
,  // measure 27
1001
0100
0001
0010
0000
0000
1100
0000
0000
0001
0010
0001
,  // measure 28
1100
0001
0100
0010
0100
0001
1100
0010
0001
1000
0010
0100
,  // measure 29
0011
1000
0100
0010
0000
0000
0011
0000
0000
0010
0100
1000
,  // measure 30
0011
1000
0100
0001
0100
1000
0011
0100
0010
0001
0100
0010
,  // measure 31
1100
0010
0001
0010
0001
0010
1100
0010
0100
0010
0100
0010
,  // measure 32
1100
0001
0010
0001
0010
0001
1100
0001
0100
0001
0100
0001
,  // measure 33
0011
0100
1000
0100
1000
0100
0011
0100
0010
0100
0010
0100
,  // measure 34
0011
1000
0100
1000
0100
1000
0011
1000
0010
1000
0010
1000
,  // measure 35
1001
0000
0000
1000
0000
1000
1100
0000
0000
1000
0000
1000
,  // measure 36
1100
0000
0000
0100
0000
0100
0110
0000
0000
0100
0000
0100
,  // measure 37
0110
0000
0000
0010
0000
0010
0110
0000
0000
0010
0000
0010
,  // measure 38
0011
0010
0010
0010
0000
0001
0011
0000
0000
0001
0000
0001
,  // measure 39
1001
0010
0001
1010
0001
1010
1001
0100
0001
1100
0001
1100
,  // measure 40
1001
0010
0001
1010
0001
1010
1001
0100
0001
1100
0001
1100
,  // measure 41
1001
0010
0001
1010
0001
1010
1001
0100
0001
1100
0001
1100
,  // measure 42
1001
1001
1001
2001
3000
0000
0201
0300
0000
0201
0300
0011
,  // measure 43
2001
0000
3000
2000
0000
3000
0010
0000
0000
0210
0300
1010
,  // measure 44
1010
1000
1000
1000
0000
0201
0300
0000
0000
0201
0300
0001
,  // measure 45
2001
3000
0100
0012
0003
0000
1020
0030
0000
2001
3000
0100
,  // measure 46
0101
0000
0100
0101
0000
0001
2001
3000
0001
2001
3000
0101
,  // measure 47
2001
3010
0001
1002
0103
1000
2001
3010
0001
2001
3010
0001
,  // measure 48
1010
1001
1010
1001
0010
1000
2010
3001
1000
2010
3001
0100
,  // measure 49
1001
0100
0010
1001
0100
0010
1001
0100
0010
1001
0100
0010
,  // measure 50
1100
1100
1100
1100
1100
1100
1111
1111
1111
1111
1111
1111
,  // measure 51
0011
0100
1000
0100
0010
1000
0100
0010
0001
1010
0100
0001
,  // measure 52
0011
0100
1000
0011
0100
1000
0011
0100
1000
0011
0100
1000
,  // measure 53
0011
0100
1000
0011
0100
1000
0101
0010
1000
0010
0100
0001
,  // measure 54
1100
0010
0001
1100
0010
0001
1100
0010
0001
1100
0010
0001
,  // measure 55
1100
0010
0001
1100
0010
0001
1010
0100
0001
0010
0001
1100
,  // measure 56
1100
0010
1000
0101
0010
0100
0011
1000
0010
1001
0100
0011
,  // measure 57
0011
0100
1000
0110
0001
0100
1001
0010
1100
1001
0010
1100
,  // measure 58
1001
0100
0010
0001
0100
0010
1000
0010
0100
0001
0010
0100
,  // measure 59
1010
1010
1010
0100
0001
0010
0100
0010
1000
0011
0100
0001
,  // measure 60
1101
0010
0010
1101
0010
0010
1101
0010
0010
1101
0010
0010
,  // measure 61
1101
0010
0010
1101
0010
0010
1101
0010
0100
1000
0010
0100
,  // measure 62
1011
0100
0100
1011
0100
0100
1011
0100
0100
1011
0100
0100
,  // measure 63
1011
0100
0100
1011
0100
0100
1011
0100
0010
0001
0010
0100
,  // measure 64
1001
0010
0100
0011
1000
0100
1010
0100
1000
0011
0100
0010
,  // measure 65
1001
0010
0100
0011
0100
0010
1100
0010
0100
0011
0100
1000
,  // measure 66
1001
0100
1010
1011
0100
1010
1011
0100
1010
1011
0100
1010
,  // measure 67
1011
0110
1100
1011
0110
1100
1011
0110
1100
1011
0110
1100
,  // measure 68
2002
0000
0000
0000
0000
0000
0000
0000
0000
0000
3003
0000
,  // measure 69
1111
0000
0000
0000
;
