#TITLE:Last Burning;
#SUBTITLE:;
#ARTIST:Dirty Androids;
#TITLETRANSLIT:;
#SUBTITLETRANSLIT:;
#ARTISTTRANSLIT:;
#CREDIT:D. Nelson;
#BANNER:lastbn.png;
#BACKGROUND:last.png;
#LYRICSPATH:;
#CDTITLE:muteCD.png;
#MUSIC:lastburning.mp3;
#OFFSET:-0.023;
#SAMPLESTART:44.305;
#SAMPLELENGTH:14.715;
#SELECTABLE:YES;
#DISPLAYBPM:130.000;
#BPMS:0.000=130.828,1.000=129.999,6.000=130.005,7.000=129.999,13.000=130.005,14.000=129.999,19.000=130.005,20.000=129.999,26.000=130.005,27.000=129.999,32.000=130.005,33.000=129.999,39.000=130.005,40.000=129.999,45.000=130.005,46.000=129.999,52.000=130.005,53.000=129.999,58.000=130.005,59.000=129.999,65.000=130.005,66.000=129.999,71.000=130.005,72.000=129.999,77.000=131.655,78.000=130.005,79.000=128.384,80.000=129.999,84.000=130.005,85.000=129.999,91.000=132.229,91.750=45.436,91.833=123.737,92.000=129.999,94.000=153.107,95.000=129.999,97.000=130.005,98.000=129.999,104.000=130.005,105.000=129.999,110.500=82687.500,110.625=65.057,110.750=66150.000,110.875=65.057,111.000=41343.801,111.125=131.146,111.375=108.081,112.000=129.999,117.000=130.005,118.000=129.999,124.000=135.110,124.333=73500.000,124.500=65.063,124.667=125.266,125.000=330750.000,125.250=33.138,125.333=220500.000,125.833=15.705,125.875=49.573,126.000=73500.000,126.083=105.519,126.333=45937.500,126.438=83.168,126.667=27562.500,126.708=119.152,127.000=128.086,128.000=129.999,130.000=130.005,131.000=129.999,137.000=130.005,138.000=129.999,143.000=130.005,144.000=129.999,150.000=130.005,151.000=129.999,156.000=130.005,157.000=129.999,163.000=130.005,164.000=129.999,169.000=130.005,170.000=129.999,176.000=130.005,177.000=129.999,182.000=130.005,183.000=129.999,189.000=130.005,190.000=129.999,195.000=130.005,196.000=129.999,202.000=130.005,203.000=129.999,209.000=130.005,210.000=129.999,216.000=130.005,217.000=129.999,222.000=130.005,223.000=129.999,229.000=130.005,230.000=129.999,235.000=130.005,236.000=129.999,242.000=130.005,243.000=129.999,248.000=130.005,249.000=129.999,255.000=130.005;
#STOPS:;
#BGCHANGES:;
// cache tags:
#FIRSTBEAT:0.000;
#LASTBEAT:255.500;
#SONGFILENAME:Songs/Farewell, My Little Stepmania Pack/Last Burning[wc]/lastburning.sm;
#HASMUSIC:1;
#HASBANNER:1;
#MUSICLENGTH:118.648;
// end cache tags

//---------------dance-single - ----------------
#NOTES:
     dance-single:
     :
     Hard:
     4:
     1.000,1.000,1.000,0.430,1.000,815.000,197.000,51.000,43.000,71.000:
0010
0000
0001
0000
0100
0000
0010
0000
1000
0000
0100
0000
1000
0000
0001
0100
,
0010
0000
0001
0000
0100
0000
0001
0000
1000
0000
0001
0000
0100
0010
0010
0010
,
1000
0000
0001
0000
1000
0000
0001
0000
1000
0000
0001
0000
0100
0000
0010
1000
,
0100
0000
0000
0000
0100
0000
0000
0000
0100
0010
0100
0010
0000
0000
0001
0000
1000
0000
0100
0000
0010
0000
1000
0000
0200
0000
0000
0000
0300
0002
0000
0000
,
1003
0000
0010
0000
1000
0000
0010
0000
1000
0000
0100
0000
0001
0010
0100
0010
,
1000
0000
0001
0000
1000
0000
0001
1000
0000
0010
0010
0010
0010
0010
0100
0001
,
1010
0000
0000
0000
0000
0000
0000
0000
0000
0000
0000
0000
0100
0000
0000
0000
0000
0000
0000
0000
0000
0000
0000
0000
0001
0000
0000
0000
0000
0000
0000
0000
0000
0000
0000
0000
0001
0000
0000
0000
0000
0000
0000
0000
0000
0000
0000
0000
0011
0000
0000
0000
0000
0000
0000
0000
0000
0000
0000
0000
0100
0000
0000
0000
0000
0000
0000
0000
0000
0000
0000
0000
0100
0000
0000
0000
0000
0000
0000
0000
0000
0000
0000
0000
1100
0000
0000
0000
0000
0000
0000
0000
0000
0000
0000
0000
0010
0000
0000
0000
0000
0000
0000
0000
0000
0000
0000
0000
0010
0000
0000
0000
0000
0000
0000
0000
0000
0000
0000
0011
0000
0000
0000
0000
0000
0000
0000
0100
0000
0000
0000
0000
0000
0000
1000
0000
0000
0000
0000
0000
0000
0000
0000
0100
0000
0000
0000
0000
0000
0001
0000
0000
0000
0000
0000
1010
0000
0000
0000
0000
0000
0100
0000
0000
0000
0000
0000
0010
0000
0000
0000
0000
0000
0001
0000
0000
0000
0000
0000
1000
0000
0000
0000
0000
0000
0010
0000
0000
0000
0000
0000
0000
,
1100
0000
0000
0000
0001
0000
0000
0000
0100
0000
0100
0000
1000
0000
1000
0000
0M20
0000
0000
0000
0000
0030
0001
0000
02M0
0000
0000
0000
0000
0000
0000
0000
,
1311
0000
0001
0000
1001
0000
0010
0200
1310
0000
0000
0000
1100
1000
0001
0100
,
0011
0000
0000
0000
0000
0000
0001
0000
0000
0000
0000
0000
1110
0000
0000
0000
0000
0000
0001
0000
0000
0010
0000
0000
0100
0000
0000
0000
0000
0000
1000
0000
0100
0000
1000
0000
0101
0000
0000
0001
0000
0000
0010
0000
0000
0010
0000
0000
,
1100
0000
0001
0000
0111
0000
0010
0001
1010
0000
0100
0010
0101
0100
0001
1000
,
0011
0000
0000
0000
0100
0000
0000
0000
1011
0000
0000
0000
0010
0000
0001
0000
0110
0000
1000
0000
0010
0000
1000
0000
0012
0000
1000
0003
0100
0000
0100
0000
,
0110
0000
0020
0000
1131
0000
0010
0200
1310
0000
0001
0001
1001
1000
0200
0000
,
0311
0000
0000
0000
0000
0000
1000
0000
0000
0000
0000
0000
0111
0000
0000
0000
0000
0000
0010
0000
0000
1000
0000
0000
0110
0000
0000
0000
0000
0000
0001
0000
0010
0000
0001
0000
1010
0000
0000
0010
0000
0000
0100
0000
0000
0100
0000
0000
,
1100
0000
0001
0000
1101
0000
0100
0001
1010
0100
1000
0010
0011
1000
0100
1000
,
0110
0000
0000
0010
0000
0000
0001
0000
0000
0000
0000
0000
0111
0000
0000
0001
0000
0000
1000
0000
0000
1000
0000
0000
0110
0001
0000
0010
0001
0000
0100
0000
0000
1000
0000
0000
0011
0000
0000
0000
0000
0000
0001
0000
0000
1000
0000
0000
,
0111
0000
0100
0000
1010
0000
0010
0002
0113
0100
0010
0000
1001
0100
0001
0010
,
1100
0000
0010
0000
1101
0000
1000
0010
0101
0010
1000
0000
0011
0010
1000
1000
,
0110
0000
0001
0000
1110
0000
1000
0100
1001
0001
0010
0000
1100
0010
0001
0100
,
1010
0000
0000
0000
0000
0000
0000
0000
0000
0000
0000
0000
0000
0000
0000
0000
0000
0000
0000
0000
0000
0000
0000
0000
0001
0000
0000
0000
0000
0000
0000
0000
0000
0000
0000
0000
0000
0000
0000
0000
0000
0000
0000
0000
0000
0000
0000
0000
1011
0000
0000
0000
0000
0000
0000
0000
0000
0000
0000
0000
0000
0000
0000
0000
0000
0000
0000
0000
0000
0000
0000
0000
0200
0000
0000
0000
0000
0000
0000
0000
0000
0000
0000
0000
1300
0000
0000
0000
0000
0000
0000
0000
0000
0000
0000
0000
0000
0011
0000
0000
0000
0000
0000
0000
0000
0000
0000
0000
0000
1000
0000
0000
0000
0000
0000
0000
0000
0000
0000
0000
00M0
0100
0000
0000
0000
0000
0000
0000
0000
0000
0000
0000
0000
1000
0000
0000
0000
0000
0000
0000
0000
0000
0000
0000
0000
0011
0000
0000
0000
0000
0000
0000
0000
0000
0000
0000
0000
0100
0000
0000
0000
0000
0000
0000
0000
0000
0000
0000
M000
0010
0000
0000
0000
0000
0000
0000
0000
0000
0000
0000
0000
0100
0000
0000
0000
0000
0000
0000
0000
0000
0000
0000
,
1010
0000
0001
0000
0111
0000
1000
0200
0311
0010
1000
0000
1100
0001
0010
0100
,
0011
0000
0001
0000
1110
0000
0100
0020
1031
1000
0100
0000
1010
1000
0001
0001
,
0110
0000
0000
0000
0000
0000
0020
0000
0030
0000
0000
0000
1210
0000
0300
0000
0000
0000
2000
0000
3000
0200
0000
0300
0012
0000
0003
0002
0000
0003
0200
0000
0300
0000
0000
0000
1010
0000
0000
0100
0000
0000
0010
0000
0000
0001
0110
0000
,
0000
0000
0000
0000
0010
0000
0000
0000
0000
0000
110M
0000
0000
0000
0000
0000
0010
0000
0000
0101
0000
00M0
0000
0000
1002
0000
0000
0000
0023
0000
0000
0000
0000
0000
0030
0000
1100
0000
0000
0000
0000
0000
1000
0000
0000
1000
0000
0000
,
1110
0000
0000
0000
0000
0000
0001
0000
0000
0000
0000
0000
0111
0000
0000
0000
0000
0000
1000
0000
0000
0020
0000
0000
1031
0000
0000
0100
0000
0000
2000
3000
0000
2000
3000
0000
0110
0000
0000
1000
0000
0000
0001
0000
0000
0010
0000
0000
,
1100
0000
0100
0000
1011
0000
0100
0010
0101
0010
0100
0000
1100
1000
0010
0010
,
1010
0000
0000
0001
0000
0000
0100
0000
0000
0010
0000
0000
1101
0000
0000
0000
0000
0000
1000
0000
0000
0001
0000
0000
0110
0000
0000
1000
0000
0000
0020
0030
0000
0020
0030
0000
0101
0000
0000
1000
0000
0000
0010
0000
0000
0100
0000
0000
,
1001
0000
0000
0000
0000
0000
0000
0000
0000
0000
0000
0000
0100
0000
0000
0000
0000
0000
0000
0000
0000
0000
0000
0000
1000
0000
0000
0000
0000
0000
0000
0000
0000
0000
0000
0000
0010
0000
0000
0000
0000
0000
0000
0000
0000
0000
0000
0000
0111
0000
0000
0000
0000
0000
0000
0000
0000
0000
0000
0000
1000
0000
0000
0000
0000
0000
0000
0000
0000
0000
0000
0000
0010
0000
0000
0000
0000
0000
0000
0000
0000
0000
0000
0000
0100
0000
0000
0000
0000
0000
0000
0000
0000
0000
0000
0000
0011
0000
0000
0000
0000
0000
0000
0000
0000
0000
0000
0000
0100
0000
0000
0000
0000
0000
0000
0000
0000
0000
0000
0000
0000
0000
0000
0000
0000
0000
2000
0000
3000
0000
0000
0000
0000
0000
0000
0000
0000
0000
2000
0000
3000
0000
0000
0000
0000
0000
0000
0000
0000
0000
0010
0000
0000
0000
0000
0000
0000
0000
0000
0000
0000
0000
0002
0000
0000
0000
0003
0000
0000
0000
0000
0200
0000
0000
0300
0000
0000
0000
0000
0000
0M00
0000
0000
0000
0000
0000
0000
0000
0000
0000
0000
0000
,
1011
0000
0010
0000
0100
0000
0000
0000
0111
0000
0000
0000
1000
0000
0020
0000
0131
0000
0100
0000
1000
0000
0000
0000
0011
0000
0000
0000
0100
0001
0010
0001
,
1110
0000
1000
0000
0100
0000
0000
0000
1011
0000
0000
0000
0100
0000
0001
0000
0110
0000
0010
0000
1000
0000
0000
0000
0011
0000
0000
0000
0010
1000
0100
1000
,
0121
0000
0000
0000
1131
0000
0100
1000
0021
1000
0100
0000
1130
0000
1100
0000
,
1M00
0000
0000
0000
0000
0000
0000
0000
0000
0000
0000
0000
0000
0000
0000
0000
00M0
0000
0000
0000
0000
0000
0000
0000
0001
0000
0000
0000
0000
0000
0000
0000
1M00
0000
0000
0000
0000
0000
0000
0000
0000
0000
0000
0000
0000
0000
0000
0000
000M
0000
0000
0000
0000
0000
0000
0000
0000
0000
0000
0000
1000
0000
0000
0000
0M00
0000
0000
0000
0000
0000
0000
0000
0000
0000
0000
0000
0000
0000
0000
0000
0000
0000
0000
0000
0000
0000
0000
0000
0010
0000
M001
0000
0000
0000
0000
0000
00M0
0000
0000
0000
0100
0000
0000
0000
0000
0000
0000
0000
0000
0000
0000
0000
000M
0000
0000
0000
0000
0100
0000
0000
0000
0000
0000
0000
0000
0000
0000
0000
00M0
0000
1000
0000
0000
0000
0000
0000
0000
0000
0000
0000
0000
0000
0000
0000
1011
0000
0000
0000
0000
0000
0000
0000
0000
0000
0000
0000
0000
0000
0000
0000
0000
0000
0000
0000
0000
0000
0000
0000
0100
0000
0000
0000
0000
0000
0000
0000
0000
0000
0000
0000
0100
0000
0000
0000
0000
0000
0000
0000
0000
0000
0000
0000
,
1101
0010
0100
0001
0010
1000
0001
0010
M000
0010
0100
1000
000M
1000
0010
0100
,
1000
0010
0100
0001
0010
1000
0001
0010
0M00
0010
0100
1000
000M
1000
0010
0100
,
0001
1000
0100
0010
0100
1000
0010
0100
M000
0100
0001
0010
0100
1000
0100
0001
,
0010
0001
1000
0010
0100
1000
0010
0100
000M
0100
0010
0001
M000
0001
0010
0100
,
00M0
0100
0010
0001
0010
0100
0001
0010
M000
0010
0100
1000
000M
1000
0100
0010
,
1000
0010
0001
0100
0010
1000
0001
0010
0M00
0010
0100
1000
00M0
1000
0100
0100
,
0001
0010
0100
0010
1000
0100
0010
1000
010M
1000
0001
0010
0100
0100
0100
0100
,
0010
0000
0000
0000
1000
0000
0000
0000
0001
0000
0000
0000
0010
0000
0000
0000
0010
0000
0000
0000
0010
0000
0000
0000
0010
0000
0000
0000
0100
0000
0000
0000
0001
0000
0000
0000
1000
0000
0000
0000
0100
0000
0000
0000
0100
0000
0000
0000
00M0
0000
0000
0000
0000
0000
0000
00M0
0000
0000
0000
0000
0000
0000
0000
0000
,
1101
0000
0000
0010
0000
0000
0100
0000
0000
0001
0000
0000
0111
0000
0000
1000
0000
0000
0001
0000
0000
0010
0000
0000
2100
3000
0000
0010
0000
0000
0100
0000
0000
1000
0000
0000
0101
0000
0000
1000
0000
0000
0010
0000
0000
0100
0000
0000
,
1001
0000
0000
0010
0000
0000
0100
0000
0000
0001
0000
0000
0111
0000
0000
1000
0000
0000
0001
0000
0000
0010
0000
0000
2100
3000
0000
0010
0000
0000
0100
0000
0000
1000
0000
0000
0101
0000
0000
1000
0000
0000
0010
0000
0000
0100
0000
0000
,
0011
0000
0000
1000
0000
0000
0100
0000
0000
0010
0000
0000
0111
0000
0000
1000
0000
0000
0010
0000
0000
0100
0000
0000
2010
3000
0000
0100
0000
0000
0001
0000
0000
0010
0000
0000
0101
0000
0000
1000
0000
0000
0100
0000
0000
0001
0000
0000
,
1010
0000
0000
0001
0000
0000
1000
0000
0000
0010
0000
0000
0111
0000
0000
1000
0000
0000
0010
0000
0000
0100
0000
0000
2001
3000
0000
0100
0000
0000
0010
0000
0000
0001
0000
0000
1100
0000
0000
0001
0000
0000
0010
0000
0000
0100
0000
0000
,
0011
0000
0000
0100
0000
0000
0010
0000
0000
0001
0000
0000
1110
0000
0000
0100
0000
0000
0001
0000
0000
0010
0000
0000
2100
3000
0000
0010
0000
0000
0100
0000
0000
1000
0000
0000
0101
0000
0000
1000
0000
0000
0100
0000
0000
0010
0000
0000
,
1001
0000
0000
0010
0000
0000
0001
0000
0000
0100
0000
0000
0111
0000
0000
1000
0000
0000
0001
0000
0000
0010
0000
0000
2100
3000
0000
0010
0000
0000
0100
0000
0000
1000
0000
0000
0011
0000
0000
1000
0000
0000
0010
0000
0000
0100
0000
0000
,
1002
0003
0000
0000
0000
0000
0100
0000
0000
0010
0000
0000
1011
0000
0000
0100
0000
0000
0010
0000
0000
1000
0000
0000
0210
0300
0000
1000
0000
0000
0001
0000
0000
0010
0000
0000
0101
0000
0000
1000
0000
0000
0001
0000
0000
0100
0000
0000
,
0021
0030
0000
1000
0000
0000
0010
0000
0000
0100
0000
0000
1110
0000
0000
0001
0000
0000
0010
0000
0000
0100
0000
0000
0012
0003
0000
1000
0000
0000
0010
0000
0000
0100
0000
0000
1010
0000
0000
0001
0000
0000
0011
0000
0000
1100
0000
0000
,
0111
0000
0000
0000
0000
0000
0010
0000
0000
0000
0000
0000
1100
0000
0000
0000
0000
0000
0100
0000
0000
0100
0010
0000
1001
0000
0000
0000
0000
0000
0100
0000
0000
0000
0000
0000
1010
0000
0000
0000
0000
0000
1000
0000
0000
0010
0000
0000
,
0101
0000
0010
0000
0111
0000
0000
0100
1100
0000
0010
0000
0110
0000
1000
0000
,
0101
0000
0000
0000
0000
0000
0001
0000
0000
0000
0000
0000
1101
0000
0000
0000
0000
0000
0100
0000
0000
0010
0001
0000
1100
0000
0000
0000
0000
0000
0001
0000
0000
0000
0000
0000
0110
0000
0000
0000
0000
0000
0000
0000
0000
0001
0000
0000
,
0101
0000
1000
0000
0111
0000
0000
0010
1100
0000
0010
0000
0011
0100
1000
0001
,
1010
0000
0001
0000
0111
0000
0010
0001
1100
0000
0010
0000
0101
0000
0000
0010
,
0011
0000
1000
0000
1011
0000
0000
0100
1100
0000
0001
0000
0101
0000
0010
0000
,
1010
0000
0000
0000
0000
0000
0100
0000
0000
0000
0000
0000
0001
0000
0000
0000
0000
0000
0000
0000
0000
0000
0000
0000
1110
0000
0000
0000
0000
0000
0000
0000
0000
0000
0000
0000
0010
0000
0000
0000
0000
0000
0001
0000
0000
0000
0000
0000
0110
0000
0000
0000
0001
0000
0000
1000
0000
0000
0001
0000
0000
1000
0000
0000
0001
0000
0000
0000
0000
0000
0000
0000
1100
0000
0000
0000
0000
0000
0010
0000
0000
0000
0000
0000
0001
0000
0000
0000
0000
0000
0100
0000
0000
0000
0000
0000
,
0011
0000
0100
0010
1101
0001
1000
0010
0101
0000
0000
0000
1100
0000
0100
0100
,
0111
1000
0000
1000
1101
0010
0001
2000
3110
0000
0100
0000
0011
0100
0001
1000
,
1010
0000
0001
0000
0111
1000
0000
1000
0110
0000
0001
0000
1100
1000
0010
0010
,
0011
0000
0100
0000
1101
0000
1000
0001
0110
1000
0001
0000
1100
0100
0001
0010
,
1001
0010
1000
0010
0111
1000
0010
0100
1010
0001
0010
0100
1011
1000
0020
0000
,
1131
0000
0001
0000
1110
0001
0200
0020
1331
0100
1000
0000
0011
1000
0002
0010
,
1103
0000
0010
0000
1101
0000
0002
0100
1013
0100
0010
0000
1100
1000
1000
0010
,
MMMM
0000
MMMM
0000
0111
0000
0010
0200
0311
1000
0100
0000
1100
0010
0001
0100
,
1001
0000
0000
1000
0000
0000
0010
0000
0000
0000
0000
0000
0111
0000
0000
0010
0000
0000
0001
0000
0000
0001
0000
0000
1100
0001
0000
1000
0001
0000
0010
0000
0000
0100
0000
0000
1011
0000
0000
0000
0000
0000
MMMM
0000
0000
0000
0000
0000
,
0000
0000
0000
0000
,
0000
0000
0000
0000
,
0000
0000
0000
0000
,
0000
0000
0000
0000
,
0000
0000
0000
0000
,
0000
0000
0000
0000
;
