#TITLE:I'm your Basscreator;
#SUBTITLE:;
#ARTIST:Basshunter;
#TITLETRANSLIT:;
#SUBTITLETRANSLIT:;
#ARTISTTRANSLIT:;
#CREDIT:;
#BANNER:;
#BACKGROUND:;
#LYRICSPATH:;
#CDTITLE:;
#MUSIC:Basshunter - I'm Your Basscreator.mp3;
#OFFSET:-0.160;
#SAMPLESTART:100.000;
#SAMPLELENGTH:12.000;
#SELECTABLE:YES;
#BPMS:0.000=144.940,185.500=289.880,186.250=144.980,218.000=72.470,221.875=144.940,464.000=72.470,504.000=108.236,508.000=144.940;
#STOPS:644.000=0.120
;
#BGCHANGES:;
// cache tags:
#FIRSTBEAT:2.000;
#LASTBEAT:720.500;
#SONGFILENAME:Songs/new cedric/Basshunter - I'm Your Basscreator/Basshunter - I'm Your Basscreator.sm;
#HASMUSIC:1;
#HASBANNER:0;
#MUSICLENGTH:324.937;
// end cache tags

//---------------dance-single - ----------------
#NOTES:
     dance-single:
     :
     Challenge:
     12:
     0.994,1.000,0.437,0.597,1.000,1880.000,142.000,194.000,668.000,1.000:

0000
0000
0000
0000
0012
0013
21M0
3100
,
MM00
0000
2000
3400
2300
3M00
M000
0000
,
0000
0000
1000
0000
1000
0000
1000
0000
2010
0000
0040
3030
M1M2
0000
0400
0300
,
0003
0000
0000
0M00
0000
0000
0001
0000
0010
0000
0001
0000
0010
0000
0000
0000
0000
0000
MM12
0000
0000
M000
0000
0000
0M20
0000
0000
M000
0000
0000
0M00
0000
0000
M000
0000
0000
0M00
0000
0000
M000
0000
0000
0M00
0000
0000
M000
0000
0000
,
0M00
M000
0M30
M003
0010
0001
0010
0001
0022
0000
0033
0000
2002
0000
3003
0000
,
M00M
0000
2000
0000
3400
0000
2300
0000
0000
0000
3000
0000
1000
0100
1000
0200
,
2000
0000
0000
0000
0000
0000
3000
0300
1000
0000
1000
0000
1MM1
0000
M10M
0000
,
1M10
0000
0000
0000
0000
0000
M1M0
0000
0000
0000
0000
0000
0022
0000
0000
0000
0000
0000
0000
0000
0000
0000
0000
0000
0000
0000
0000
0000
0000
0000
0000
0000
0000
0033
0000
0000
1000
0000
0100
0000
1000
0000
0100
0000
0000
0000
0000
0000
,
0200
0000
0300
2000
0200
3300
1000
0000
1010
0000
0001
0000
1100
0000
0400
0000
,
0320
0034
0023
0034
0203
0340
0230
0340
,
2030
0000
3100
1000
0000
1000
0040
0000
0230
0000
0304
0000
0023
0000
0430
0000
,
2300
3400
0302
0403
2300
3400
0320
0034
,
0023
0000
4030
0000
3010
0000
0012
0000
0200
0003
4300
0000
3002
0000
0043
0000
,
0230
0304
0203
0304
0023
0430
2300
3040
,
0230
0000
0301
1000
0000
1000
0400
0000
2300
0000
3004
0000
0203
0000
0304
0000
,
0023
0034
2003
3040
2030
3004
0023
0430
,
0320
0034
0103
0110
01M0
0002
0043
0230
,
4300
3200
0340
0230
4300
3020
0430
0320
,
0430
0000
0301
0010
000M
0010
0200
0000
4300
0000
3200
0000
4300
0000
3200
0000
,
0340
0230
0340
0032
0043
0032
0043
0032
,
0403
0000
0320
0000
0430
0000
1310
0M00
20M0
0000
3400
0000
2300
0000
3004
0000
,
0023
0430
2300
3400
0320
0034
0203
0340
,
2030
0000
3100
1000
0000
1000
0004
0000
0023
0000
0034
0000
2003
0000
3004
0000
,
2003
3400
0320
0430
0320
0430
2300
3004
,
0203
0000
0304
0000
0203
0000
1301
0000
100M
0100
1000
0100
1000
0100
0010
0100
,
0010
0001
0010
0001
0100
0001
0100
0001
0100
0010
0100
0010
1000
0100
1000
0100
,
0010
0100
1000
0100
0010
0001
0010
0100
0010
0001
0100
0010
1000
0010
0100
0010
,
0100
0000
0000
0010
0000
0000
1000
0000
0000
0010
0000
0000
0100
0000
0000
0001
0000
0000
0010
0000
0000
0100
0000
0000
1000
0000
0000
0010
0000
0000
0100
0000
0000
0001
0000
0000
0010
0000
0001
0000
0010
0000
0001
0000
0010
0000
0100
0000
,
1000
0000
0100
0000
0010
0000
0100
0000
1000
0000
0100
0000
0010
0000
0100
0000
1000
0000
0100
0000
0010
0000
0100
0000
1000
0000
0000
0000
0000
0000
MMM0
0000
0000
M00M
0000
0000
M00M
0000
0000
MMM0
0000
0000
M00M
0000
0000
M00M
0000
0000
,
MMM0
0000
M00M
M00M
M00M
MMMM
M00M
M00M
M00M
0000
2000
0000
0000
3200
0000
0000
,
0320
0000
0000
0032
0000
0003
001M
0200
200M
00M0
000M
00M0
000M
00M0
000M
00M0
,
000M
00M0
000M
00M0
000M
00M0
000M
00M0
300M
00M0
200M
03M0
000M
32M0
0000
0000
,
0320
0000
0000
0032
0000
0000
0013
0002
20M0
0M00
00M0
0M00
00M0
0M00
00M0
0M00
,
00M0
0M00
00M0
0M00
00M0
0M00
00M0
0M00
30M3
0000
2000
0000
0000
3200
0000
0000
,
2300
0000
0000
3002
0000
0000
0013
0200
M010
000M
M0M0
000M
M0M0
000M
M0M0
000M
,
M0M0
000M
M0M0
030M
20M0
0M00
0000
3200
0000
0000
0320
0000
0000
0032
0000
0000
,
0203
0000
0000
0320
0000
0000
2030
0000
0000
3002
0000
0000
0013
0100
1000
0100
,
0010
0000
0000
0001
0000
0000
0010
0000
0000
0001
0000
0000
1000
0000
0000
0001
0000
0000
0010
0000
0100
0000
1000
0000
0001
0000
0010
0000
0100
0000
2000
0000
0000
0000
0000
0000
3000
0000
0000
2000
0000
0000
0000
0000
0000
0000
0000
0000
,
3002
0000
0000
0203
0000
0000
0301
1000
0M02
M000
0000
0000
1003
0100
M000
0100
,
1000
0000
0100
0010
0000
0010
0001
0000
0010
0000
0002
0000
0003
0040
0000
0030
,
0200
0000
0300
4000
0000
3000
0100
0010
0001
0000
0010
0001
0000
0001
1000
0000
,
1000
0001
M000
0001
1000
0000
1000
0010
0000
0010
0100
0000
0000
0004
0000
0003
,
0020
0000
0030
0400
0000
0300
1000
0100
1000
0000
M000
0000
1000
0100
0000
0100
,
0010
0000
0000
0000
0001
0000
0010
0000
0000
0000
0010
0000
0100
0000
0000
0000
0010
0000
0000
0000
0001
0000
0000
000M
0000
0000
0002
0000
0000
0000
0003
0000
,
0040
0000
0030
0200
0000
0300
1000
0100
M000
0100
1000
0000
1000
0100
M000
0100
,
1000
0000
1000
0010
0000
0010
0100
0000
0100
0010
0000
0010
0100
0000
0100
0001
,
0000
0001
0010
000M
02M0
200M
00M0
000M
00M0
000M
30M0
0300
1000
0100
0010
0001
,
0100
0010
0100
0001
0010
0001
0010
0001
0010
0001
0010
0001
0100
0010
0100
0010
,
0100
0010
0100
0010
1000
0100
1000
0100
1000
0100
0010
0100
0010
0100
0010
0001
,
0010
0001
0010
0001
0100
0010
0100
0010
1000
0010
1000
0010
1000
0010
0100
0010
,
0100
0001
0100
0001
0100
0010
0100
0001
0010
0001
1000
0001
0100
0001
0010
0100
,
1000
0100
1000
0001
0010
0100
1000
0100
1000
0010
0100
0001
0010
0100
0010
0100
,
1000
0001
0010
0100
0010
0100
1000
0100
1000
0010
1000
0001
1000
0001
0010
0001
,
0010
0001
0100
0010
0100
0001
0100
0001
0100
0001
0010
0100
0010
0100
1000
0100
,
1000
0000
0100
0000
0010
0000
0100
0000
1000
0000
0010
0000
0100
0000
0010
0000
202M
0000
0M00
0000
000M
0000
0M00
0000
000M
0000
0M00
0000
303M
4000
3000
0400
,
0300
0040
0030
0000
0004
0043
0030
0040
0030
0000
0000
0000
0010
0100
0000
0440
0000
0300
0030
0000
1000
0000
0100
0000
0010
0000
0001
0000
1000
0000
0100
0000
,
0010
0100
0010
0001
0010
0001
0100
0001
0100
0001
0010
0001
0100
0001
0010
0001
,
0100
0010
0100
0001
0100
0010
0100
1000
0100
0010
0100
0001
0010
0100
1000
0100
,
1000
0010
1000
0010
1000
0100
1000
0010
1000
0010
1000
0001
0010
0100
0010
0001
,
0010
0001
0010
0100
0010
0001
0010
0100
0010
0100
1000
0010
0100
0010
0100
0001
,
0010
0001
0100
0001
1000
0001
0010
0100
1000
0010
1000
0001
1000
0010
0100
0001
,
0010
0100
1000
0010
1000
0010
0100
0001
0010
0100
1000
0010
0100
0010
0100
0001
,
0010
0001
0010
0001
0010
0001
0100
0010
0100
0010
0100
0001
0010
0001
0010
0001
,
1000
0001
1000
0001
0100
0001
0100
0001
0100
0010
0100
0010
0100
0010
1000
0100
,
1000
0100
1000
0100
0010
0100
0010
0100
1000
0100
0010
0100
1000
0100
1000
0100
,
1000
0010
1000
0010
1000
0010
1000
0010
0100
0001
0100
0001
0100
0001
0100
0010
,
0100
0010
0100
0010
1000
0010
1000
0010
0100
0010
1000
0010
1000
0010
0100
0001
,
0010
0100
0010
0100
1000
0001
0010
0100
0010
0100
0010
0100
0010
0001
0010
0001
,
1000
0100
1000
0100
0010
0100
1000
0100
1000
0010
0100
0010
0100
0010
1000
0010
,
0100
0001
0100
0010
0100
0010
0100
0001
0010
0100
1000
0100
1000
0001
0010
0100
,
1000
0100
1000
0010
0100
0010
0100
0001
1000
0010
0100
0001
0010
0001
0010
0100
,
1000
0001
0010
0001
0010
0100
1000
0100
0010
0001
0100
0010
0100
0001
0010
0100
,
1000
0100
1000
0100
0010
0100
0010
0100
0010
0001
0010
0001
0100
0001
0100
0001
,
0100
0010
0100
0010
1000
0010
0100
0010
1000
0010
0100
0001
0100
0010
0100
0001
,
0010
0100
1000
0100
0010
0001
0100
0010
0100
0001
0010
0001
0010
0001
1000
0001
,
1000
0001
0100
0001
0100
0001
0010
0100
0010
0100
0010
0100
1000
0100
1000
0100
,
0010
0100
1000
0100
1000
0100
1000
0010
1000
0010
1000
0010
0100
0001
1000
0010
,
0100
0010
1000
0010
0100
0001
0010
0100
0010
0001
0100
0010
1000
0010
0100
0001
,
0010
0100
1000
0100
0010
0100
1000
0010
0100
0001
1000
0010
0100
0010
0100
0001
,
0010
0100
1000
0100
1000
0100
1000
0010
1000
0010
0100
M02M
0200
0000
0000
M00M
,
0000
0000
0000
0000
0000
0000
0000
0000
0000
M00M
0000
0000
0000
0000
0000
0000
0000
0000
0000
0000
0000
M00M
0000
0000
0000
0000
0000
0000
0000
0000
0000
0000
M00M
0000
0000
0000
0000
0000
0000
0000
M00M
0000
0000
0000
0000
0000
0000
0000
,
M00M
0000
0000
0000
0000
0000
M00M
0000
0000
0000
0000
0000
M00M
0000
0000
M00M
0000
0000
M00M
0000
0000
M00M
0000
0000
M00M
0000
0000
M00M
0000
0000
M00M
0000
0000
M00M
0000
0000
M00M
0000
0000
M00M
0000
0000
M00M
0000
M00M
0000
M00M
0000
,
M00M
0000
M00M
0000
M00M
0000
M00M
0000
M00M
0000
M00M
0000
M00M
0000
M00M
0000
M00M
0000
M00M
0000
M00M
0000
M00M
0000
M00M
0000
0000
M00M
0000
0000
M00M
0000
0000
M00M
0000
0000
M00M
0000
0000
0000
M00M
0000
0000
0000
0000
M00M
0000
0000
,
0000
0000
M00M
0000
0000
M00M
0000
0000
M00M
0000
0000
0000
M00M
0000
0000
0000
,
M33M
0000
0010
0100
0001
0010
0100
0000
1000
0000
1000
0100
0010
0100
1000
0000
,
1000
0000
1000
0000
0100
0010
0000
0010
0001
0000
0001
0010
0001
0010
0001
0000
,
1000
0000
0000
0100
0000
0000
1000
0000
0000
0000
0000
0000
1000
0000
0100
0000
1000
0000
0100
0000
0000
0000
0000
0000
0M10
0000
0000
0000
0000
0000
M001
0000
0000
0000
0000
0000
0000
0000
0000
0M10
0000
0000
M001
0000
0000
0000
0000
0000
,
0M10
0000
M001
0000
0M10
0000
M001
0M10
M001
0000
0M10
M001
0M10
M001
0M10
0000
,
M001
0M10
M001
0000
M001
0M10
0000
M001
0M10
0000
0001
0010
M100
0010
0001
0000
,
100M
01M0
100M
0000
01M0
100M
0000
100M
01M0
0000
1000
0100
001M
0100
1000
0000
,
100M
0000
0000
01M0
0000
0000
100M
0000
0000
0000
0000
0000
100M
0000
0000
01M0
0000
0000
0000
0000
0000
0010
0000
0000
0001
0000
0000
0000
0000
0000
0001
0000
0000
0010
0000
0000
0100
0000
0000
0010
0000
0000
0001
0000
0100
0000
0010
0000
,
0100
0000
0010
0000
0100
0000
0010
0000
0100
0000
0010
0000
0100
0000
0010
0000
0100
0000
0010
0000
0000
0000
0000
0000
2200
0000
0000
3000
0000
0000
1300
0000
0000
0100
0000
0000
1000
0000
0000
0100
0000
0000
0010
0000
0000
0000
0000
0000
,
0001
0010
0001
0000
0001
0010
0000
0010
0100
0000
1000
0100
0010
0100
1000
0000
,
1000
0010
0100
0000
0010
0100
0000
0100
0001
0000
0001
0010
0100
1000
0001
0000
,
0100
0010
0100
0000
0010
0100
0000
0100
0001
0000
0001
0000
M001
0M10
0000
0000
,
M001
0000
0000
0000
0M10
0000
0000
0000
M001
0000
0000
0000
0M40
0030
M004
0003
0040
0030
0400
0300
1000
0000
0100
0000
1000
0000
0001
0000
0100
0000
0000
0000
,
0001
0100
0001
0000
0001
0010
000M
0010
0001
0000
0001
0010
0001
1000
0010
0000
,
0010
0100
0001
0000
0010
0100
00M0
0100
0010
0M00
0010
0100
1000
0100
1000
0M00
,
1000
0100
1000
0000
1000
0010
0000
1000
0010
0000
0010
0000
0020
0400
0030
0300
,
0020
0000
0000
0000
0230
0000
0300
0000
M4M4
0303
M2M2
0303
0000
0000
4M4M
3030
2M2M
0000
3030
0000
1000
0000
0010
0000
0100
0000
0010
0000
1000
0000
0000
0000
,
1000
0010
0100
0000
0100
0001
0000
0001
0010
0000
0001
0100
0010
0100
0001
0000
,
0001
0010
0100
0000
0010
0100
0000
0010
0100
0000
0010
0100
1000
0100
0010
0000
,
0001
0100
0010
0000
0010
1000
0000
1000
0100
0000
1000
0100
0010
0100
0010
0000
,
0100
0000
0010
0000
0002
0000
0000
0000
0023
0000
0000
0000
0430
0300
4000
3000
0400
0300
4000
3000
0001
0000
0010
0000
0001
0000
0010
0000
0100
0000
0000
0000
,
1000
0100
0010
0000
0001
0010
0000
0010
0100
0000
1000
0100
0010
0001
0100
0000
,
0010
1000
0010
0000
0010
0100
0000
0100
0001
0000
0001
0100
0010
1000
0100
0000
,
0010
0001
0100
0000
0100
0010
0000
0010
1000
0000
1000
0000
1000
0010
0000
0000
,
0010
0000
0000
0000
0000
0000
0100
0000
0000
0000
0000
0000
0010
0000
1000
0000
0010
0000
0100
0000
0001
0000
1000
0000
0010
0000
0100
0000
0001
0000
1000
0000
0010
0000
0100
0000
0001
0000
0000
0010
0000
0000
0001
0000
0000
0000
0000
0000
,
1000
0100
1000
0000
0100
0010
0000
0010
0001
0000
1000
0100
1000
0100
1000
0000
,
0010
0100
0010
0000
0010
0100
0000
0100
0001
0000
0001
0010
0001
0010
0100
0000
,
0010
0100
1000
0000
1000
0100
0000
0100
0010
0000
0001
0000
0100
0010
0000
0000
,
0010
0000
1000
0000
0010
0000
0010
0100
0010
0100
0010
1000
0010
1000
0010
0000
,
0010
0100
0001
0000
0001
0010
0000
0100
1000
0000
0100
0010
0100
1000
0100
0000
,
0010
0001
0100
0000
0100
0010
0000
0010
1000
0000
1000
0001
0010
0001
1000
0000
,
1000
0010
0100
0010
0000
0000
0040
0030
40M0
3000
M040
0030
00M0
0000
0010
0100
,
0010
0000
1000
0010
0100
0001
1000
0010
0100
0001
1000
0010
0100
0001
1000
0010
0100
0004
4000
0000
0000
0MM0
0000
0000
,
0MM0
0000
0000
0000
0000
0000
0000
0000
0000
0000
0000
0000
0MM0
0000
0000
0000
0000
0000
0000
0000
0000
0000
0000
0000
0MM0
0000
0000
0000
0000
0000
0000
0000
0000
0000
0000
0000
0000
0000
0000
0000
3003
0000
0000
0000
0000
0000
0000
0000
0000
0000
0000
0000
0000
0000
0000
0000
0000
0000
0000
0000
1004
0000
0000
0000
0000
0000
0000
0000
0000
0000
0000
0000
M000
0000
0000
0000
0000
0000
0000
0000
0000
0000
0000
0000
0000
0000
0000
0000
0000
0000
0000
0000
0000
0000
0000
0000
0143
0000
0000
0000
0000
0000
0000
0000
0000
0000
0000
0000
0M00
0000
0000
0000
0000
0000
0000
0000
0000
0000
0000
0000
1000
0000
0000
0000
0000
0000
0000
0000
0000
0000
0000
0000
0000
0000
0000
0000
0000
0000
0000
0000
0000
0000
0000
0000
0000
0000
0000
0000
0000
0000
0030
0000
0000
0000
0000
0000
0210
0000
0000
0000
0000
0000
0000
0000
0000
0000
0000
0000
00M0
0000
0000
0000
0000
0000
0000
0000
0000
0000
0000
0000
0000
0000
0000
0000
0000
0000
0300
0000
0000
0000
0000
0000
,
0120
0000
0000
0030
1020
0000
M000
0000
0000
0030
0110
0000
0000
0000
0000
0000
0101
0000
010M
0000
0000
0000
0000
0000
0100
0000
0202
0000
0000
0000
0000
0303
,
0022
0000
0000
0033
0220
0000
0000
0000
0000
0330
0220
0000
0000
0000
0000
0330
2200
0000
0000
0000
0000
3300
1100
0000
0100
0010
0400
0000
0000
0000
0000
0000
,
2302
0000
0000
3003
2200
0000
0000
0000
0000
3300
2020
0000
0000
0000
0000
0000
0000
3030
2000
0000
0000
0000
3200
0000
M340
0030
0202
0000
0000
0000
0303
0000
,
MMM1
0000
0000
0000
0000
0000
0000
0000
0000
0000
0000
0000
0M0M
0000
0000
0000
0000
0000
0000
0000
0000
0000
0000
0000
M1MM
0000
0000
0000
0000
0000
0000
0000
0000
0000
0000
0000
000M
0000
0000
0000
0000
0000
0000
0000
0000
0000
0000
0000
MM00
0000
0000
0000
0000
0000
00M0
0000
0000
0000
0000
0000
0M01
0000
0000
0000
0000
0000
0000
0000
0000
0000
0000
0000
MM00
0000
0000
0000
0000
0000
000M
0000
0000
0000
0000
0000
MMM0
0000
0000
0000
0000
0000
0000
0000
0000
0000
0000
0000
0MM1
0000
0000
0000
0000
0000
0000
0000
0000
0000
0000
0000
0M00
0000
0000
0000
M0M0
0000
0000
0000
0000
0000
0000
0000
0M01
0000
0000
0000
0000
0000
0000
0000
M0M0
0000
0000
0000
0M00
0000
0000
0000
0000
0000
0000
0000
0000
0000
0000
0000
M0M1
0000
0000
0000
0000
0000
0100
0000
0000
0000
0000
0000
0001
0000
0000
0000
M0M0
0000
0000
0000
0000
0000
0000
0000
0M0M
0000
0000
0000
0000
0000
0000
0000
M0M0
0000
0000
0000
0M0M
0000
0000
0000
0000
0000
M0M0
0000
0000
0000
0000
0000
,
010M
0000
0000
0000
0000
0000
M0M0
0000
0000
0000
0000
0000
000M
0000
0000
0000
M0M0
0000
0000
0000
0000
0000
0000
0000
0100
0000
0000
0000
0000
0000
0000
0000
M0M0
0000
0000
0000
0M0M
0000
0000
0000
M0M0
0000
0000
0000
0000
0000
0000
0000
0M0M
0000
0000
0000
0000
0000
M000
0000
00M0
0000
0000
0000
0M01
0000
0000
0000
00M0
0000
M000
0000
0000
0000
0000
0000
0M0M
0000
0000
0000
0000
0000
M000
0000
00M0
0000
0000
0000
0M0M
0000
0000
0000
00M0
0000
M000
0000
0000
0000
0000
0000
M000
0000
0000
0000
0000
0000
00M0
0000
000M
0000
0000
0000
4M00
0000
0000
0000
0000
0000
00M0
0000
0000
0000
0000
0000
0M0M
0000
0000
0000
0000
0000
00M0
0000
0000
0000
0000
0000
010M
0000
0000
0000
0000
0000
00M0
0000
0000
0000
0000
0000
0MMM
0000
0000
0000
0000
0000
0000
0000
0000
0000
0000
0000
004M
0000
0000
0000
0M00
0000
0000
0000
0000
0000
0000
0000
000M
0000
0000
0000
0000
0000
0000
0000
0M00
0000
0000
0000
0000
0000
0000
0000
0000
0000
0000
0000
0000
0000
0000
0000
,
010M
0000
000M
0000
010M
0000
0000
0000
0000
0000
0100
0000
0000
0000
0000
0000
3030
0000
20M0
0000
00M0
0000
0000
0000
0010
0010
0040
0000
0000
0000
0000
0000
,
0001
0000
0000
0000
0001
0000
0000
0000
0000
0000
0100
0000
0000
0000
0000
0000
0030
0000
00M0
00M0
00M0
00M0
00M0
00M0
00M0
0000
0040
0000
0000
0000
0000
0000
,
0000
0000
0000
0000
0000
0000
0000
0000
0000
0000
0000
0000
0000
0000
0000
0000
0000
0000
0000
0000
0000
0000
0000
0000
0000
0000
3030
0000
1010
0000
M0M0
0M0M
,
M0M0
0M0M
M0M0
0M0M
M0M0
0M0M
M0M0
0M0M
M0M0
0M0M
M0M0
0M0M
M0M0
0M0M
M0M0
0M0M
M0M0
0M0M
M0M0
0M0M
M0M0
0M0M
20M0
0M0M
00M0
0000
0020
0000
0000
0000
0000
0000
,
0M00
0000
0000
0000
000M
0000
0000
0000
0M00
0000
0000
0000
000M
0000
0000
0000
0M00
0000
0000
0000
000M
0000
0000
0000
0M00
0000
0000
0000
000M
0000
0000
0000
0M00
0000
0000
0000
000M
0000
0000
0000
0M00
0000
0000
0000
000M
3030
0000
0000
,
0101
0000
0000
0000
0000
0000
0000
0000
M0M0
0000
0000
0000
0000
0000
0000
0000
0M0M
0000
0000
0000
0000
0000
0000
0000
M0M0
0000
0000
0000
0000
0000
0000
0000
0000
0000
0000
0000
M0M0
0000
0000
0000
0000
0000
0M0M
0000
0000
0000
0000
0000
M0M0
0000
0000
0000
0000
0000
0000
0000
0000
0000
0000
0000
M0M0
0000
0000
0000
0000
0000
0M0M
0000
0000
0000
0000
0000
M0M0
0000
0000
0000
0000
0000
0000
0000
0000
0000
0000
0000
M0M0
0000
0000
0000
0000
0000
0M0M
0000
0000
0000
0000
0000
M0M0
0000
0000
0000
0000
0000
0000
0000
0000
0000
0000
0000
M0M0
0000
0000
0000
0000
0000
0M0M
0000
0000
0000
0000
0000
M0M0
0000
0000
0000
0000
0000
0000
0000
0000
0000
0000
0000
M0M0
0000
0000
0000
0000
0000
0M0M
0000
0000
0000
0000
0000
M0M0
0000
0000
0000
0000
0000
0000
0000
0000
0000
0000
0000
M0M0
0000
0000
0000
0000
0000
0M0M
0000
0000
0000
0000
0000
M0M0
0000
0000
0000
0000
0000
0000
0000
0000
0000
0000
0000
M0M0
0000
0000
0000
0000
0000
0M0M
0000
0000
0000
0000
0000
,
10M0
0000
0000
0000
0000
0000
0000
0000
0000
0100
0000
0000
0000
0000
0000
0000
0000
0000
0010
0000
0000
0000
0000
0000
1001
0000
0000
0000
0010
0000
0000
0000
0100
0000
0000
0000
0001
0000
0000
0000
0010
0000
0000
0000
0100
0000
0000
0000
,
0100
1000
0100
0100
0010
0001
0001
1000
0010
0100
0010
0100
,
0010
0000
0000
0000
0100
0000
0010
0000
0000
0100
0000
0000
0001
0000
0000
0000
0010
0000
0000
0000
0100
0000
0000
0000
1000
0000
0000
0000
0100
0000
0000
0000
0010
0000
0000
0000
0100
0000
0000
0000
1000
0000
0000
0000
0010
0000
0000
0000
,
0100
0010
1000
0010
0100
0010
0100
0001
0010
0001
0010
0100
,
1000
0100
0010
0100
0010
0001
0010
0100
0010
0100
1000
0100
,
0010
0000
0000
0000
0100
0000
0000
0000
1000
0000
0000
0000
0010
0000
0000
0000
0100
0000
0000
0000
0001
0000
0000
0000
0100
0000
0000
0010
0000
0000
0100
0000
0000
0001
0000
0000
0010
0000
0000
0001
0000
0000
0010
0000
0000
0001
0000
0000
,
0010
0000
0000
0100
0000
0000
1000
0000
0000
0010
0000
0000
0100
0000
0000
0001
0000
0000
0010
0000
0000
0100
0000
0000
0010
0000
0001
0000
0100
0000
0010
0000
0100
0000
0010
0000
0100
0000
0010
0000
0100
0000
0010
0000
0100
0000
0010
0000
,
0100
0000
M000
MM00
MMM0
MMMM
M000
MM00
MMM0
MMMM
0000
0100
0000
0010
0000
0100
,
0000
0000
0000
0010
0100
0000
0100
0010
0000
0110
0000
0010
0000
0010
0000
0010
,
1000
0010
0100
0001
0100
0010
0100
0010
0100
0010
0100
0001
0100
0001
0100
0001
,
0010
0001
0010
0001
0010
0100
0010
0100
0010
0100
1000
0100
1000
0100
0010
0001
,
0010
0001
0010
0001
0100
0001
0100
0001
0100
0010
1000
0010
1000
0010
1000
0100
,
1000
0100
1000
0010
1000
0100
1000
0010
1000
0100
0010
0001
0100
0001
0010
0001
,
0010
0001
1000
0010
1000
0010
0100
0001
0010
0100
1000
0010
1000
0010
1000
0010
,
0100
0001
0010
0100
0010
0100
1000
0001
0010
0100
0010
0100
1000
0001
0010
0001
,
1000
0100
0010
0001
0010
0100
0010
0001
0100
0010
0100
0010
0100
0001
0010
0100
,
1000
0100
0010
0100
0010
0100
1000
0010
0100
0010
1000
0010
0100
0010
0100
0001
,
0100
0001
0100
0010
0100
0001
0010
0100
0010
0100
1000
0100
1000
0001
0010
0100
,
1000
0100
0010
0100
1000
0100
0010
0100
0010
0100
1000
0100
1000
0100
0010
0100
,
0010
0100
0010
0001
0010
0100
0010
0001
0010
0100
1000
0100
0010
0100
0010
0001
,
0100
0010
1000
0100
0010
0001
0100
0010
0100
0010
0100
0010
1000
0010
1000
0010
,
0100
0010
0100
0001
0100
0001
0100
0001
0010
0100
0010
0100
0010
0100
0010
0100
,
0010
0100
1000
0100
0010
0100
1000
0100
1000
0100
0010
0100
0010
0100
1000
0010
,
0100
0010
1000
0010
0100
0010
0100
0010
0100
0001
0100
0001
0100
0001
0010
0001
,
0010
0001
0100
0001
1000
0001
0100
0001
0100
0001
0010
0001
0100
0001
0010
0001
,
0100
0010
0100
0001
0100
0010
0100
0010
0100
0001
0010
0001
0010
0001
0010
0100
,
0010
0100
0010
0100
1000
0100
1000
0010
1000
0100
1000
0010
1000
0010
1000
0010
,
1000
0001
1000
0001
0100
0001
0100
0001
0010
0100
1000
0010
0100
0010
0100
0001
,
0010
0100
1000
0100
0010
0001
0100
0010
0100
0010
0100
0010
0100
0001
0010
0100
,
1000
0100
1000
0100
1000
0010
1000
0010
1000
0100
1000
0010
1000
0100
0010
0100
,
1000
0100
1000
0100
0010
0100
0010
0100
0010
0001
0010
0100
0010
0001
0010
0001
,
0010
0001
0100
0001
0100
0001
1000
0001
0100
0001
0100
0001
0100
0001
1000
0001
,
0010
0001
0100
0010
0100
0010
0100
0010
1000
0100
1000
0100
0010
0001
0100
0010
,
0220
0000
0330
0MM0
2002
0000
0000
3003
0220
0000
0000
0330
0022
0000
0000
0033
,
0202
0000
0000
0303
2020
0000
0000
3030
0220
0000
0000
0330
0110
0MM0
0140
0000
,
0M00
0000
0000
0000
0000
0000
0000
0030
0100
0000
0010
0000
1000
0000
0040
0000
,
0000
0000
0000
0000
0000
0000
0000
0030
1000
0100
0000
0000
0010
0000
0011
0000
,
001M
0000
0420
0000
0030
0000
0000
0000
1000
0300
0100
0000
0010
0000
0011
0000
,
1010
0000
0024
0000
0030
0000
0000
0000
0013
0100
00M0
0100
0010
0000
0110
0000
,
MM11
0000
0000
0000
0240
0000
0000
0000
0300
0000
0000
0000
0000
0000
0000
0000
0100
0000
0030
0000
2000
0000
0000
3000
0400
0000
0000
0300
2200
0000
0000
3300
,
0220
0000
0000
0330
4200
0000
0000
0000
0300
0000
0000
0000
0000
0000
0000
0000
3001
0000
1000
0000
0000
0000
0100
0000
0010
0000
0000
0000
0220
0000
0000
0330
,
0022
0000
0000
0033
4200
0000
0000
0000
0000
0000
0000
0000
0300
0000
0000
0000
3200
0000
0000
0300
0040
0000
0000
0030
0200
0000
0000
0300
2200
0000
0000
3300
,
0220
0000
0000
0330
0024
0000
0000
0000
0000
0000
0000
0000
0030
0000
0000
0000
1003
0000
M100
0000
0M00
0000
0010
0000
00M1
0000
000M
0000
0000
0000
0000
0000
,
2MM2
0MM0
0MM0
0MM0
0MM0
0MM0
3MM0
1MM3
,
11MM
M1MM
11MM
1MMM
11MM
M1MM
M11M
MM1M
,
M11M
M1MM
M11M
MM1M
MM11
MMM1
M1M1
M1MM
,
M11M
MM1M
1M1M
1MMM
1MM1
MMM1
1MM1
1MMM
,
11MM
0000
M1MM
0000
M11M
0000
MMM1
0000
1MM1
0000
1MMM
0000
11MM
0000
01MM
1000
,
0100
0010
0100
0010
0001
0100
0010
1000
0100
1000
0100
1000
0100
0010
0100
0010
,
0001
0010
0001
0100
0001
0100
0010
0100
0010
0100
0010
1000
0100
1000
0100
1000
,
0100
0000
0000
0010
0000
0000
0001
0000
0000
0100
0000
0000
0010
0000
0000
0100
0000
0000
0010
0000
0000
0100
0000
0000
0001
0000
0000
0010
0000
0000
0100
0000
0000
1000
0000
0000
0100
0000
1000
0000
0100
0000
0010
0000
0001
0000
1000
0000
,
0100
0000
1000
0000
0010
0000
0100
0000
0001
0000
1000
0000
0010
0000
0100
0000
0001
0000
1000
0000
0010
0000
0100
0000
0004
0000
40M0
0000
0M00
0000
00M0
0000
0M00
0000
00M0
0000
0MM0
0000
3003
0000
0000
0000
M22M
0000
0000
M00M
0000
0000
,
M33M
M00M
MMMM
0000
0000
0000
0000
0000
0000
0000
0000
0000
0000
0000
0000
0000
;
