#TITLE:Raver;
#SUBTITLE:(Nightcore Remix);
#ARTIST:Special D. vs. Jens O.;
#TITLETRANSLIT:;
#SUBTITLETRANSLIT:;
#ARTISTTRANSLIT:;
#CREDIT:;
#BANNER:../owenviau1 Simfiles 6 (Science X Owen).png;
#BACKGROUND:BG.PNG;
#LYRICSPATH:;
#CDTITLE:;
#MUSIC:Special D. vs. Jens O. - Raver.mp3;
#OFFSET:-0.677;
#SAMPLESTART:46.374;
#SAMPLELENGTH:29.999;
#SELECTABLE:YES;
#DISPLAYBPM:166.749;
#BPMS:0.000=166.749;
#STOPS:;
#BGCHANGES:;
// cache tags:
#FIRSTBEAT:0.000;
#LASTBEAT:416.500;
#SONGFILENAME:Songs/owenviau1 Simfiles 6/Raver - [owenviau1] v1.0.3/Raver.sm;
#HASMUSIC:1;
#HASBANNER:1;
#MUSICLENGTH:153.005;
// end cache tags

//---------------dance-single - 13- (owenviau1)----------------
#NOTES:
     dance-single:
     13- (owenviau1):
     Hard:
     13:
     1.000,1.000,0.281,1.000,1.000,1071.000,43.000,238.000,1.000,2.000:
2000
3200
0320
0032
0203
0320
2030
3020
,
0230
0000
0302
0000
2003
0000
0000
3000
0000
0000
0000
0000
0000
0000
0000
0000
,
0020
0230
0302
2003
3002
0023
0230
2300
,
3200
0000
0320
0000
0032
0000
0000
0003
0000
0000
0000
0000
0000
0000
2000
0000
,
3200
0320
0032
2003
3020
0230
0320
2030
,
3002
0203
0302
0003
0000
0000
000M
2000
,
3200
0320
0032
0003
0000
0000
0020
2030
,
3002
0000
0203
0000
0020
0300
0000
0000
0000
0000
0000
0000
0130
0000
0000
0000
,
2000
3200
0320
0032
0203
0320
2030
3020
,
0230
0000
0302
0000
2003
0000
0000
3000
0000
0000
0000
0000
0000
0000
2000
0000
,
3020
0230
0302
2003
3002
0023
0230
2300
,
3200
0000
0320
0000
0032
0000
0000
0003
2000
0000
0000
0000
0000
0000
0000
0000
,
3200
0320
0032
2003
3020
0230
0320
2030
,
3002
0203
0302
0003
2000
0000
0000
3002
,
0203
0320
2030
3002
0023
0032
2003
3200
,
0320
0000
0032
0000
1003
0010
1000
0001
0200
0000
0320
0000
2030
0000
0000
0000
,
3002
0000
0000
0003
0000
0000
0200
0000
0320
0000
2030
0000
3002
0000
0000
0000
,
0203
0000
0000
0300
0000
0000
0000
0000
0020
0000
2030
0000
3002
0000
0003
0000
,
0200
0320
2030
0000
3002
0203
0000
0300
,
0000
0000
0000
0020
2030
3002
2003
0000
,
3020
0030
0000
0200
0302
2003
3020
0000
,
0230
0000
0000
0300
0000
0000
0000
0000
0002
0000
2003
0000
3020
0000
0000
0000
,
0230
0000
0302
0000
2003
0000
0000
3000
0020
0000
0230
0000
0000
0300
0000
0000
,
0000
0000
0000
0002
0203
0320
1031
0001
,
0110
1000
0101
0100
1010
0001
0110
0010
,
1001
0000
0010
0000
0101
0000
0010
0000
1000
0100
0010
0001
1000
0000
0001
0000
,
0110
0100
1001
0100
0011
1000
0110
0001
,
1100
0010
1001
0010
0101
1000
0110
0100
,
1001
0100
0011
0001
1100
1000
0011
1000
,
0110
0000
0010
0000
1001
0000
0010
0000
0101
0000
0010
0000
1000
0100
0010
0001
,
1000
0001
0100
0010
1000
0001
0010
0001
1000
0100
0010
0001
0100
0010
1000
0001
,
0010
0001
0100
0010
2000
0000
0000
0000
3001
0000
0000
0000
1000
0100
0010
0001
,
0100
0010
1000
0001
0010
0001
1000
0100
0010
0001
1000
0010
0100
0010
1000
0001
,
0100
0001
0010
0100
1000
0001
0100
0010
0100
0001
1000
0100
0010
0001
0100
0010
,
1000
0001
0100
0001
1000
0010
0100
0010
1000
0001
0010
0001
0100
0010
1000
0100
,
0010
0001
0100
0010
1000
0001
0010
0001
0100
0010
1000
0100
1000
0001
0100
0010
,
1000
0010
0100
0001
0010
0001
1000
0100
0010
0001
1000
0010
1000
0001
0010
0100
,
1000
0100
0010
0001
0100
0010
1000
0001
0100
0001
1000
0100
0010
0001
0100
0010
,
1000
0001
0010
0001
0100
0010
1000
0100
1000
0001
0100
0010
0100
0001
1000
0100
,
0010
0001
0100
0010
1000
0000
0020
0000
0230
0000
0302
0000
1003
0010
0100
0010
,
1000
0001
0100
0001
0010
0100
1000
0001
0100
0001
1000
0010
0100
0010
1000
0001
,
0010
0001
0100
0010
1000
0100
0010
0001
1000
0100
1000
0001
0010
0100
1000
0001
,
0100
0010
1000
0010
0100
0001
0010
0001
1000
0100
0010
0001
0100
0010
1000
0001
,
0100
0001
1000
0100
0010
0001
0100
0010
1000
0001
0010
0001
0100
0010
1000
0100
,
0010
0001
0100
0010
1000
0001
0100
0001
1000
0100
0010
0001
0100
0010
0100
0001
,
1000
0010
0100
0010
1000
0001
0100
0001
0010
0100
1000
0100
0010
0001
1000
0100
,
1000
0010
0100
0001
0010
0001
1000
0010
1000
0001
0100
0010
1000
0000
0001
0000
,
0100
0010
1000
0020
0030
0200
0301
0000
,
2000
3200
0320
0032
0203
0320
2030
3020
,
0230
0000
0302
0000
2003
0000
0000
3000
0000
0000
0000
0000
0000
0000
0000
0000
,
0020
0230
0302
2003
3002
0023
0230
2300
,
3200
0000
0320
0000
0032
0000
0100
0003
0010
0000
1000
0000
0001
0010
0100
1000
,
0001
0100
0001
1000
0010
0100
0010
1000
0001
0010
0001
0100
0010
1000
0100
0010
,
0001
1000
0100
1000
0001
0100
0010
1000
0001
0010
0001
0100
0010
1000
0100
0010
,
0001
1000
0100
1000
0001
0100
0010
1000
0001
0010
0100
1000
0010
0000
0100
0000
,
0001
0000
1000
0000
0010
0000
0100
0000
0002
0000
0000
0000
1003
0010
0100
0010
,
1000
0001
0100
0001
1000
0100
0010
0001
0100
0010
1000
0001
0010
0001
0100
0010
,
1000
0001
0010
0001
0100
0010
1000
0100
0010
0001
1000
0100
1000
0001
0100
0010
,
1000
0001
0010
0001
0100
0010
1000
0001
0010
0001
0100
0010
0100
0001
1000
0100
,
0010
0001
0100
0010
1000
0001
0010
0001
1000
0100
0010
0001
0100
0010
1000
0001
,
0100
0001
1000
0010
0100
0010
1000
0001
0010
0001
0100
0010
1000
0100
0010
0001
,
0100
0010
0100
0001
1000
0100
0010
0001
1000
0010
1000
0001
0100
0010
1000
0001
,
0010
0001
0100
0010
1000
0001
0100
0001
1000
0100
0010
0001
0100
0010
1000
0010
,
0100
0001
1000
0100
1000
0010
0100
0001
0100
0010
1000
0001
2000
0000
0000
0000
,
3002
0000
0000
0003
0000
0000
0200
0000
0320
0000
2030
0000
3002
0000
0000
0000
,
0203
0000
0000
0300
0000
0000
0000
0000
0020
0000
2030
0000
3002
0000
0003
0000
,
0200
0320
2030
0000
3002
0203
0000
0300
,
0000
0000
0000
0020
2030
3002
2003
0000
,
3020
0030
0000
0200
0302
2003
3020
0000
,
0230
0000
0000
0300
0000
0000
0000
0000
0002
0000
2003
0000
3020
0000
0000
0000
,
0230
0000
0302
0000
2003
0000
0000
3000
0020
0000
0230
0000
0000
0300
0000
0000
,
0000
0000
0000
0002
0203
0320
2030
0000
,
3002
0000
0000
0003
0000
0000
0200
0000
0320
0000
2030
0000
3002
0000
0000
0000
,
0203
0000
0000
0300
0000
0000
0000
0000
0020
0000
2030
0000
3002
0000
0003
0000
,
0200
0320
2030
0000
3002
0203
0000
0300
,
0000
0000
0000
0020
2030
3002
2003
0000
,
3020
0030
0000
0200
0302
2003
3020
0000
,
0230
0000
0000
0300
0000
0000
0000
0000
0002
0000
2003
0000
3020
0000
0000
0000
,
0230
0000
0302
0000
2003
0000
0000
3000
0020
0000
2030
0000
0000
0000
0000
0000
,
0000
0000
0000
3002
0203
0320
1031
0001
,
0110
1000
0101
0100
1010
0001
0110
0010
,
1001
0010
0101
0110
1001
0110
1010
0001
,
0110
0100
1001
0100
0011
1000
0110
0001
,
1100
0010
1001
0110
0101
1010
0110
0001
,
1000
0010
0100
0001
1000
0100
0010
0001
0100
0010
1000
0001
0010
0001
0100
0010
,
1000
0100
0010
0001
0100
0010
0100
0001
0010
0100
1000
0100
0010
0001
1000
0100
,
1000
0010
0100
0010
1000
0001
0010
0001
0100
0010
1000
0100
0010
0001
0100
0010
,
1000
0010
0100
0001
0010
0001
0100
0010
2000
0000
0000
0000
3001
0100
0001
1000
,
0100
0010
0001
0100
0010
1000
0001
0010
0001
0100
0010
1000
0001
0010
0001
0100
,
0010
1000
0100
0010
0001
1000
0100
1000
0001
0100
0010
1000
0001
0010
0001
0100
,
0010
1000
0001
0010
0001
0100
0010
0100
0001
1000
0100
0010
0001
0100
0010
1000
,
0001
0010
0001
1000
0100
0010
0001
0100
0010
1000
0001
0100
0001
1000
0010
0100
,
0010
1000
0001
0010
0001
0100
0010
1000
0100
0010
0001
0100
0010
0100
0001
1000
,
0100
0010
0001
1000
0010
1000
0001
0100
0010
1000
0001
0010
0001
0100
0010
1000
,
0001
0100
0001
1000
0100
0010
0001
0100
0010
1000
0010
0100
0001
1000
0100
1000
,
0010
0100
0001
0100
0010
1000
0002
0000
0203
0000
0320
0000
1030
0001
0100
0010
,
0100
0001
1000
0010
1000
0100
0010
0001
0100
0010
1000
0001
0010
0001
0100
0010
,
1000
0001
0010
0001
0100
0010
1000
0100
0010
0001
1000
0100
1000
0001
0100
0010
,
1000
0001
0010
0001
0100
0010
1000
0001
0010
0001
0100
0010
0100
0001
1000
0100
,
0010
0001
0100
0010
1000
0001
0010
0001
1000
0100
0010
0001
0100
0010
1000
0001
,
0100
0001
1000
0010
0100
0010
1000
0001
0010
0001
0100
0010
1000
0100
0010
0001
,
0100
0010
0100
0001
1000
0100
0010
0001
1000
0010
1000
0001
0100
0010
1000
0001
,
0010
0001
0100
0010
1000
0001
0100
0001
1000
0100
0010
0001
0100
0000
0010
0000
,
1000
0001
0100
0002
0023
0230
2300
0000
,
3002
0003
0000
0000
0000
0000
0000
0000
,
0000
0000
0000
0000
;

//---------------dance-single - 19 (owenviau1)----------------
#NOTES:
     dance-single:
     19 (owenviau1):
     Challenge:
     19:
     1.000,1.000,0.281,1.000,1.000,1392.000,43.000,238.000,1.000,2.000:
2000
3200
0320
0032
0203
0320
2030
3020
,
0230
0000
0302
0000
2003
0000
0000
3000
0000
0000
0000
0000
0000
0000
0000
0000
,
0020
0230
0302
2003
3002
0023
0230
2300
,
3200
0000
0320
0000
0032
0000
0000
0003
0000
0000
0000
0000
0000
0000
2000
0000
,
3200
0320
0032
2003
3020
0230
0320
2030
,
3002
0203
0302
0003
0000
0000
000M
2000
,
3200
0320
0032
0003
0000
0000
0020
2030
,
3002
0000
0203
0000
0020
0300
0000
0000
0000
0000
0000
0000
0130
0000
0000
0000
,
2000
3200
0320
0032
0203
0320
2030
3020
,
0230
0000
0302
0000
2003
0000
0000
3000
0000
0000
0000
0000
0000
0000
2000
0000
,
3020
0230
0302
2003
3002
0023
0230
2300
,
3200
0000
0320
0000
0032
0000
0000
0003
2000
0000
0000
0000
0000
0000
0000
0000
,
3200
0320
0032
2003
3020
0230
0320
2030
,
3002
0203
0302
0003
2000
0000
0000
3002
,
0203
0320
2030
3002
0023
0032
2003
3200
,
0320
0000
0032
0000
1003
0010
1000
0001
0200
0000
0320
0000
2030
0000
0000
0000
,
3002
0000
0000
0003
0000
0000
0200
0000
0320
0000
2030
0000
3002
0000
0000
0000
,
0203
0000
0000
0300
0000
0000
0000
0000
0020
0000
2030
0000
3002
0000
0003
0000
,
0200
0320
2030
0000
3002
0203
0000
0300
,
0000
0000
0000
0020
2030
3002
2003
0000
,
3020
0030
0000
0200
0302
2003
3020
0000
,
0230
0000
0000
0300
0000
0000
0000
0000
0002
0000
2003
0000
3020
0000
0000
0000
,
0230
0000
0302
0000
2003
0000
0000
3000
0020
0000
0230
0000
0000
0300
0000
0000
,
0000
0000
0000
0002
0203
0320
1031
0001
,
0110
1000
0101
0100
1010
0001
0110
0010
,
1001
0000
0010
0000
0101
0000
0010
0000
1000
0100
0010
0001
1000
0000
0001
0000
,
0110
0100
1001
0100
0011
1000
0110
0001
,
1100
0010
1001
0010
0101
1000
0110
0100
,
1001
0100
0011
0001
1100
1000
0011
1000
,
0110
0000
0010
0000
1001
0000
0010
0000
0101
0000
0010
0000
1000
0100
0010
0001
,
1000
0001
0100
0010
1000
0001
0010
0001
1000
0100
0010
0001
0100
0010
1000
0001
,
0010
0000
0000
0001
0000
0000
0100
0000
0000
0010
0000
0000
2000
0000
0000
0000
0000
0000
0000
0000
0000
0000
0000
0000
3001
0000
0000
0000
0000
0000
0000
0000
0000
0000
0000
0000
1000
0000
0100
0000
0010
0000
0001
0000
0100
0000
0010
0000
,
1000
0001
0100
0001
1000
0010
0100
0010
1000
0001
0010
0001
1000
0100
0010
0001
0100
0010
1000
0001
0010
0001
0100
0010
,
0100
0001
1000
0001
0100
0010
1000
0100
0010
0001
1000
0100
1000
0010
0100
0010
1000
0001
0010
0001
0100
0010
0100
0001
,
1000
0001
0100
0010
1000
0100
0010
0001
1000
0100
1000
0001
0100
0010
1000
0001
0010
0001
0100
0010
1000
0100
0010
0001
,
1000
0100
1000
0010
0100
0010
1000
0001
0100
0001
1000
0100
0010
0001
0100
0010
1000
0001
0010
0001
0100
0010
0100
0001
,
1000
0001
0100
0010
1000
0100
1000
0001
0100
0010
1000
0100
0010
0001
0010
0100
1000
0001
0100
0001
1000
0010
0100
0010
,
1000
0001
0010
0001
0100
0010
1000
0100
1000
0001
0100
0001
1000
0010
1000
0001
0100
0010
1000
0010
0100
0001
0010
0001
,
1000
0100
0010
0001
1000
0100
1000
0010
0100
0010
1000
0001
0100
0001
1000
0010
0100
0010
1000
0001
0010
0001
0100
0010
,
1000
0100
0010
0001
0100
0010
1000
0000
0000
0020
0000
0000
0230
0000
0000
0302
0000
0000
1003
0100
0010
0001
0100
0010
,
1000
0001
0100
0001
1000
0010
0100
0010
1000
0001
0010
0001
1000
0100
0010
0001
0100
0010
1000
0001
0010
0001
0100
0010
,
0100
0001
1000
0001
0100
0010
1000
0100
0010
0001
1000
0100
1000
0010
0100
0010
1000
0001
0010
0001
0100
0010
0100
0001
,
1000
0001
0100
0010
1000
0100
0010
0001
1000
0100
1000
0001
0100
0010
1000
0001
0010
0001
0100
0010
1000
0100
0010
0001
,
1000
0100
1000
0010
0100
0010
1000
0001
0100
0001
1000
0100
0010
0001
0100
0010
1000
0001
0010
0001
0100
0010
0100
0001
,
1000
0001
0100
0010
1000
0100
1000
0001
0100
0010
1000
0100
0010
0001
0010
0100
1000
0001
0100
0001
1000
0010
0100
0010
,
1000
0001
0010
0001
0100
0010
1000
0100
1000
0001
0100
0001
1000
0010
1000
0001
0100
0010
1000
0010
0100
0001
0010
0001
,
1000
0100
0010
0001
1000
0100
1000
0010
0100
0010
1000
0001
0100
0001
1000
0010
0100
0010
1000
0000
0000
0001
0000
0000
,
0100
0010
1000
0020
0030
0200
0301
0000
,
2000
3200
0320
0032
0203
0320
2030
3020
,
0230
0000
0302
0000
2003
0000
0000
3000
0000
0000
0000
0000
0000
0000
0000
0000
,
0020
0230
0302
2003
3002
0023
0230
2300
,
3200
0000
0000
0000
0000
0000
0320
0000
0000
0000
0000
0000
0032
0000
0000
0000
0000
0000
0100
0000
0000
0003
0000
0000
0010
0000
0000
0000
0000
0000
1000
0000
0000
0000
0000
0000
0001
0000
0100
0000
0010
0000
1000
0000
0010
0000
0100
0000
,
0001
0010
0001
1000
0100
0010
0001
0100
0010
1000
0010
0100
0001
0010
0001
1000
0010
1000
0001
0100
0010
1000
0010
0100
,
0001
1000
0100
0010
0001
1000
0100
1000
0001
0010
0100
1000
0001
0100
0001
1000
0010
0100
0010
1000
0001
0010
0001
1000
,
0010
0100
0001
0010
0001
1000
0100
1000
0001
0100
0010
1000
0010
0100
0001
1000
0010
0100
0001
0000
0000
0100
0000
0000
,
0001
0000
0000
1000
0000
0000
0010
0000
0000
0100
0000
0000
0002
0000
0000
0000
0000
0000
1003
0100
0010
0001
0100
0010
,
1000
0001
0100
0001
1000
0010
0100
0010
1000
0001
0010
0001
1000
0100
0010
0001
0100
0010
1000
0001
0010
0001
0100
0010
,
0100
0001
1000
0001
0100
0010
1000
0100
0010
0001
1000
0100
1000
0010
0100
0010
1000
0001
0010
0001
0100
0010
0100
0001
,
1000
0001
0100
0010
1000
0100
0010
0001
1000
0100
1000
0001
0100
0010
1000
0001
0010
0001
0100
0010
1000
0100
0010
0001
,
1000
0100
1000
0010
0100
0010
1000
0001
0100
0001
1000
0100
0010
0001
0100
0010
1000
0001
0010
0001
0100
0010
0100
0001
,
1000
0001
0100
0010
1000
0100
1000
0001
0100
0010
1000
0100
0010
0001
0010
0100
1000
0001
0100
0001
1000
0010
0100
0010
,
1000
0001
0010
0001
0100
0010
1000
0100
1000
0001
0100
0001
1000
0010
1000
0001
0100
0010
1000
0010
0100
0001
0010
0001
,
1000
0100
0010
0001
1000
0100
1000
0010
0100
0010
1000
0001
0100
0001
1000
0010
0100
0010
1000
0001
0100
0001
1000
0010
,
0100
0010
1000
0001
0010
0001
1000
0100
0010
0001
0100
0010
1000
0010
0100
0001
0010
0001
2000
0000
0000
0000
0000
0000
,
3002
0000
0000
0003
0000
0000
0200
0000
0320
0000
2030
0000
3002
0000
0000
0000
,
0203
0000
0000
0300
0000
0000
0000
0000
0020
0000
2030
0000
3002
0000
0003
0000
,
0200
0320
2030
0000
3002
0203
0000
0300
,
0000
0000
0000
0020
2030
3002
2003
0000
,
3020
0030
0000
0200
0302
2003
3020
0000
,
0230
0000
0000
0300
0000
0000
0000
0000
0002
0000
2003
0000
3020
0000
0000
0000
,
0230
0000
0302
0000
2003
0000
0000
3000
0020
0000
0230
0000
0000
0300
0000
0000
,
0000
0000
0000
0002
0203
0320
2030
0000
,
3002
0000
0000
0003
0000
0000
0200
0000
0320
0000
2030
0000
3002
0000
0000
0000
,
0203
0000
0000
0300
0000
0000
0000
0000
0020
0000
2030
0000
3002
0000
0003
0000
,
0200
0320
2030
0000
3002
0203
0000
0300
,
0000
0000
0000
0020
2030
3002
2003
0000
,
3020
0030
0000
0200
0302
2003
3020
0000
,
0230
0000
0000
0300
0000
0000
0000
0000
0002
0000
2003
0000
3020
0000
0000
0000
,
0230
0000
0302
0000
2003
0000
0000
3000
0020
0000
2030
0000
0000
0000
0000
0000
,
0000
0000
0000
3002
0203
0320
1031
0001
,
0110
1000
0101
0100
1010
0001
0110
0010
,
1001
0010
0101
0110
1001
0110
1010
0001
,
0110
0100
1001
0100
0011
1000
0110
0001
,
1100
0010
1001
0110
0101
1010
0110
0001
,
1000
0010
0100
0001
1000
0100
0010
0001
0100
0010
1000
0001
0010
0001
0100
0010
,
1000
0100
0010
0001
0100
0010
0100
0001
0010
0100
1000
0100
0010
0001
1000
0100
,
1000
0010
0100
0010
1000
0001
0010
0001
0100
0010
1000
0100
0010
0001
0100
0010
,
1000
0000
0000
0010
0000
0000
0100
0000
0000
0001
0000
0000
0010
0000
0000
0001
0000
0000
0100
0000
0000
0010
0000
0000
2000
0000
0000
0000
0000
0000
0000
0000
0000
0000
0000
0000
3001
0000
0100
0000
0010
0000
1000
0000
0010
0000
0100
0000
,
0001
0010
0001
1000
0100
0010
0001
0100
0010
1000
0010
0100
0001
0010
0001
1000
0010
1000
0001
0100
0010
1000
0010
0100
,
0001
1000
0100
0010
0001
1000
0100
1000
0001
0010
0100
1000
0001
0100
0001
1000
0010
0100
0010
1000
0001
0010
0001
1000
,
0010
0100
0001
0010
0001
1000
0100
1000
0001
0100
0010
1000
0010
0100
0001
1000
0010
0100
0001
0100
0010
1000
0010
0100
,
0001
0010
0001
1000
0100
0010
0001
0100
0010
1000
0010
0100
0001
0010
0001
1000
0010
1000
0001
0100
0010
1000
0010
0100
,
0001
1000
0100
0010
0001
1000
0100
1000
0001
0010
0100
1000
0001
0100
0001
1000
0010
0100
0010
1000
0001
0010
0001
1000
,
0010
0100
0001
0010
0001
1000
0100
1000
0001
0100
0010
1000
0010
0100
0001
1000
0010
0100
0001
0100
0010
1000
0010
0100
,
0001
0010
0001
1000
0100
0010
0001
0100
0010
1000
0010
0100
0001
0010
0001
1000
0010
1000
0001
0100
0010
1000
0010
0100
,
0001
1000
0100
0010
0001
1000
0100
0010
0001
2000
0000
0000
3020
0000
0000
0230
0000
0000
0310
1000
0001
0010
0001
1000
,
0010
0100
0001
0010
0001
1000
0100
1000
0001
0100
0010
1000
0010
0100
0001
1000
0010
0100
0001
0100
0010
1000
0010
0100
,
0001
0010
0001
1000
0100
0010
0001
0100
0010
1000
0010
0100
0001
0010
0001
1000
0010
1000
0001
0100
0010
1000
0010
0100
,
0001
1000
0100
0010
0001
1000
0100
1000
0001
0010
0100
1000
0001
0100
0001
1000
0010
0100
0010
1000
0001
0010
0001
1000
,
0010
0100
0001
0010
0001
1000
0100
1000
0001
0100
0010
1000
0010
0100
0001
1000
0010
0100
0001
0100
0010
1000
0010
0100
,
0001
0010
0001
1000
0100
0010
0001
0100
0010
1000
0010
0100
0001
0010
0001
1000
0010
1000
0001
0100
0010
1000
0010
0100
,
0001
1000
0100
0010
0001
1000
0100
1000
0001
0010
0100
1000
0001
0100
0001
1000
0010
0100
0010
1000
0001
0010
0001
1000
,
0010
0100
0001
0010
0001
1000
0100
1000
0001
0100
0010
1000
0010
0100
0001
1000
0010
0100
0001
0000
0000
0010
0000
0000
,
0100
1000
0010
0200
0320
2030
3002
0000
,
0203
0300
0000
0000
0000
0000
0000
0000
,
0000
0000
0000
0000
;
