#TITLE:STOP! & Go;
#SUBTITLE:;
#ARTIST:Onyx;
#TITLETRANSLIT:;
#SUBTITLETRANSLIT:;
#ARTISTTRANSLIT:;
#CREDIT:Professor Raine;
#BANNER:STOP! & Go-banner.png;
#BACKGROUND:STOP! & Go-bg.png;
#LYRICSPATH:;
#CDTITLE:!prof.png;
#MUSIC:STOP! and Go.mp3;
#OFFSET:-0.032;
#SAMPLESTART:5.740;
#SAMPLELENGTH:15.340;
#SELECTABLE:YES;
#BPMS:0.000=136.980,13.000=2191.680,61.000=136.967,97.000=273.934,99.000=136.967,105.000=273.934,107.000=136.967,119.000=547.868,127.000=136.974,137.000=273.948,140.000=136.974,171.000=68.490,177.000=136.980,217.503=2191.680,265.503=136.968,281.503=273.936,282.503=136.968,296.003=273.936,298.003=68.484,298.503=136.968,314.503=68.484,316.503=136.968;
#STOPS:91.000=0.876
,97.000=0.164
,97.750=0.110
,98.250=0.164
,105.000=0.164
,105.750=0.110
,106.250=0.164
,113.000=0.876
,132.750=0.876
,140.000=0.110
,140.250=0.110
,140.500=0.110
,140.750=0.110
,155.500=0.110
,155.750=0.548
,162.000=0.110
,162.250=0.329
,177.000=0.110
,177.253=0.110
,177.503=0.110
,177.753=0.110
,217.503=1.971
;
#BGCHANGES:;
// cache tags:
#FIRSTBEAT:0.000;
#LASTBEAT:316.813;
#SONGFILENAME:Songs/KBU/STOP! & Go (Professor Raine)/STOP! & Go.sm;
#HASMUSIC:1;
#HASBANNER:1;
#MUSICLENGTH:106.825;
// end cache tags

//---------------dance-single - ----------------
#NOTES:
     dance-single:
     :
     Hard:
     12:
     1.000,1.000,1.000,0.945,1.000,613.000,160.000,101.000,52.000,12.000:
1001
0000
0000
0000
0010
0000
0100
0000
0021
0030
0000
0000
0100
0000
0001
0000
1100
0000
0000
0000
1000
0000
0001
0000
0120
0030
0000
0000
0010
0000
0001
0000
,
1100
0000
0000
0000
0010
0000
0100
0000
1020
0030
0000
0000
0001
0000
0100
0000
0011
0000
0000
0000
1010
0000
0101
0000
0020
0030
0000
0000
0110
0000
0000
0000
,
1001
0000
0000
0000
0001
0000
1000
0000
0021
0030
0000
0000
1000
0000
0010
0000
1100
0000
0000
0000
0001
0000
0100
0000
0011
0000
0000
0000
0110
0000
1001
0000
,
0000
0000
0101
1010
0002
0000
0000
0000
0000
0000
0000
0000
0000
0000
0000
0000
,
0000
0000
0000
0000
,
0000
0000
0000
0000
,
0000
0000
0000
0000
,
0000
0000
0000
0000
,
0000
0000
0000
0000
,
0000
0000
0000
0000
,
0000
0000
0000
0000
,
0000
0000
0000
0000
,
0000
0000
0000
0000
,
0000
0000
0000
0000
,
0000
0000
0000
0000
,
0000
0000
0000
0000
2103
0000
0010
0100
3021
0030
0100
0010
2002
3003
0001
0010
,
1200
0300
0000
0000
1000
0000
0010
0000
1001
0000
0000
0000
0001
0000
1000
0000
0120
0030
0000
0000
0100
0000
0001
0000
1010
0000
0000
0000
0100
0000
1000
0000
,
0012
0003
0000
0000
1000
0000
0100
0000
1020
0000
0000
0000
0100
0000
1000
0000
0132
0000
0003
0000
0010
0000
0100
0000
2002
0000
3003
0000
0100
0000
0010
0000
,
1200
0300
0000
0000
0100
0000
1000
0000
0011
0000
0000
0000
0010
0000
0100
0000
1002
0003
0000
0000
0010
0000
1000
0000
0101
0000
0000
0000
0100
0000
0010
0000
,
1002
0003
0000
0000
0200
0000
0001
0000
1310
0000
0001
0000
1000
0000
0100
0000
0002
0003
1000
0000
0100
0000
1000
0000
0001
0000
0010
0000
1100
0000
0011
0000
,
0200
0300
0001
0000
0100
0000
0001
0000
0010
0000
1000
0000
0010
0000
1000
0000
0200
0300
0010
0000
0100
0000
0010
0000
0001
0000
1000
0000
0101
0000
1010
0000
,
0002
0003
0010
0000
0001
0000
0010
0000
1000
0000
0010
0000
1000
0000
0010
0000
0002
0003
0100
0000
0001
0000
0100
0000
0001
0000
0010
0000
0101
0000
1010
0000
,
0200
0000
0300
0000
0001
0000
0000
0000
0100
0000
0000
0000
0001
0000
0000
0000
0010
0000
0000
0000
1000
0000
0000
0000
0010
0000
0000
0000
1100
0000
0000
0000
0011
0000
0000
0000
0100
0000
0000
0000
1010
0000
0000
0000
0001
0000
0000
0000
0020
0131
0000
0000
0000
0000
0000
0000
0010
0000
0000
0000
0000
0000
0000
0000
,
0100
0000
1000
0220
0330
0000
1000
0000
0010
0000
1000
0202
0303
0000
0010
0000
,
0100
0000
1000
0000
0110
0000
0000
0010
0000
0010
0000
0000
1010
0000
0100
0000
,
0010
0000
0000
0000
0001
0000
0220
0000
0330
0000
0000
0000
0100
0000
0000
0000
1000
0000
0000
0000
0001
0000
2020
3030
0000
0000
2020
3030
0100
0000
0000
0000
,
0100
0000
0001
0000
0011
0000
0000
1010
0000
1010
0000
0000
0101
1000
0100
0000
,
0020
0030
0100
0000
0002
0003
2200
0000
3310
0000
0001
0000
0100
0000
0000
0000
1000
0000
0100
0000
0010
0000
0202
0000
1303
0000
0010
0000
0001
0000
0000
0000
,
0010
0000
0000
0000
0001
0000
0000
0000
0100
0000
0000
0000
0010
0000
0000
0000
2000
3101
0000
0000
0010
0000
0000
0000
1000
0000
0000
0000
0000
0000
0000
0000
0200
0000
0300
0000
0010
0000
0000
0000
2000
0000
3000
0000
0022
0000
0000
0000
0133
0000
0000
0000
1000
0000
0000
0000
0200
0000
0300
0000
0000
0000
0000
0000
,
0002
0003
1000
0000
0200
0300
0011
0000
0100
0000
0011
0000
0200
0300
0000
0000
0001
0000
0100
0000
0010
0000
1000
0000
0200
0000
0000
0000
0000
0000
0000
0000
,
0000
0000
0000
0000
,
0000
0000
0000
0000
0000
0000
1301
0100
,
0110
0000
0001
0110
0000
0110
0001
0000
0010
0000
1000
0000
0010
0000
0010
0000
,
0011
0000
0000
0000
0000
0000
0000
0000
1000
0000
0000
0000
0022
0033
0000
0000
0100
0000
0000
0000
0000
0000
0000
0000
0100
0000
0000
0000
0000
0000
0000
0000
1010
0000
0000
0000
0000
0000
0000
0000
0100
0000
0000
0000
1010
0000
0000
0000
0000
0000
0000
0000
1010
0000
0000
0000
0001
0000
0000
0000
0000
0000
0000
0000
,
1010
0001
0200
0000
0000
0000
0000
0000
,
0301
0000
1000
0000
0011
0000
1100
0000
0001
0000
0010
0000
0101
0000
0000
0000
1000
0000
0010
0000
1200
0300
0000
0000
0001
0000
0100
0000
1010
0000
0000
0000
,
0110
0000
1001
0000
0200
0300
0000
0000
0010
0000
0100
0000
1001
0000
0000
0000
0010
0000
1000
0000
0201
0300
0000
0000
0100
0000
0010
0000
1100
0000
0000
0000
,
0101
0000
1010
0000
0200
0300
0000
0000
0010
0000
0100
0000
1001
0000
0000
0000
1000
0000
0001
0000
2100
3000
0000
0000
0010
0000
0100
0000
0011
0000
0000
0000
,
1001
0000
0110
0000
2000
3000
0000
0000
0010
0000
1000
0000
0101
0000
0000
0000
1000
0000
0100
0000
1002
0003
0000
0000
0010
0000
0000
0000
1001
0000
0110
0000
,
1001
0000
0000
0000
0100
0000
0010
0000
2001
3000
0000
0000
1000
0000
0010
0000
1100
0000
0000
0000
1001
0000
0110
0000
2000
3000
0000
0000
0010
0000
0100
0000
,
0011
0000
0000
0000
0010
0000
0100
0000
1002
0003
0000
0000
0100
0000
0000
0000
0011
0000
1100
0000
0000
0000
1001
0000
0110
0000
0000
0000
0100
0000
1000
0000
,
0120
0030
0000
0000
1000
0000
0001
0000
0100
0000
0000
0000
0110
0000
1001
0000
0020
0030
0000
0000
0100
0000
0000
0000
0011
0000
0000
0000
0011
0000
0000
0000
,
0000
0000
1100
0000
0000
0000
1010
0000
0101
0000
0000
0000
2MM2
0MM0
0MM0
0MM0
,
0MM0
0MM0
0MM0
0MM0
0MM0
0MM0
0MM0
0MM0
0MM0
0MM0
0MM0
0MM0
0MM0
0MM0
0MM0
0MM0
,
0MM0
0000
0000
0000
0000
0000
0000
0000
0000
0000
0000
0000
0000
0000
0000
3003
1010
0000
0000
0000
0101
0000
0000
0000
1010
0000
0000
0000
0101
0000
0000
0000
1000
0000
0000
0000
0001
0000
0000
0000
0010
0000
0000
0000
0100
0000
0000
0000
0002
0000
0003
0000
0100
0000
0000
0000
1000
0000
0000
0000
0010
0000
0000
0000
,
0001
0000
0010
0000
1000
0000
0001
0000
0020
0030
0100
0000
0001
0000
0100
0000
1000
0000
0010
0000
0001
0000
0010
0000
0200
0300
0001
0000
0010
0000
0001
0000
,
1000
0000
0001
0000
1000
0000
0001
0000
1000
0000
0001
0000
1000
0000
0001
0000
0010
0000
0100
0000
0001
0000
0100
0000
2000
3000
0010
0000
0001
0000
0010
0000
,
1000
0000
0001
0000
0010
0000
0100
0000
0002
0003
0100
0000
1000
0000
0010
0000
1001
0000
0100
0000
1000
0000
0010
0000
0001
0000
0100
0000
1010
0000
0001
0000
,
0110
0000
0001
0000
1000
0000
0010
0000
2000
3000
0001
0000
0100
0000
0001
0000
1000
0000
0100
0000
0001
0000
0100
0000
0002
0003
0010
0000
0001
0000
0010
0000
,
1000
0000
0001
0000
0010
0000
0100
0000
0002
0003
0100
0000
0010
0000
0100
0000
0010
0000
0001
0000
1000
0000
0001
0000
0020
0030
0001
0000
1000
0000
0001
0000
,
1000
0000
0100
0000
0010
0000
0100
0000
0002
0003
1000
0000
0010
0000
0001
0000
1000
0000
0001
0000
1000
0000
0100
0000
0020
0030
0100
0000
1000
0000
0010
0000
,
1000
0000
0010
0000
1000
0000
0001
0000
0020
0030
0100
0000
0001
0000
0100
0000
0010
0000
0100
0000
0001
0000
0010
0000
0200
0300
0010
0000
0001
0000
1000
0000
,
0011
0000
0100
0000
1010
0000
0001
0000
0100
0000
0010
0000
0001
0000
1000
0000
0101
0000
1010
0000
0100
0000
1000
0000
0200
0300
0001
0000
0010
0000
1000
0000
,
0001
0000
0010
0000
0100
0000
0001
0000
2000
3000
0001
0000
0100
0000
0001
0000
0010
0000
1000
0000
0001
0000
0010
0000
2000
3000
0001
0000
0100
0000
1000
0000
,
0100
0000
0001
0000
0100
0000
1000
0000
0020
0030
0001
0000
0200
0000
0000
0000
0000
0000
0000
0000
0000
0000
0000
0000
0000
0000
0000
0000
0000
0000
0000
0000
,
0000
0000
0000
0000
,
0000
0000
0000
0000
,
0000
0000
0000
0000
,
0000
0000
0000
0000
,
0000
0000
0000
0000
,
0000
0000
0000
0000
,
0000
0000
0000
0000
,
0000
0000
0000
0000
,
0000
0000
0000
0000
,
0000
0000
0000
0000
,
0000
0000
0000
0000
,
0000
0000
0000
0000
0000
0000
1310
0000
0010
0000
0100
0000
1000
0011
0000
0011
,
0000
0000
1000
0000
0000
0000
0101
0000
1000
0000
0110
0000
1000
0101
0000
0000
,
0101
0000
0000
0110
0000
0000
0100
0000
1000
0000
0110
0000
0100
0011
0000
0000
,
0010
0000
0000
0000
1100
0000
0000
0000
0100
0000
0010
0101
1010
0000
1010
0000
,
1010
0101
0000
0101
0000
0000
2001
0000
0000
0000
3101
0000
0010
0000
0100
1010
,
0000
0000
0010
0000
1000
0000
0001
0000
0110
0000
0010
0000
0101
0000
0001
0110
,
0000
0000
0011
0000
0000
1100
0000
0000
0010
0000
1000
0000
1100
0000
0010
0101
,
0000
0000
0100
0000
0101
0000
1000
0000
0000
0000
0100
0000
1001
0000
0000
0010
,
0002
0000
0000
0000
0000
0000
0000
0000
0000
0000
0000
0000
0000
0000
0000
0000
2003
0000
0000
0000
3001
0000
0010
0000
0100
0000
1000
0000
0002
0003
1000
0000
,
0100
0000
0001
0000
0010
0000
0100
0000
0011
0000
1100
0000
0020
0030
0100
0000
1000
0000
0100
0000
0010
0000
0001
0000
1000
0000
0010
0000
2000
3000
0001
0000
,
0100
0000
1000
0000
0100
0000
0001
0000
0110
0000
1001
0000
0020
0030
0100
0000
0001
0000
0010
0000
1000
0000
0010
0000
0001
0000
1000
0000
0200
0300
0010
0000
,
0100
0000
1000
0000
0010
0000
0001
0000
1010
0000
0101
0000
0020
0030
1000
0000
0010
0000
1000
0000
0100
0000
0001
0000
0100
0000
0010
0000
2000
3000
0001
0000
,
0100
0010
1000
0001
0010
0100
1000
0001
0100
0010
2002
0000
0000
0000
0000
0000
,
0000
0000
0000
0000
0000
0000
0000
0000
3003
M00M
M00M
M00M
M00M
M00M
0000
0000
0000
0000
0000
0000
0000
0000
0000
0000
0000
0000
0000
0000
0000
0000
0000
0000
0000
0000
0000
0000
0000
0000
0000
0000
0000
0000
0000
0000
0000
0000
0000
0000
0000
0000
0000
0000
0000
0000
0000
0000
0000
0000
0000
0000
0000
0000
0000
0000
;
