#TITLE:STAR LEGEND;
#SUBTITLE:77 OP theme;
#ARTIST:Sakakibara Yui;
#TITLETRANSLIT:;
#SUBTITLETRANSLIT:;
#ARTISTTRANSLIT:;
#CREDIT:ALICE_;
#BANNER:STAR LEGEND.png;
#BACKGROUND:STAR LEGEND.jpg;
#LYRICSPATH:;
#CDTITLE:cdtitle.png;
#MUSIC:STAR LEGEND.mp3;
#OFFSET:-2.715;
#SAMPLESTART:89.980;
#SAMPLELENGTH:12.000;
#SELECTABLE:YES;
#BPMS:0.000=90.000,40.000=150.030;
#STOPS:36.000=0.530
;
#BGCHANGES:2.000=STAR LEGEND.avi=1.000=1=0=1,
99999=-nosongbg-=1.000=0=0=0 // don't automatically add -songbackground-
;
// cache tags:
#FIRSTBEAT:4.000;
#LASTBEAT:285.000;
#SONGFILENAME:Songs/alice 4th complete step/STAR LEGEND/STAR LEGEND.sm;
#HASMUSIC:1;
#HASBANNER:1;
#MUSICLENGTH:136.171;
// end cache tags

//---------------dance-single - ----------------
#NOTES:
     dance-single:
     :
     Hard:
     8:
     0.487,0.497,0.272,0.147,0.015,407.000,37.000,20.000,0.000,0.000:
0000
0000
0000
0000
,
0100
0100
1000
1000
,
0001
0001
0100
0010
,
1000
1000
0001
0001
,
0010
0100
0010
0001
,
1000
0000
1100
0000
0001
0100
0001
0000
,
0010
0000
1100
0000
0010
0001
0100
0000
,
1000
0001
0100
0001
0010
0001
1000
0010
,
0200
0000
0302
2003
,
3020
0000
0000
0000
0000
0000
0000
0030
,
1000
0100
1000
0010
0000
0000
0001
0100
,
0001
0010
0000
0100
1000
0001
0100
1000
,
0100
0010
1000
0002
0000
0000
0103
1001
,
0010
0100
1000
0010
0100
0001
1000
0000
,
0001
0100
0001
0010
0100
0010
0001
1000
,
0000
0010
0100
0010
1000
0001
1000
1100
,
0000
0010
0100
0001
1000
0100
0010
0002
,
0000
1003
0100
2000
0000
3010
0100
0010
,
1000
0100
0001
0100
,
1000
0100
0001
0100
1000
0010
0001
0010
,
1000
1100
1100
0010
,
0001
0101
0101
0010
,
1000
0100
0001
0100
,
1000
0010
0100
0001
0000
0001
0010
1000
,
0010
0101
0101
0010
,
1000
1100
1100
0010
,
1000
0000
0100
0000
0001
0100
1000
0020
,
0030
0100
1000
0100
0001
0010
0100
1000
,
0001
0101
1001
0010
,
0100
1001
1100
0010
,
1000
0001
0100
0010
,
1000
0100
1000
0000
0001
1000
0100
1000
,
0010
0000
0110
0000
0010
1000
0001
0010
,
0100
1100
0001
0101
,
1000
0010
0000
0100
0000
0001
0010
1000
,
0000
0000
0010
0001
0100
0001
1000
0010
,
0100
0000
0000
0100
0100
0000
1001
0000
,
0010
0000
0000
0010
0010
0000
1001
0000
,
0100
0000
0000
0010
1000
0000
1100
0000
,
0010
0001
1000
0010
0000
0001
0000
0100
,
0000
0010
1000
0010
0100
0100
0001
0000
,
0010
0100
0010
0001
1000
1000
0100
0000
,
0001
0010
1000
0010
0001
0100
0001
1000
,
0010
0100
0110
1001
,
0001
0000
0000
1000
0000
0000
0100
0000
0010
0000
0000
1000
0000
0000
0100
0000
,
0001
0000
1100
0010
0000
0100
0010
0100
,
1001
1000
0100
0100
0010
0010
0001
0100
,
2002
0000
0000
3003
0020
0000
0000
0030
,
0100
1000
0001
0100
1000
0100
0001
1000
,
0100
0001
0100
1000
0010
0001
0010
1000
,
0001
0010
0100
1000
0010
0100
0001
1000
,
0010
0010
2000
0002
3003
0100
0001
1000
,
0010
0001
0010
0100
0001
0010
0001
1000
,
0100
0010
0100
1000
0010
0100
0002
2000
,
0000
3003
0100
0010
0100
1000
0010
0100
,
0001
0000
0000
0010
0000
0000
0100
0000
2000
0000
0100
0000
3001
0000
0000
0000
,
1000
0000
0000
0010
0000
0000
0100
0000
0002
0000
0100
0000
1003
0000
0000
0000
,
0010
0100
0001
1000
0000
0101
0000
2010
,
0000
3100
0010
0100
1000
0010
0100
0001
,
1000
0100
1000
0010
0100
0001
0010
0100
,
1000
0001
0101
1000
0001
1000
1100
0010
,
0100
1000
0100
0001
0010
1000
0010
0001
,
0100
0000
0110
0000
1000
0001
0100
0020
,
0000
1000
1030
0000
0000
0000
0000
0000
,
1000
0100
0001
0100
0001
0100
1000
0010
,
0100
0001
0010
1000
0010
1000
0010
0001
,
0100
0010
1000
0010
0000
0010
0100
0010
,
1000
0001
0100
0001
0000
0001
1000
0010
,
0100
0001
0100
1000
0100
0001
0010
0100
,
0000
0000
0000
0000
0110
0000
1001
0101
,
0000
0010
1100
1001
0000
0100
1000
0020
,
0000
0030
0000
0000
;

//---------------dance-single - Copied from----------------
#NOTES:
     dance-single:
     Copied from:
     Challenge:
     15:
     1.000,1.000,1.000,0.830,0.591,643.000,232.000,113.000,0.000,31.000:
0000
0000
0000
0000
,
1010
0000
0000
0100
0001
0000
0010
1000
0100
0000
0010
0000
1001
0000
0100
0000
,
0011
0000
0001
1000
0010
0000
0100
0000
0010
1000
0100
0000
1001
0000
0010
0000
,
1100
0000
0001
0000
0101
1000
0010
1000
0100
0000
0010
0000
1001
0100
1000
0010
,
0200
0000
0001
0300
1020
0000
0000
0030
0201
0000
2300
0000
3012
0000
0203
0000
,
1310
0000
1001
0010
0100
1100
1001
0000
,
0010
0000
0000
0000
0000
0000
0100
0000
0000
0000
0000
0000
0001
0000
0000
0000
0000
0000
1000
0000
0000
0000
0000
0000
0010
0000
0000
0100
0000
0000
0001
0000
0000
1000
0000
0000
0102
0000
0000
0000
0000
0000
0003
0000
0000
1000
0100
0010
,
0001
0000
0000
0000
1010
0000
0000
0000
0100
0000
0000
0000
0011
0000
0000
0000
0100
0000
0000
0000
1001
0000
0000
0000
0002
0003
0020
0030
0200
0300
2000
3000
,
0102
0000
0100
1000
0013
0000
0100
0000
1001
0000
0010
0000
0102
0000
0000
0003
,
2220
0000
0000
0000
0300
0000
0000
3030
,
0201
0300
2000
3000
0210
0300
0002
0000
0010
1003
0100
0000
2001
3000
0200
0300
,
1020
0030
0002
0003
0110
0000
1000
0000
0010
0001
0100
0000
1001
0000
0010
0000
,
0102
0000
1000
0000
0110
0003
2001
0000
0010
0100
3001
0000
1010
0000
0201
0300
,
2000
3000
0120
0030
1001
0000
0100
0000
0001
0010
1000
0000
0101
0010
0000
0010
,
1002
0000
0000
0000
0110
0003
2000
0000
0001
0100
3010
0000
1001
0000
0220
0000
,
0000
0000
1000
0000
0001
0330
1000
0001
0010
0001
1100
0000
1001
0000
0210
0000
,
0000
0000
1000
0000
0011
0300
0001
1000
0100
1000
0011
0000
0110
0000
2002
0000
,
0000
3003
0100
0000
1010
0000
2002
0000
0000
3003
0100
0000
0011
0000
1000
0000
,
0101
1001
1100
0110
,
1100
0000
1001
0000
0101
0000
1001
0000
1100
0001
0100
0011
1000
0101
1010
0001
,
0110
0000
0110
1000
0101
0010
1001
0100
,
1001
0000
0000
0000
0101
0000
0010
0000
0001
1000
0100
0000
1001
0000
0010
0000
,
1100
0000
0001
0000
0110
0000
0001
0000
0100
1000
0010
0000
0101
0000
2000
3000
,
0110
0000
1000
0000
0011
0000
0100
0000
1001
0000
0010
0000
1100
0000
0001
0010
,
0100
0000
0020
0030
1001
0000
0100
0100
0001
0000
0010
0000
1010
0000
0200
0300
,
0001
0000
1000
0000
0011
0000
0100
0100
0010
0000
1000
0000
1001
0000
0020
0030
,
0101
0000
1000
0000
1001
0000
0010
0100
0001
0100
0010
0000
1001
0000
1200
0300
,
0000
0000
0110
0000
0101
0000
1010
0000
1001
0000
0010
0000
0100
1000
0000
0010
,
0101
0000
0000
0000
1001
0000
0100
0000
1001
0000
0010
0000
0101
0000
2000
3000
,
0110
0000
0000
0000
1001
0000
0010
0100
0001
0000
1000
0000
0011
0000
0200
0300
,
1001
0000
0000
0000
0101
0000
0010
1000
0001
0000
0100
0000
1010
0000
0002
0003
,
1100
0000
0000
0000
0101
0000
0001
0010
0100
1000
0010
0000
0101
0000
0020
0030
,
1001
0000
1000
0000
0110
0000
0001
0000
0100
1000
0010
0000
0101
0000
2000
3000
,
0110
0000
0001
0000
1100
0000
0010
0000
0100
0001
0010
0000
1001
0000
0010
0100
,
0022
0033
0000
0000
0000
0000
0000
0000
2200
3300
0000
0000
0000
0000
0000
0000
0000
0000
0000
0000
0000
0000
0000
0000
2222
3333
0000
0000
0000
0000
0000
0000
0000
0000
0000
0000
0000
0000
0000
0000
2020
3030
0000
0000
0000
0000
0000
0000
0202
0303
0000
0000
0000
0000
0000
0000
1012
0000
0000
0000
0000
0000
0000
0000
,
0000
0000
0103
1000
0010
0100
0001
0010
0001
1000
0100
0010
0001
0100
0010
0001
,
2100
0000
0000
0000
0000
0000
0000
0000
0000
0000
0000
0000
0000
0000
0000
0000
0000
0000
0000
0000
0000
0000
0000
0000
0110
0000
0000
0000
0000
0000
0000
0000
3110
0000
0000
0000
0000
0000
0000
0000
0001
0000
0000
0000
0000
0000
0000
0000
2002
3003
0000
0000
0000
0000
0000
0000
0000
0000
0000
0000
0000
0000
0000
0000
,
0102
0000
0000
0000
0000
0000
0000
0000
0000
0000
0000
0000
0000
0000
0000
0000
0000
0000
0000
0000
0000
0000
0000
0000
0110
0000
0000
0000
0000
0000
0000
0000
0113
0000
0000
0000
0000
0000
0000
0000
1000
0000
0000
0000
0000
0000
0000
0000
2002
3003
0000
0000
0000
0000
0000
0000
0100
0000
0000
0000
0000
0000
0000
0000
,
2010
0001
0000
0101
3101
0010
1001
0100
,
0012
0000
0000
0000
0000
0000
0000
0000
1003
0000
0000
0000
0000
0000
0000
0000
0001
0000
0000
0000
0000
0000
0000
0000
0202
0303
0000
0000
0000
0000
0000
0000
0000
0000
0000
0000
0000
0000
0000
0000
2200
3300
0000
0000
0000
0000
0000
0000
0000
0000
0000
0000
0000
0000
0000
0000
0120
0000
0000
0000
0000
0000
0000
0000
,
0000
0000
1000
0000
0031
0000
0100
0010
1000
0000
1100
0000
0011
0000
1000
0001
,
0100
0000
0000
1010
0000
0000
1001
0000
0100
0000
1100
0000
1001
0000
0010
0100
,
0102
0000
0000
0010
1003
0000
0000
0101
0000
0000
0011
0000
1001
0000
0110
0000
,
2002
0000
0000
0000
3103
0000
0010
0100
0001
1000
0100
0000
1010
0000
0101
0100
,
0022
0000
0033
2200
3300
0000
0220
0330
2002
0000
3003
0202
0303
0000
2020
3030
,
1001
0000
0000
0000
0100
0010
0100
0000
1011
0000
0000
0000
2100
0000
0000
0000
0000
0000
0000
0000
0010
0000
0000
0000
3102
0000
0000
0000
1003
0000
0000
0000
,
0001
0100
0011
1000
0101
0010
1000
0001
0100
1000
0010
0001
1100
0011
1100
0011
,
2102
0000
0000
0000
0000
0000
0000
0000
0020
0000
0000
0000
3003
0000
0000
0030
,
1001
0100
1000
0001
0101
1000
0001
0100
1000
0001
0100
1000
1001
0100
1000
0001
,
0100
1000
0001
0100
1001
1000
0001
0100
1000
0001
1000
0100
0101
1000
0001
0100
,
0001
1000
0100
1000
0101
1000
0001
0100
0001
1000
0100
0001
1001
0000
0110
0000
,
1002
0003
0020
0030
1200
0000
2310
0000
0001
0100
3010
0000
0001
0100
0011
1100
,
1001
0010
0001
1000
0011
1000
0010
0001
0010
1000
0001
1000
1001
0010
0001
1000
,
0010
0001
1000
0010
0011
1000
0001
0010
1001
0100
0010
0000
0101
0000
2012
0000
,
0000
3003
0010
0000
0101
0000
1001
0000
0010
0100
0010
0000
1000
0000
0001
0000
,
1100
0000
1000
0011
0100
0000
1001
0000
0100
0010
0100
0000
0001
0000
1000
0000
,
0011
0000
0001
1100
0010
0000
1001
0000
0100
0010
0100
0000
1000
0100
0010
0001
,
1000
0101
0001
1011
0000
1110
0000
1102
,
0000
0000
0100
0000
1100
0003
0010
0100
1000
0001
0010
0000
0101
0000
0010
0000
,
1001
0000
0100
0000
1010
0000
0100
0001
1000
0010
0100
0000
1001
0000
0100
0000
,
0011
0000
0010
0000
1101
0000
0010
0000
0101
1000
0010
0000
1100
0001
0010
0000
,
0100
0000
1000
0000
1001
0000
0100
0001
1000
0010
0100
0000
0011
1000
0000
0100
,
0020
0000
0100
0000
1031
0000
0010
0000
1100
0001
1100
0000
0110
0000
1002
0000
,
0000
0000
0010
0000
0113
0000
0000
0000
2000
0000
3000
0200
0000
0300
0002
0003
,
0101
1000
0010
0100
1001
0100
0001
0010
1100
0010
0001
1000
0102
1000
0013
0100
,
0011
1000
0001
0100
1010
0001
0100
0010
1001
0100
0001
1000
0011
0100
1000
0001
,
0120
1000
0100
0001
0100
1000
0001
0130
,
1002
0000
0010
0000
0100
0000
0013
0000
1100
0000
0000
1010
0000
0000
0101
0000
,
0011
0000
1000
0000
0100
0000
1000
0000
0010
0001
0010
0000
1000
0000
0001
0000
1100
0000
0010
0000
0001
0100
0001
0000
1000
0100
0010
0000
1100
0000
0012
0000
,
0000
0000
0000
0000
0103
0000
1100
0011
,
0000
0000
0100
0000
1001
0000
0110
0000
0000
0000
0001
1000
0110
0000
2202
0000
,
0000
3303
0000
0000
;

//---------------dance-single - ----------------
#NOTES:
     dance-single:
     :
     Medium:
     6:
     0.384,0.442,0.286,0.110,0.004,312.000,39.000,15.000,0.000,0.000:
0000
0000
0000
0000
,
1000
0000
0100
1000
,
0001
0000
0100
0001
,
1000
0000
0010
0000
,
0001
0000
0100
0000
,
0001
0000
0010
0001
,
1000
0000
0010
1000
,
0002
0000
0000
0000
,
0003
0000
0110
1001
,
0220
0000
0000
0330
,
1100
0000
0110
0000
1000
0100
1000
0000
,
0101
0000
0110
0000
0001
0100
0001
0000
,
1000
0100
1000
0010
1000
0100
1000
0000
,
0001
0010
0100
1000
,
0011
0000
0110
0000
0001
0010
0001
0000
,
1100
0000
0110
0000
1000
0010
0100
0000
,
1000
0100
0001
0010
,
1000
0001
0100
0001
1000
0001
0100
0000
,
1000
1000
1000
1000
,
0001
0100
0001
0100
0020
0000
0000
0030
,
1000
1100
1100
0010
,
0001
0101
0101
0010
,
1000
0100
0001
0100
,
1000
0010
0100
0100
,
0001
0011
0011
0100
,
1000
1010
1010
0100
,
0001
0000
1000
0000
0010
0000
0100
0010
,
0000
1000
0001
0100
0001
1000
0100
1000
,
0010
0101
1001
0100
,
0001
1100
1001
0100
,
0010
1000
0001
0100
,
0001
0000
0010
0000
0100
0000
1000
0100
,
0010
0101
1000
1100
,
0010
0100
0001
0000
0010
0100
1000
0000
,
0001
1001
0000
0100
0000
0010
1000
0020
,
0030
0000
0100
0001
1000
0010
0100
0001
,
0010
0000
0000
0100
1000
0000
0100
0000
,
0010
0000
0000
0001
0100
0000
0001
0000
,
1000
0000
0000
0010
0100
0000
0001
0000
,
0110
0000
1000
0001
0000
1001
0000
0110
,
0000
0000
1000
0100
0001
0100
0010
0000
,
1000
0000
0001
0100
1000
0100
0010
0000
,
1000
0000
0001
0100
0001
1000
0010
0000
,
0100
0001
1000
0000
0100
1000
0001
0000
,
0110
1001
1100
0101
,
0011
0000
1100
0000
1000
0010
0100
0001
,
2000
0000
0000
0000
,
3020
0000
0000
0030
,
1000
0100
0010
0000
0100
0010
0001
0000
,
0001
0010
0100
0000
0010
0100
1000
0000
,
1000
0010
0001
0100
,
1000
0001
0100
0020
0000
0000
0130
0000
,
0001
0100
0010
0000
0100
0010
1000
0000
,
1000
0010
0100
0000
0100
0001
0010
0002
,
0000
0000
1000
0000
1000
0003
0100
0000
,
2001
0010
3010
0100
,
1002
0100
0103
0010
,
1000
0100
0001
0100
,
2000
0010
3001
0100
,
1000
0001
0100
0001
1000
0100
1000
0000
,
0001
0010
1000
0000
1000
0010
0001
0000
,
1000
0100
0001
0000
0001
0100
1000
0000
,
0010
0100
0010
0000
1000
0000
0001
0000
,
0200
0310
0000
0000
,
1000
0100
1000
0100
0001
0100
0001
0100
,
1000
0001
1000
0001
0100
0010
0100
0010
,
2000
0000
0000
0000
,
3002
0000
0000
0000
0000
0000
0000
0000
0103
0000
0000
0010
0000
0000
0100
0000
,
0001
0000
1000
0000
0100
0000
0010
0010
,
0000
0000
0000
0000
0101
0000
1000
1000
,
0000
0010
0010
0010
0000
0100
0001
1001
;

//---------------dance-single - ----------------
#NOTES:
     dance-single:
     :
     Easy:
     3:
     0.251,0.286,0.110,0.154,0.000,203.000,15.000,21.000,0.000,0.000:
0000
0000
0000
0000
,
1000
0000
0100
0000
,
0001
0000
0100
0000
,
1000
0000
0010
0000
,
0001
0000
0100
0000
,
0001
0000
0010
0000
,
1000
0000
0010
0000
,
0002
0000
0000
0000
,
0003
0000
0010
1000
,
0020
0000
0000
0030
,
1000
1000
0100
0100
,
0001
0001
0100
0100
,
1000
0001
0100
0010
,
1000
0100
0001
0100
,
0001
0001
0010
0010
,
1000
1000
0100
0100
,
0001
1000
0001
1000
,
0020
0030
0200
0300
,
0001
0001
1000
1000
,
0001
1000
0002
0000
,
0013
0100
0100
0000
,
0100
0010
0010
0000
,
1000
0001
0100
0010
,
1000
0000
0100
0010
,
0001
0100
0100
0000
,
1000
0100
0100
0000
,
0001
1000
0010
0100
,
0001
1000
0010
0100
,
0001
0001
0001
0000
,
1000
1000
1000
0000
,
0010
0100
0001
1000
,
0100
0010
0100
0010
,
0001
0000
0100
0000
,
1000
0000
0100
0000
,
0001
0010
1000
0100
,
0020
0000
0000
0030
,
1000
0000
1100
0000
,
0001
0000
0101
0000
,
1000
0010
0001
0000
,
0001
0100
1000
0000
,
0020
0000
0130
0000
,
2000
0000
3010
0000
,
0002
0000
1003
0000
,
0220
0000
0000
0330
,
1000
0100
0001
0100
,
1000
0010
0100
0010
,
0220
0000
0000
0330
,
2002
0000
0000
3003
,
1000
1100
0001
0101
,
1000
0001
0100
0000
,
0001
0010
1000
0100
,
0010
0100
0010
0000
,
0001
0011
1000
1010
,
0001
1000
0001
0200
,
0000
0010
0310
0000
,
1000
1001
0001
0000
,
0001
0101
0100
0000
,
0010
1000
0001
0100
,
0010
0000
0100
0000
,
0001
0100
1000
0100
,
0001
0001
1000
1000
,
0010
1000
0100
0001
,
0010
1001
0000
0100
,
0010
0100
0000
0000
,
0001
0001
0001
0110
,
1000
1000
1000
0110
,
0002
0003
0020
0030
,
2000
3000
0200
0300
,
1000
0001
0100
0010
,
2000
0000
0000
0000
0000
0000
3000
0001
,
0000
0000
0000
1000
0000
0000
0000
0110
;
