#TITLE:L;
#SUBTITLE:;
#ARTIST:Ice;
#TITLETRANSLIT:;
#SUBTITLETRANSLIT:;
#ARTISTTRANSLIT:;
#CREDIT:;
#BANNER:../Zeppelin_bn.png;
#BACKGROUND:../bg_Zeppelin.png;
#LYRICSPATH:;
#CDTITLE:../cdtitle_ZAiA.png;
#MUSIC:Ice - L.ogg;
#OFFSET:0.000;
#SAMPLESTART:51.080;
#SAMPLELENGTH:24.860;
#SELECTABLE:YES;
#BPMS:0.000=155.000;
#STOPS:;
#BGCHANGES:;
// cache tags:
#FIRSTBEAT:4.000;
#LASTBEAT:328.000;
#SONGFILENAME:Songs/Cirque du Zeppelin/L - [Zaia]/Ice - L.sm;
#HASMUSIC:1;
#HASBANNER:1;
#MUSICLENGTH:134.269;
// end cache tags

//---------------dance-single - 31/46-16----------------
#NOTES:
     dance-single:
     31/46-16:
     Hard:
     13:
     1.000,1.000,0.000,0.022,1.000,1052.000,0.000,3.000,0.000,0.000:
0000
0000
0000
0000
,
0002
0000
0000
0000
0000
0000
0000
0000
0003
0000
0000
0000
0000
0000
1000
0001
,
0010
0100
1000
0010
,
0100
0000
0000
0001
0000
0000
0000
0000
,
0000
0000
0000
0000
,
0020
0000
0000
0000
0000
0000
0000
0000
0030
0000
0000
0000
0000
0000
0100
1000
,
0010
0100
0001
0010
,
0100
0000
0000
1000
1000
0000
0000
0000
,
0000
0000
0000
0000
0000
0010
0100
0001
,
1000
0000
0001
0010
,
0100
0000
0000
0000
0000
0000
1000
0001
0100
0000
0000
0000
0010
0000
0000
0000
,
1000
0100
1000
0010
,
0100
0000
0000
0000
0000
0000
0000
0000
0001
0000
0000
0010
0000
0000
0100
0000
,
1000
0000
0000
0000
0000
0000
0000
0000
0001
0000
0000
1000
0000
0000
0010
0000
,
0100
0000
0000
0000
0000
0000
0000
0000
0001
0000
0000
0010
0000
0000
0001
0000
,
0100
0000
0000
0010
0000
0000
1000
0000
,
0001
0000
0000
0000
0000
0000
0000
0000
1000
0010
0100
0001
0010
0100
1000
0010
,
1000
0100
1000
0001
1000
0010
0100
0001
0010
0100
1000
0010
0100
0001
1000
0001
,
0010
0100
1000
0001
1000
0010
0100
0010
1000
0100
1000
0001
0010
0001
0100
0010
,
1000
0100
1000
0001
0100
0001
1000
0100
0010
0100
1000
0001
0100
0010
1000
0001
,
0010
0001
0010
0100
1000
0100
1000
0001
0100
0010
1000
0100
1000
0001
0010
0100
,
1000
0010
1000
0001
0100
0001
0010
0100
1000
0001
1000
0010
0100
0001
1000
0001
,
0010
0100
1000
0001
0100
0010
1000
0100
1000
0001
0010
0001
0100
0010
1000
0010
,
0100
0001
0010
0100
1000
0001
1000
0010
0100
0001
1000
0100
1000
0001
0100
0001
,
1000
0010
0100
0001
1000
0100
0010
0100
1000
0010
0100
0001
1000
0001
0010
0100
,
1000
0001
0100
0001
0010
0100
1000
0001
0100
0010
1000
0100
1000
0001
0010
0100
,
1000
0001
0100
0010
1000
0001
0010
0001
1000
0010
1000
0100
1000
0001
0010
0001
,
0100
0010
1000
0001
0010
0100
0010
0001
1000
0001
0100
0010
0100
0001
1000
0100
,
1000
0001
0100
0010
1000
0001
0010
0100
1000
0001
1000
0001
0100
0010
0100
0001
,
1000
0100
1000
0001
0100
0010
1000
0100
1000
0001
0010
0001
0100
0001
1000
0100
,
0010
0100
1000
0010
0100
0001
1000
0100
1000
0001
0100
0001
1000
0001
0010
0100
,
1000
0001
1000
0010
0100
0001
1000
0100
1000
0001
0010
0001
1000
0010
0100
0001
,
0010
0100
1000
0100
1000
0001
0100
0010
0100
0001
0100
0001
1000
0100
0010
0001
,
0100
0001
1000
0001
0010
0100
0010
0001
1000
0010
0100
0001
0010
0100
1000
0001
,
0100
0010
1000
0001
1000
0100
1000
0001
0010
0100
1000
0010
0100
0001
1000
0010
,
1000
0100
1000
0001
0010
0100
0010
0001
1000
0001
0010
0100
1000
0010
0100
0001
,
1000
0100
0010
0001
1000
0100
1000
0001
1000
0010
0100
0001
1000
0010
1000
0001
,
0100
0001
0010
0100
0010
0001
1000
0001
0100
0010
1000
0001
0010
0100
1000
0001
,
0100
0010
1000
0100
1000
0001
0010
0001
0100
0010
0100
0001
1000
0001
0010
0100
,
0010
0001
1000
0010
1000
0001
0010
0100
1000
0100
1000
0010
0100
0001
1000
0001
,
0010
0100
0010
0001
1000
0100
0010
0001
0100
0010
1000
0001
1000
0010
0100
0001
,
0010
0100
1000
0001
0100
0010
0100
0001
1000
0100
0010
0001
0100
0010
1000
0001
,
0010
0100
1000
0001
1000
0010
1000
0001
0100
0010
1000
0100
0010
0001
1000
0100
,
1000
0010
1000
0001
0100
0010
0100
0001
1000
0001
0100
0010
1000
0100
0010
0001
,
1000
0010
0100
0001
1000
0010
1000
0001
1000
0100
0010
0001
1000
0100
1000
0001
,
0010
0001
0100
0010
0100
0001
0010
0001
1000
0100
1000
0001
0100
0010
1000
0001
,
0010
0100
1000
0010
1000
0001
0100
0001
0010
0100
0010
0001
0100
0010
1000
0001
,
0100
0001
0010
0100
1000
0001
0100
0010
1000
0010
1000
0100
0010
0001
1000
0001
,
0100
0010
0100
0001
1000
0010
0100
0001
1000
0100
0010
0100
1000
0010
0100
0001
,
1000
0010
1000
0001
1000
0100
0010
0100
1000
0001
0100
0010
1000
0100
0010
0001
,
1000
0010
0100
0001
1000
0001
0010
0001
1000
0100
0010
0001
0100
0010
1000
0001
,
0100
0001
0010
0001
1000
0100
1000
0010
0100
0001
1000
0100
0010
0001
0100
0010
,
1000
0001
0010
0100
1000
0001
0010
0001
1000
0001
0100
0010
1000
0001
0100
0001
,
1000
0010
1000
0100
0010
0100
1000
0001
1000
0010
0100
0001
1000
0100
0010
0001
,
1000
0010
0100
0001
0010
0001
1000
0100
1000
0010
0100
0010
1000
0001
1000
0100
,
1000
0010
0100
0001
0010
0001
1000
0100
0010
0001
0010
0001
0100
0010
1000
0001
,
1000
0100
0010
0100
1000
0001
0010
0100
1000
0010
0100
0001
1000
0001
0010
0001
,
1000
0010
0100
0010
1000
0010
1000
0001
0010
0100
1000
0001
0010
0001
1000
0100
,
0010
0001
0100
0010
1000
0001
0100
0001
0010
0100
0010
0001
1000
0010
0100
0001
,
1000
0100
1000
0001
0010
0100
1000
0010
0100
0001
0100
0001
1000
0100
0010
0001
,
1000
0010
0100
0001
1000
0001
0010
0001
1000
0100
1000
0001
0100
0010
1000
0100
,
0010
0100
1000
0010
0100
0001
1000
0001
0100
0010
0100
0001
0010
0100
1000
0001
,
0100
0001
0010
0001
1000
0001
0100
0010
1000
0100
1000
0010
0100
0001
0010
0001
,
1000
0010
0100
0001
1000
0001
0010
0100
,
1000
0010
1000
0001
0100
0001
0010
0100
0010
0001
0100
0010
1000
0100
0010
0100
,
1000
0001
1000
0000
0001
0100
0001
0000
1000
0100
1000
0000
0001
0100
0010
1000
,
0100
0010
0100
1000
0001
0100
0001
1000
0001
0010
0100
1000
0010
0100
0001
1000
,
0001
0010
0100
1000
0010
1000
0001
1000
0100
0000
0000
0000
0010
0001
0100
0001
,
1000
0010
1000
0100
0010
0100
1000
0001
1000
0010
0100
0001
1000
0100
1000
0001
,
0010
0000
0000
0000
0001
0100
0001
0010
0100
1000
0001
0100
0001
1000
0010
0100
,
0001
1000
0100
1000
0001
0100
0010
0100
0001
1000
0100
0010
0001
0100
0001
1000
,
0001
0010
0100
0010
0001
0100
0010
1000
0100
0000
0000
0000
0010
0001
1000
0001
,
0100
0010
1000
0100
1000
0001
0010
0001
0100
0010
1000
0010
0100
0001
0010
0100
,
1000
0000
0000
0000
0001
0100
0001
1000
0010
0100
0001
0010
0001
1000
0010
1000
,
0100
0000
0010
0100
1000
0001
0100
0001
0100
0010
1000
0001
0010
0100
1000
0010
,
0100
0000
0010
1000
0001
1000
0100
0000
0010
0000
0001
0100
0010
1000
0100
0000
,
0010
0000
0100
1000
0001
0100
0001
1000
0100
1000
0010
0100
0001
0010
0100
1000
,
0001
0000
1000
0010
0100
0001
0010
0001
1000
0100
1000
0001
0100
0010
1000
0100
,
0010
0000
0100
1000
0001
0100
0001
1000
0001
0010
0100
1000
0001
0100
0010
1000
,
0001
1000
0100
1000
0001
0100
0010
1000
0001
0010
0100
1000
0001
0010
0100
1000
,
0001
1000
0010
0100
0001
0100
0010
1000
0100
1000
0001
0010
0001
0100
0001
1000
,
0020
0000
0000
0000
,
0030
0000
0000
0000
;

//---------------dance-single - Hard + 24ths----------------
#NOTES:
     dance-single:
     Hard + 24ths:
     Challenge:
     16:
     1.000,1.000,0.000,0.022,1.000,1176.000,0.000,3.000,0.000,0.000:
0000
0000
0000
0000
,
0002
0000
0000
0000
0000
0000
0000
0000
0003
0000
0000
0000
0000
0000
1000
0001
,
0010
0100
1000
0010
,
0100
0000
0000
0001
0000
0000
0000
0000
,
0000
0000
0000
0000
,
0020
0000
0000
0000
0000
0000
0000
0000
0030
0000
0000
0000
0000
0000
0100
1000
,
0010
0100
0001
0010
,
0100
0000
0000
1000
1000
0000
0000
0000
,
0000
0000
0000
0000
0000
0010
0100
0001
,
1000
0000
0001
0010
,
0100
0000
0000
0000
0000
0000
1000
0001
0100
0000
0000
0000
0010
0000
0000
0000
,
1000
0100
1000
0010
,
0100
0000
0000
0000
0000
0000
0000
0000
0001
0000
0000
0010
0000
0000
0100
0000
,
1000
0000
0000
0000
0000
0000
0000
0000
0001
0000
0000
1000
0000
0000
0010
0000
,
0100
0000
0000
0000
0000
0000
0000
0000
0001
0000
0000
0010
0000
0000
0001
0000
,
0100
0000
0000
0010
0000
0000
1000
0000
,
0001
0000
0000
0000
0000
0000
0000
0000
0000
0000
0000
0000
1000
0001
0010
0100
1000
0001
0100
0010
0100
0001
0010
0001
,
1000
0100
1000
0001
1000
0010
0100
0001
0010
0100
1000
0010
0100
0001
1000
0001
,
0010
0100
1000
0001
1000
0010
0100
0010
1000
0100
1000
0001
0010
0001
0100
0010
,
1000
0100
1000
0001
0100
0001
1000
0100
0010
0100
1000
0001
0100
0010
1000
0001
,
0010
0001
0010
0100
1000
0010
1000
0001
0100
0010
1000
0100
1000
0001
0010
0100
,
1000
0010
1000
0001
0100
0001
0010
0100
1000
0001
1000
0010
0100
0001
1000
0001
,
0010
0100
1000
0001
1000
0001
0100
0010
1000
0001
0100
0001
1000
0100
0010
0100
1000
0001
1000
0010
1000
0001
0100
0001
,
1000
0010
1000
0100
1000
0001
0010
0100
1000
0001
1000
0010
0100
0001
0100
0010
1000
0001
0010
0100
1000
0001
1000
0100
,
0010
0100
1000
0010
0100
0001
0010
0100
1000
0001
1000
0010
0100
0001
1000
0001
0010
0001
1000
0100
1000
0001
0100
0010
,
1000
0000
0000
0001
1000
0010
0100
0001
1000
0100
1000
0001
0100
0001
0010
0001
1000
0100
0010
0100
1000
0001
0100
0010
,
1000
0000
0000
0001
0000
0000
0100
0000
0000
0010
0000
0000
1000
0000
0000
0001
0000
0000
0010
0000
0000
0001
0000
0000
1000
0000
0100
0000
0010
0000
0100
0000
1000
0000
0001
0000
1000
0000
0010
0000
0100
0000
0001
0000
1000
0000
0100
0000
,
1000
0000
0000
0000
0000
0000
0001
0000
1000
0000
0100
0000
1000
0000
0000
0001
0000
0000
0100
0000
0000
0010
0000
0000
0100
0000
0000
0000
0000
0000
0001
0000
1000
0000
0001
0000
0010
0000
0000
0100
0000
0000
0010
0000
0000
0001
0000
0000
,
1000
0000
0001
0000
0010
0000
0100
0000
1000
0000
0100
0000
0010
0000
0001
0000
1000
0000
0001
0000
1000
0000
0010
0000
0100
0000
0001
0000
1000
0000
0100
0000
1000
0000
0001
0000
0100
0000
0000
0010
0000
0000
0100
0000
0000
0001
0000
0000
,
1000
0100
1000
0001
0100
0010
1000
0100
1000
0001
0010
0001
0100
0001
1000
0100
,
0010
0001
1000
0001
1000
0010
0100
0001
0010
0100
1000
0010
0100
0001
1000
0010
1000
0001
0010
0100
0010
0001
1000
0100
,
0010
0001
0100
0010
0100
0001
1000
0010
1000
0001
0010
0100
1000
0001
1000
0001
0100
0010
0100
0001
1000
0100
1000
0001
,
0010
0100
1000
0001
1000
0010
1000
0001
0100
0001
1000
0001
0010
0100
0010
0001
0100
0010
1000
0010
0100
0001
1000
0010
,
0100
0001
1000
0001
0010
0100
0010
0001
1000
0010
0100
0001
0010
0100
1000
0001
,
0100
0010
1000
0001
1000
0100
1000
0001
0010
0100
1000
0010
0100
0001
1000
0010
,
1000
0100
1000
0001
0010
0100
0010
0001
1000
0001
0010
0100
1000
0010
0100
0001
,
1000
0100
0010
0001
1000
0100
1000
0001
1000
0010
0100
0001
1000
0010
1000
0001
,
0100
0001
0010
0100
0010
0001
1000
0001
0100
0010
1000
0001
0010
0100
1000
0001
,
0100
0010
1000
0100
1000
0001
0010
0001
0100
0010
0100
0001
1000
0001
0010
0100
,
0010
0001
1000
0010
1000
0001
0010
0100
1000
0100
1000
0010
0100
0001
1000
0001
,
0010
0100
0010
0001
1000
0100
0010
0001
0100
0010
1000
0001
1000
0010
0100
0001
,
0010
0100
1000
0001
0100
0010
0100
0001
1000
0100
0010
0001
0100
0010
1000
0001
,
0010
0100
1000
0001
1000
0010
1000
0001
0100
0010
1000
0100
0010
0001
1000
0100
,
1000
0010
1000
0001
0100
0010
0100
0001
1000
0001
0100
0010
1000
0100
0010
0001
,
1000
0010
0100
0001
1000
0010
1000
0001
1000
0100
0010
0001
1000
0100
1000
0001
,
0010
0001
0100
0010
0100
0001
0010
0001
1000
0100
1000
0001
0100
0010
1000
0001
,
0010
0100
1000
0010
1000
0001
0100
0001
0010
0100
0010
0001
0100
0010
1000
0001
,
0100
0001
0010
0100
1000
0001
0100
0010
1000
0010
1000
0100
0010
0001
1000
0001
,
0100
0000
0000
0010
0000
0000
0100
0000
0000
0001
0000
0000
1000
0000
0000
0010
0000
0000
0100
0000
0000
0001
0000
0000
1000
0000
0100
0000
0010
0000
0100
0000
1000
0000
0001
0000
0010
0000
0100
0000
1000
0000
0010
0000
0100
0000
0001
0000
,
1000
0010
1000
0001
1000
0100
0010
0100
1000
0001
0100
0010
1000
0100
0010
0001
,
1000
0010
0100
0001
1000
0001
0010
0001
1000
0100
0010
0001
0100
0010
1000
0001
,
0100
0001
0010
0001
1000
0100
1000
0010
0100
0001
1000
0100
0010
0001
0100
0010
,
1000
0001
0010
0100
1000
0001
0010
0001
1000
0001
0100
0010
1000
0001
0100
0001
,
1000
0010
1000
0100
0010
0100
1000
0001
1000
0010
0100
0001
1000
0100
0010
0001
,
1000
0010
0100
0001
0010
0001
1000
0100
1000
0010
0100
0010
1000
0001
1000
0100
,
1000
0010
0100
0001
0010
0001
1000
0100
0010
0001
0010
0001
0100
0010
1000
0001
,
1000
0100
0010
0100
1000
0001
0010
0100
1000
0010
0100
0001
1000
0001
0010
0001
,
1000
0010
0100
0010
1000
0010
1000
0001
0010
0100
1000
0001
0010
0001
1000
0100
,
0010
0001
0100
0010
1000
0001
0100
0001
0010
0100
0010
0001
1000
0010
0100
0001
,
1000
0100
1000
0001
0010
0100
1000
0010
0100
0001
0100
0001
1000
0100
0010
0001
,
1000
0010
0100
0001
1000
0001
0010
0001
1000
0100
1000
0001
0100
0010
1000
0100
,
0010
0100
1000
0010
0100
0001
1000
0001
0100
0010
0100
0001
0010
0100
1000
0001
,
0100
0001
0010
0001
1000
0001
0100
0010
1000
0100
1000
0010
0100
0001
0010
0001
,
1000
0010
0100
0001
1000
0001
0010
0100
,
1000
0000
0000
0010
0000
0000
1000
0000
0000
0001
0000
0000
0100
0000
0000
0001
0000
0000
0010
0000
0000
0100
0000
0000
0010
0000
0001
0000
1000
0000
0001
0000
0100
0000
0010
0000
1000
0000
0100
0000
0010
0000
0001
0000
0100
0000
0010
0000
,
1000
0001
1000
0000
0001
0100
0001
0000
1000
0100
1000
0000
0001
0100
0010
1000
,
0100
0010
0100
1000
0001
0100
0001
1000
0001
0010
0100
1000
0010
0100
0001
0010
,
0001
0000
1000
0000
0100
0000
1000
0000
0001
0000
0100
0000
0010
0000
0000
1000
0000
0000
0001
0000
0000
1000
0000
0000
0100
0000
0000
0000
0000
0000
0000
0000
0000
0000
0000
0000
0010
0000
0100
0000
1000
0000
0001
0000
1000
0000
0001
0000
,
0100
0010
0100
0001
1000
0010
1000
0001
0010
0100
1000
0001
1000
0010
0100
0001
0010
0100
1000
0001
0100
0001
1000
0100
,
0010
0000
0000
0000
0000
0000
0000
0000
0000
0000
0000
0000
0001
0000
0010
0000
0001
0000
1000
0000
0000
0010
0000
0000
0100
0000
0000
0001
0000
0000
1000
0000
0000
0100
0000
0000
1000
0000
0000
0001
0000
0000
0010
0000
0000
0100
0000
0000
,
1000
0000
0001
0000
0100
0000
0010
0000
0000
1000
0000
0000
0001
0000
0010
0000
0100
0000
1000
0000
0000
0010
0000
0000
0100
0000
0000
0001
0000
0000
0010
0000
0000
0100
0000
0000
1000
0000
0000
0010
0000
0000
1000
0000
0000
0001
0000
0000
,
1000
0100
0010
0100
1000
0010
0100
0001
0010
0000
0000
0000
0100
1000
0001
1000
,
0010
0100
0001
0010
0001
1000
0100
1000
0010
0100
0001
0100
0010
1000
0100
0010
,
0001
0000
0000
0000
0000
0000
0000
0000
0000
0000
0000
0000
1000
0000
0100
0000
0010
0000
0001
0000
0000
1000
0000
0000
0010
0000
0000
0100
0000
0000
0001
0000
0000
0010
0000
0000
0001
0000
0000
1000
0000
0000
0010
0000
0000
1000
0000
0000
,
0100
0000
0000
0000
0000
0000
0010
0000
0100
0000
1000
0000
0001
0000
1000
0000
0010
0000
0100
0000
0000
0001
0000
0000
0100
0000
0000
0010
0000
0000
1000
0000
0000
0001
0000
0000
0010
0000
0000
0100
0000
0000
1000
0000
0000
0010
0000
0000
,
0100
0000
0000
0000
0000
0000
0010
0000
0100
0000
0001
0000
1000
0000
0000
0100
0000
0000
0010
0000
0000
0000
0000
0000
0100
0000
0000
0000
0000
0000
1000
0000
0001
0000
0100
0000
0010
0000
0000
1000
0000
0000
0001
0000
0000
0000
0000
0000
,
0010
0000
0000
0100
1000
0001
0100
0001
1000
0100
0010
0001
1000
0010
1000
0100
0010
0100
1000
0001
0100
0010
0100
0001
,
1000
0000
0000
0001
0010
0001
1000
0001
0100
0010
1000
0001
0010
0100
1000
0010
1000
0001
0100
0010
1000
0001
1000
0100
,
0010
0000
0000
0100
1000
0001
0100
0001
0010
0001
1000
0100
1000
0001
0100
0010
1000
0001
0010
0100
1000
0001
0100
0001
,
1000
0010
0100
0001
1000
0010
0100
0001
1000
0100
0010
0001
1000
0100
0010
0001
,
1000
0000
0000
0001
0000
0000
0100
0000
0010
0000
0100
0000
0001
0000
1000
0000
0010
0000
1000
0000
0100
0000
0010
0000
0001
0000
1000
0000
0010
0000
1000
0000
0001
0000
0010
0000
0001
0000
1000
0000
0010
0000
0100
0000
0001
0000
0010
0000
,
0200
0000
0000
0000
,
0300
0000
0000
0000
;

//---------------dance-single - 1/1/1/1/3/1----------------
#NOTES:
     dance-single:
     1/1/1/1/3/1:
     Medium:
     11:
     0.679,0.947,0.000,0.030,0.305,634.000,0.000,4.000,0.000,0.000:
0000
0000
0000
0000
,
0002
0000
0000
0000
0000
0000
0000
0000
0003
0000
0000
0000
0000
0000
1000
0001
,
0010
0100
1000
0010
,
0100
0000
0000
0001
0000
0000
0000
0000
,
0000
0000
0000
0000
,
0020
0000
0000
0000
0000
0000
0000
0000
0030
0000
0000
0000
0000
0000
0100
1000
,
0010
0100
0001
0010
,
0100
0000
0000
1000
1000
0000
0000
0000
,
0000
0000
0000
0000
0000
0010
0100
0001
,
1000
0000
0001
0010
,
0100
0000
0000
0000
0000
0000
1000
0001
0100
0000
0000
0000
0010
0000
0000
0000
,
1000
0100
1000
0010
,
0100
0000
0000
0000
0000
0000
0000
0000
0001
0000
0000
0010
0000
0000
0100
0000
,
1000
0000
0000
0000
0000
0000
0000
0000
0001
0000
0000
1000
0000
0000
0010
0000
,
0100
0000
0000
0000
0000
0000
0000
0000
0001
0000
0000
0010
0000
0000
0001
0000
,
0100
0000
0000
0010
0000
0000
1000
0000
,
0001
0000
0000
0000
0000
0000
0000
0000
1000
0010
0100
0001
0010
0100
1000
0010
,
1000
0001
0010
0100
1000
0001
0100
0010
,
0100
0001
0010
0100
1000
0001
0100
0010
,
0100
0001
1000
0100
1000
0001
0100
0001
,
0010
0100
1000
0001
1000
0010
0100
0001
,
0010
0100
1000
0001
0100
0001
1000
0100
,
0010
0001
0100
0010
0100
0001
0010
0100
,
1000
0010
0100
0001
1000
0100
1000
0001
,
0100
0010
0100
0001
1000
0100
0010
0100
,
1000
0001
0100
0010
1000
0001
0010
0100
,
0010
0001
0100
0010
1000
0001
0010
0100
,
0010
0001
1000
0010
1000
0001
0010
0001
,
0100
0010
1000
0001
1000
0100
0010
0001
,
0100
0010
1000
0001
0010
0001
1000
0010
,
0100
0001
0010
0100
0010
0001
0100
0010
,
1000
0100
0010
0001
1000
0010
1000
0001
,
0010
0100
1000
0100
1000
0001
0100
0010
0100
0001
0100
0001
1000
0100
0010
0001
,
0100
0010
1000
0001
1000
0100
0010
0100
,
1000
0001
0100
0010
0100
0001
0010
0100
,
1000
0001
0100
0010
1000
0001
0010
0001
,
0100
0010
0100
0001
1000
0100
1000
0010
,
0100
0001
0010
0100
1000
0001
0100
0001
,
1000
0001
1000
0001
0010
0100
1000
0001
,
1000
0010
0100
0001
0010
0001
1000
0100
,
1000
0010
0100
0001
1000
0001
0010
0100
,
0010
0001
1000
0001
0010
0100
0010
0001
,
1000
0010
0100
0010
1000
0100
0010
0001
,
1000
0010
0100
0001
1000
0100
1000
0010
,
0100
0010
1000
0001
0010
0001
0100
0010
,
1000
0100
0010
0001
1000
0010
1000
0001
,
1000
0001
1000
0100
0010
0001
1000
0001
,
0100
0010
1000
0100
1000
0001
0010
0001
,
0100
0010
0100
0001
1000
0010
0100
0001
1000
0100
0010
0100
1000
0010
0100
0001
,
1000
0100
1000
0001
1000
0010
0100
0010
,
1000
0001
0010
0100
0010
0001
0100
0010
,
1000
0001
0010
0100
1000
0001
0100
0001
,
0010
0100
0010
0001
1000
0010
1000
0100
,
0010
0001
0100
0010
1000
0001
0010
0001
,
1000
0001
1000
0010
0100
0010
1000
0001
,
1000
0100
0010
0001
0100
0001
1000
0010
,
1000
0100
0010
0001
1000
0001
0100
0010
,
0100
0001
1000
0001
0100
0010
0100
0001
,
1000
0100
0010
0100
1000
0010
0100
0001
,
1000
0100
0010
0001
1000
0010
1000
0100
,
0010
0100
1000
0001
0100
0001
0010
0100
,
1000
0010
0100
0001
1000
0100
1000
0001
,
0010
0001
1000
0010
0100
0001
1000
0001
,
0010
0100
1000
0010
1000
0001
0100
0001
,
0010
0100
1000
0001
0010
0001
0100
0010
0100
0001
0010
0100
1000
0010
0100
0010
,
2000
0000
0000
0000
0000
0000
3001
0100
,
0010
1000
0100
1000
0010
0100
0001
0010
,
0001
0010
0100
1000
0010
0000
0100
0000
0010
0000
0000
0000
1000
0001
0100
0001
,
1000
0010
1000
0100
0010
0100
1000
0001
1000
0010
0100
0001
1000
0100
1000
0001
,
0010
0000
0000
0000
0001
0100
0001
0000
0010
0000
0001
0000
0100
0000
0010
0000
,
1000
0001
0100
0000
0001
0010
0100
0000
1000
0000
0010
0000
0100
0000
0001
0000
,
0010
0100
0010
0001
1000
0000
0100
1000
,
0010
1000
0100
0010
0001
1000
0010
0100
,
0001
0000
0000
0000
1000
0010
1000
0000
0100
0000
0010
0000
0001
0000
0010
0000
,
0100
0000
0010
0100
1000
0001
0100
0000
0001
0000
1000
0000
0100
0000
0010
0000
,
0100
0000
0010
0001
1000
0000
0001
0000
0100
0000
0001
0010
0100
0000
0010
0000
,
0001
0000
0100
0001
1000
0010
1000
0001
0010
0001
0100
0010
1000
0100
0010
0001
,
1000
0000
0001
0100
0010
1000
0100
1000
0001
0010
0001
1000
0010
0100
0001
0010
,
0100
0000
0010
0001
1000
0010
1000
0001
1000
0100
0010
0001
1000
0010
0100
0001
,
1000
0001
1000
0010
0100
0001
1000
0001
,
1000
0000
0010
0100
0001
0100
0010
1000
0100
1000
0001
0010
0001
0100
0001
1000
,
0020
0000
0000
0000
,
0030
0000
0000
0000
;
