#TITLE:Royally Screwed;
#SUBTITLE:;
#ARTIST:Kita Khyber;
#TITLETRANSLIT:;
#SUBTITLETRANSLIT:;
#ARTISTTRANSLIT:;
#CREDIT:;
#BANNER:../banner.png;
#BACKGROUND:../bg.png;
#LYRICSPATH:;
#CDTITLE:;
#MUSIC:Royally Screwed.ogg;
#OFFSET:-0.017;
#SAMPLESTART:19.800;
#SAMPLELENGTH:20.000;
#SELECTABLE:YES;
#BPMS:0.000=194.000;
#STOPS:;
#BGCHANGES:;
// cache tags:
#FIRSTBEAT:32.000;
#LASTBEAT:362.000;
#SONGFILENAME:Songs/Cirque du Lykan/Royally Screwed - [Zaia]/Royally Screwed.sm;
#HASMUSIC:1;
#HASBANNER:1;
#MUSICLENGTH:115.095;
// end cache tags

//---------------dance-single - Zaia - 14(mid)----------------
#NOTES:
     dance-single:
     Zaia - 14(mid):
     Challenge:
     14:
     1.000,1.000,0.009,0.070,1.000,864.000,1.000,8.000,0.000,0.000:
0000
0000
0000
0000
,
0000
0000
0000
0000
,
0000
0000
0000
0000
,
0000
0000
0000
0000
,
0000
0000
0000
0000
,
0000
0000
0000
0000
,
0000
0000
0000
0000
,
0000
0000
0000
0000
,
2000
0000
3020
0000
,
0130
0001
0010
0001
0100
0000
0010
1000
,
0100
1000
0010
0000
0100
0001
0010
0100
,
2000
0000
0000
0000
0000
3001
0100
0000
,
0010
1000
0001
1000
0010
0000
0100
0001
,
1000
0001
0010
0000
0200
0000
0320
0000
,
0032
0000
0000
0000
,
2003
0000
3000
0000
,
0001
0100
0001
0010
0001
1000
0100
0010
,
0100
1000
0001
1000
0010
0100
0001
0100
,
0010
1000
0100
1000
0010
0100
0001
1000
,
0001
0010
0100
0010
0001
1000
0010
0100
,
0001
0010
0001
1000
0001
0100
0001
0010
,
0100
1000
0001
0100
0001
1000
0100
0010
,
0100
1000
0001
1000
0010
1000
0100
1000
,
0001
0100
0010
0100
0001
0010
0100
1000
,
0001
0010
0001
0100
0001
1000
0010
0100
,
0010
1000
0001
1000
0100
0010
0001
0010
,
0100
1000
0010
1000
0100
0010
0001
1000
,
0001
0100
0010
0100
0001
1000
0100
0010
,
0001
0100
0001
1000
0001
0010
0001
0100
,
0010
1000
0001
0010
0001
1000
0010
0100
,
0010
1000
0001
1000
0100
1000
0010
1000
,
0001
0000
0010
0000
0100
0000
1000
0001
0100
0001
1000
0000
0100
0010
0100
0010
,
0001
1000
0001
0100
0001
1000
0100
1000
0001
0100
0010
0100
0001
0010
0100
1000
,
0001
1000
0010
1000
0001
0010
0001
1000
0010
0100
0010
1000
0100
0010
0001
1000
,
0010
0100
0001
1000
0001
0010
0100
0010
0001
1000
0001
0100
0010
0100
0001
1000
,
0100
1000
0010
0100
0001
0100
0001
0010
0100
1000
0001
1000
0010
1000
0100
0010
,
0001
1000
0001
0100
0001
1000
0010
1000
0001
0010
0100
0010
0001
0100
0010
1000
,
0001
1000
0100
1000
0001
0100
0001
1000
0100
0010
0100
1000
0010
0100
0001
1000
,
0100
0010
0001
1000
0001
0100
0010
0100
0001
1000
0001
0010
0100
0010
0001
1000
,
0010
1000
0100
0010
0001
0010
0001
0100
0010
1000
0001
1000
0100
1000
0010
0100
,
0001
0010
0001
0100
0010
1000
0001
0010
0001
0100
0010
1000
0001
0010
0001
1000
,
0010
1000
0100
0010
0001
1000
0010
1000
0100
0010
0001
1000
0010
1000
0100
0010
,
0001
1000
0010
0100
0001
0010
0001
1000
0010
0100
0001
0010
0001
1000
0010
0100
,
0001
0010
0100
1000
0001
0100
0001
1000
0100
0010
0001
1000
0010
1000
0001
0010
,
0001
0100
0001
0010
0100
1000
0001
0100
0001
0010
0100
1000
0001
0100
0001
1000
,
0100
1000
0010
0100
0001
1000
0100
1000
0010
0100
0001
1000
0100
1000
0010
0100
,
0001
1000
0100
0010
0001
0100
0001
1000
0100
0010
0001
0100
0001
1000
0100
0010
,
0001
0100
0010
1000
0001
0010
0001
1000
0010
0100
0001
1000
0100
1000
0001
0100
,
0010
0000
1000
0010
0000
1000
0001
0000
,
0010
0001
0000
1000
0100
0000
1001
0000
,
1000
0100
0010
0001
1000
0010
1000
0100
0010
0001
1000
0010
1000
0100
0010
0001
,
1000
0010
0100
0001
0100
0010
0100
0001
1000
0100
0010
0100
1000
0001
0100
0010
,
1000
0001
0010
0001
0100
0010
1000
0001
0010
0001
0100
0010
1000
0001
0010
0001
,
1000
0010
0100
0001
1000
0100
0010
0001
1000
0010
0100
0001
1000
0001
0010
0001
,
1000
0100
1000
0010
0100
0001
1000
0100
1000
0010
0100
0001
1000
0100
1000
0010
,
0100
0001
0010
0100
0010
0001
0010
0100
1000
0001
0100
0010
0100
0001
1000
0100
,
1000
0001
0100
0001
0010
0100
1000
0001
0100
0001
0010
0100
1000
0001
0100
0001
,
0010
0100
1000
0001
0100
0010
1000
0010
0100
0001
1000
0100
0010
0100
1000
0001
,
1000
0010
0100
0001
1000
0100
1000
0010
0100
0001
1000
0100
1000
0010
0100
0001
,
1000
0100
0010
0001
0010
0100
0010
0001
1000
0010
0100
0010
1000
0001
0010
0100
,
1000
0001
0100
0001
0010
0100
1000
0001
0100
0001
0010
0100
1000
0001
0100
0001
,
1000
0100
0010
0001
1000
0010
0100
0001
1000
0100
0010
0001
1000
0001
0100
0001
,
1000
0010
1000
0100
0010
0001
1000
0010
1000
0100
0010
0001
1000
0010
1000
0100
,
0010
0001
0100
0010
0100
0001
0100
0010
1000
0001
0010
0100
0010
0001
1000
0010
,
1000
0001
0010
0001
0100
0010
1000
0001
0010
0001
0100
0010
1000
0001
0010
0001
,
0100
0010
1000
0001
0010
0100
1000
0100
0010
0001
1000
0010
0100
0010
1000
0001
,
0010
0000
0000
0100
0000
1000
0100
0000
0000
1000
0000
0001
,
0100
0000
0000
0010
0000
1000
0010
0000
0000
0100
0000
0000
,
0001
0000
0000
1000
0000
0100
1000
0000
0000
0010
0000
0100
,
0001
0000
0000
1000
0000
0100
0010
0000
0000
0001
0000
0000
,
0100
0000
0000
0010
0000
1000
0001
0000
0000
0010
0000
0100
,
1000
0000
0000
0010
0000
0100
0001
0000
0000
0010
0000
0000
,
0001
0000
0000
1000
0000
0010
0100
0000
0000
0001
0000
1000
,
0100
0000
0000
0010
0000
0100
0010
0000
0000
0000
0000
0000
,
0001
0100
0001
0010
0001
1000
0100
0010
,
0100
1000
0001
1000
0010
0100
0001
0100
,
0010
1000
0100
1000
0010
0100
0001
1000
,
0001
0010
0100
0010
0001
1000
0010
0100
,
0001
0010
0001
1000
0001
0100
0001
0010
,
0100
1000
0001
0100
0001
1000
0100
0010
,
0100
1000
0001
1000
0010
1000
0100
1000
,
0001
0100
0010
0100
0001
0010
0100
1000
,
0001
0010
0001
0100
0001
1000
0010
0100
,
0010
1000
0001
1000
0100
0010
0001
0010
,
0100
1000
0010
1000
0100
0010
0001
1000
,
0001
0100
0010
0100
0001
1000
0100
0010
,
0001
0100
0001
1000
0001
0010
0001
0100
,
0010
1000
0001
0010
0001
1000
0010
0100
,
0010
1000
0001
1000
0100
1000
0010
1000
,
0001
0000
0010
0000
0100
0000
0010
0001
1000
0001
0010
0000
0100
0000
1000
0000
,
0001
0001
0100
0020
0030
0000
0000
0000
;

//---------------dance-single - Zaia - 12(high)----------------
#NOTES:
     dance-single:
     Zaia - 12(high):
     Hard:
     12:
     0.925,1.000,0.009,0.070,0.634,736.000,1.000,8.000,0.000,0.000:
0000
0000
0000
0000
,
0000
0000
0000
0000
,
0000
0000
0000
0000
,
0000
0000
0000
0000
,
0000
0000
0000
0000
,
0000
0000
0000
0000
,
0000
0000
0000
0000
,
0000
0000
0000
0000
,
2000
0000
3020
0000
,
0130
0001
0010
0001
0100
0000
0010
1000
,
0100
1000
0010
0000
0100
0001
0010
0100
,
2000
0000
0000
0000
0000
3001
0100
0000
,
0010
1000
0001
1000
0010
0000
0100
0001
,
1000
0001
0010
0000
0200
0000
0320
0000
,
0032
0000
0000
0000
,
2003
0000
3000
0000
,
0001
0100
0001
0010
0001
1000
0100
0010
,
0100
1000
0001
1000
0010
0100
0001
0100
,
0010
1000
0100
1000
0010
0100
0001
1000
,
0001
0010
0100
0010
0001
1000
0010
0100
,
0001
0010
0001
1000
0001
0100
0001
0010
,
0100
1000
0001
0100
0001
1000
0100
0010
,
0100
1000
0001
1000
0010
1000
0100
1000
,
0001
0100
0010
0100
0001
0010
0100
1000
,
0001
0010
0001
0100
0001
1000
0010
0100
,
0010
1000
0001
1000
0100
0010
0001
0010
,
0100
1000
0010
1000
0100
0010
0001
1000
,
0001
0100
0010
0100
0001
1000
0100
0010
,
0001
0100
0001
1000
0001
0010
0001
0100
,
0010
1000
0001
0010
0001
1000
0010
0100
,
0010
1000
0001
1000
0100
1000
0010
1000
,
0001
0000
0010
0000
0100
0000
1000
0001
0100
0001
1000
0000
0100
1000
0100
1000
,
0001
0100
0010
1000
0001
0010
0001
1000
0010
0100
0001
0100
0010
1000
0001
0010
,
0001
1000
0100
0010
0001
1000
0010
1000
0001
0010
0100
1000
0100
0010
0001
1000
,
0001
0100
0001
1000
0100
0010
0001
1000
0001
0100
0010
1000
0010
0100
0001
1000
,
0001
0010
0001
1000
0010
0100
0001
1000
0001
0010
0100
1000
0100
0010
0001
1000
,
0010
0100
0001
1000
0100
1000
0001
0100
0010
1000
0010
0100
0001
1000
0100
1000
,
0001
0010
0100
1000
0001
0100
0001
1000
0100
0010
0001
0010
0100
1000
0001
1000
,
0010
1000
0001
0010
0100
1000
0001
1000
0010
0100
0001
0100
0010
1000
0001
1000
,
0100
1000
0001
0100
0010
1000
0001
1000
0100
0010
0001
0010
0100
1000
0001
1000
,
0001
0100
0010
1000
0100
0010
0001
0100
,
0001
0010
0100
1000
0010
0100
0001
0010
,
0001
1000
0010
1000
0001
0010
0001
0100
,
0010
1000
0100
0010
0100
1000
0010
0100
,
0001
0010
0100
1000
0010
0100
0001
0010
,
0001
0100
0010
1000
0100
0010
0001
0100
,
0001
1000
0100
1000
0001
0100
0001
0010
,
0100
1000
0010
0100
0010
1000
0100
0010
,
0001
0000
1000
0010
0000
1000
0001
0000
,
0010
0001
0000
1000
0100
0000
1001
0000
,
1000
0100
0100
1000
0001
0001
0100
0010
,
1000
0010
0100
0001
1000
0100
0010
0001
1000
0010
1000
0001
1000
0001
0010
0100
,
1000
0001
0001
0100
0010
0010
1000
0001
,
0010
0100
1000
0001
0100
0010
1000
0001
1000
0100
1000
0001
1000
0001
0100
0010
,
1000
0001
0001
1000
0010
0010
0100
0010
,
1000
0100
0010
0001
1000
0010
0100
0001
1000
0100
1000
0001
1000
0001
0100
0010
,
1000
0001
0001
0010
0100
0100
1000
0001
,
0100
0010
1000
0001
0010
0100
1000
0001
1000
0010
1000
0001
1000
0001
0010
0100
,
1000
0001
0100
0001
1000
0100
1000
0010
,
0100
0001
1000
0001
0010
0001
1000
0001
0100
0010
1000
0001
0010
0100
1000
0001
,
0100
0010
1000
0001
0010
0001
1000
0010
,
1000
0001
1000
0100
1000
0001
1000
0010
1000
0001
0010
0100
1000
0001
0100
0010
,
1000
0001
0010
0001
1000
0010
1000
0100
,
0010
0001
1000
0001
0100
0001
1000
0001
0010
0100
1000
0001
0100
0010
1000
0001
,
0010
0100
1000
0001
0100
0001
1000
0100
,
1000
0001
1000
0010
1000
0001
1000
0100
1000
0001
0100
0010
1000
0001
0010
0100
,
1000
0000
0000
0100
0000
1000
0100
0000
0000
1000
0000
0001
,
0100
0000
0000
0010
0000
1000
0010
0000
0000
0100
0000
0000
,
0001
0000
0000
1000
0000
0100
1000
0000
0000
0010
0000
0100
,
0001
0000
0000
1000
0000
0100
0010
0000
0000
0001
0000
0000
,
0100
0000
0000
0010
0000
1000
0001
0000
0000
0010
0000
0100
,
1000
0000
0000
0010
0000
0100
0001
0000
0000
0010
0000
0000
,
0001
0000
0000
1000
0000
0010
0100
0000
0000
0001
0000
1000
,
0100
0000
0000
0010
0000
0100
0010
0000
0000
0000
0000
0000
,
0001
0100
0001
0010
0001
1000
0100
0010
,
0100
1000
0001
1000
0010
0100
0001
0100
,
0010
1000
0100
1000
0010
0100
0001
1000
,
0001
0010
0100
0010
0001
1000
0010
0100
,
0001
0010
0001
1000
0001
0100
0001
0010
,
0100
1000
0001
0100
0001
1000
0100
0010
,
0100
1000
0001
1000
0010
1000
0100
1000
,
0001
0100
0010
0100
0001
0010
0100
1000
,
0001
0010
0001
0100
0001
1000
0010
0100
,
0010
1000
0001
1000
0100
0010
0001
0010
,
0100
1000
0010
1000
0100
0010
0001
1000
,
0001
0100
0010
0100
0001
1000
0100
0010
,
0001
0100
0001
1000
0001
0010
0001
0100
,
0010
1000
0001
0010
0001
1000
0010
0100
,
0010
1000
0001
1000
0100
1000
0010
1000
,
0001
0000
0010
0000
0100
0000
0010
0001
1000
0001
0010
0000
0100
0000
1000
0000
,
0001
0001
0100
0020
0030
0000
0000
0000
;

//---------------dance-single - Zaia - 10(mid) FS----------------
#NOTES:
     dance-single:
     Zaia - 10(mid) FS:
     Medium:
     10:
     0.766,0.826,0.009,0.070,0.087,608.000,1.000,8.000,4.000,0.000:
0000
0000
0000
0000
,
0000
0000
0000
0000
,
0000
0000
0000
0000
,
0000
0000
0000
0000
,
0000
0000
0000
0000
,
0000
0000
0000
0000
,
0000
0000
0000
0000
,
0000
0000
0000
0000
,
2000
0000
3020
0000
,
0130
0001
0010
0001
0100
0000
0010
1000
,
0100
1000
0010
0000
0100
0001
0010
0100
,
2000
0000
0000
0000
0000
3001
0100
0000
,
0010
1000
0001
1000
0010
0000
0100
0001
,
1000
0001
0010
0000
0200
0000
0320
0000
,
0032
0000
0000
0000
,
2003
0000
3000
0000
,
0001
0100
0001
0010
0001
1000
0100
0010
,
0100
1000
0001
1000
0010
0100
0001
0100
,
0010
1000
0100
1000
0010
0100
0001
1000
,
0001
0010
0100
0010
0001
1000
0010
0100
,
0001
0010
0001
1000
0001
0100
0001
0010
,
0100
1000
0001
0100
0001
1000
0100
0010
,
0100
1000
0001
1000
0010
1000
0100
1000
,
0001
0100
0010
0100
0001
0010
0100
1000
,
0001
0010
0001
0100
0001
1000
0010
0100
,
0010
1000
0001
1000
0100
0010
0001
0010
,
0100
1000
0010
1000
0100
0010
0001
1000
,
0001
0100
0010
0100
0001
1000
0100
0010
,
0001
0100
0001
1000
0001
0010
0001
0100
,
0010
1000
0001
0010
0001
1000
0010
0100
,
0010
1000
0001
1000
0100
1000
0010
1000
,
0001
0000
0010
0000
0100
0000
1000
0001
0100
0001
1000
0000
0100
1000
0100
1000
,
0001
0000
0100
M00M
0100
0000
1000
0000
0100
0000
0100
0000
0001
0000
1000
0000
,
0001
0010
0010
1000
0010
0010
0001
0100
,
0001
0010
0010
0100
0010
0010
0001
1000
,
0001
0100
0100
1000
0010
0010
0001
1000
,
0001
0100
0100
0010
0100
0100
0001
1000
,
0001
0010
0010
1000
0010
0010
0001
0100
,
0001
0010
0010
0100
0010
0010
0001
1000
,
0001
0100
0100
1000
0010
0010
0001
1000
,
0001
0100
0010
1000
0100
0010
0001
0100
,
0001
0010
0100
1000
0010
0100
0001
0010
,
0001
1000
0010
1000
0001
0010
0001
0100
,
0010
1000
0100
0010
0100
1000
0010
0100
,
0001
0010
0100
1000
0010
0100
0001
0010
,
0001
0100
0010
1000
0100
0010
0001
0100
,
0001
1000
0100
1000
0001
0100
0001
0010
,
0100
1000
0010
0100
0010
1000
0100
0010
,
0001
0000
1000
0010
0000
1000
0001
0000
,
0010
0001
0000
1000
0100
0000
1001
0000
,
1000
0000
0100
M00M
0100
0000
0001
0000
0100
0000
0100
0000
1000
0000
0010
0000
,
0100
0001
1000
0001
0010
0001
0100
0001
,
1000
0010
0010
0001
0010
0010
1000
0100
,
1000
0001
0100
0010
0100
0001
0010
0100
,
1000
0100
0100
0001
0010
0010
1000
0001
,
0100
0010
0100
0001
0010
0100
0010
0001
,
1000
0010
0010
0001
0100
0100
1000
0001
,
0010
0001
1000
0010
0100
0010
1000
0001
,
1000
0100
0100
0010
0100
0100
1000
0001
,
0100
0010
0100
0001
1000
0100
1000
0001
,
1000
0010
0010
0100
0010
0010
1000
0001
,
0010
0100
0010
0001
0100
0010
1000
0001
,
1000
0100
0100
0001
0010
0010
1000
0001
,
0100
0001
1000
0001
0010
0001
0100
0001
,
1000
0010
0010
0001
0100
0100
1000
0001
,
0010
0100
0010
0001
1000
0010
0100
0010
,
1000
0000
0000
0100
0000
1000
0100
0000
0000
1000
0000
0001
,
0100
0000
0000
0010
0000
1000
0010
0000
0000
0100
0000
0000
,
0001
0000
0000
1000
0000
0100
1000
0000
0000
0010
0000
0100
,
0001
0000
0000
1000
0000
0100
0010
0000
0000
0001
0000
0000
,
0100
0000
0000
0010
0000
1000
0001
0000
0000
0010
0000
0100
,
1000
0000
0000
0010
0000
0100
0001
0000
0000
0010
0000
0000
,
0001
0000
0000
1000
0000
0010
0100
0000
0000
0001
0000
1000
,
0100
0000
0000
0010
0000
0100
0010
0000
0000
0000
0000
0000
,
0001
0100
0001
0010
0001
1000
0100
0010
,
0100
1000
0001
1000
0010
0100
0001
0100
,
0010
1000
0100
1000
0010
0100
0001
1000
,
0001
0010
0100
0010
0001
1000
0010
0100
,
0001
0010
0001
1000
0001
0100
0001
0010
,
0100
1000
0001
0100
0001
1000
0100
0010
,
0100
1000
0001
1000
0010
1000
0100
1000
,
0001
0100
0010
0100
0001
0010
0100
1000
,
0001
0010
0001
0100
0001
1000
0010
0100
,
0010
1000
0001
1000
0100
0010
0001
0010
,
0100
1000
0010
1000
0100
0010
0001
1000
,
0001
0100
0010
0100
0001
1000
0100
0010
,
0001
0100
0001
1000
0001
0010
0001
0100
,
0010
1000
0001
0010
0001
1000
0010
0100
,
0010
1000
0001
1000
0100
1000
0010
1000
,
0001
0000
0010
0000
0100
0000
0010
0001
1000
0001
0010
0000
0100
0000
1000
0000
,
0001
0001
0100
0020
0030
0000
0000
0000
;
