#TITLE:CHILDREN OF THE NIGHT;
#SUBTITLE:;
#ARTIST:NAKATOMI;
#TITLETRANSLIT:;
#SUBTITLETRANSLIT:;
#ARTISTTRANSLIT:;
#CREDIT:Kevin_18;
#BANNER:bn.jpg;
#BACKGROUND:bg.jpg;
#LYRICSPATH:;
#CDTITLE:Kevin_18.png;
#MUSIC:Children of the Night.mp3;
#OFFSET:-0.097;
#SAMPLESTART:45.006;
#SAMPLELENGTH:12.000;
#SELECTABLE:YES;
#DISPLAYBPM:180.000;
#BPMS:0.000=183.498,68.000=182.898,102.000=181.798,134.000=182.798,191.500=181.798,254.000=182.398,262.000=183.018,279.000=182.598,341.000=181.938;
#STOPS:64.000=0.340
,65.000=0.340
,278.500=0.340
;
#BGCHANGES:;
// cache tags:
#FIRSTBEAT:0.000;
#LASTBEAT:409.063;
#SONGFILENAME:Songs/keyboard/(Kevin_18)Children of the Night/Children of the Night.sm;
#HASMUSIC:1;
#HASBANNER:1;
#MUSICLENGTH:136.210;
// end cache tags

//---------------dance-single - HEAVY----------------
#NOTES:
     dance-single:
     HEAVY:
     Hard:
     12:
     1.000,1.000,1.000,0.683,0.811,903.000,143.000,93.000,0.000,2.000:
1000
0100
0010
0001
,
0010
0001
0000
0100
0000
0100
1000
0010
,
0100
0000
0001
0000
0100
0000
0010
1000
,
1000
0010
0000
0001
0000
0010
0100
1000
,
0100
0010
0001
0010
,
0100
0100
0000
0100
0000
0010
0001
0100
,
0010
0000
0001
0000
0010
0100
0010
0100
,
0010
0000
0100
0000
0001
0010
1000
0100
,
1001
0000
0000
0000
0001
0100
1000
0022
,
0030
0000
0200
0000
0300
0000
0020
0000
0000
0030
0200
0000
0000
0300
0020
0000
,
0000
0000
0033
0100
1000
0100
0010
0200
,
0000
0000
0000
0000
0000
0000
0002
0000
0000
0000
0000
0000
0000
0000
0000
0003
0000
0000
0020
0000
0000
0000
0000
0000
0000
0000
0000
0000
0030
0000
2000
0000
0000
0000
0000
0000
0000
0000
0000
3000
0000
0000
0020
0000
0000
0000
0000
0000
,
0000
0030
0002
0000
0000
0000
0000
0000
0303
0000
0010
0000
0100
0000
0001
0000
,
0100
0000
0020
0000
0000
0000
0200
0000
0000
0300
0002
0000
0000
0003
2000
0000
,
0000
0000
0000
3030
0100
0010
0001
0010
,
0100
0000
0010
0000
0100
0000
0001
0000
0010
0100
0010
0100
0010
0100
0010
0100
,
2020
3030
0000
0000
0202
0303
0000
0000
0220
0330
0000
0000
2002
3003
0000
0000
,
2020
3030
0100
1000
0010
0000
1000
0000
0010
1000
0001
0000
0001
0100
0010
0000
,
1000
0010
0001
0000
0010
0100
1000
0000
0100
0000
1000
0100
0010
0000
0200
0000
,
0000
0000
1300
0001
1000
0000
0001
0000
1000
0010
1000
0000
0100
0010
0001
0000
,
1000
0010
1000
0000
0100
1000
0001
0010
0100
0000
2000
0000
0000
3000
0002
0000
,
0000
0000
0013
1000
0100
0000
0001
0000
0010
0001
1000
0000
0100
1000
0001
0000
,
1000
0001
1000
0000
1000
0100
0001
0000
0100
0000
0100
1000
0100
0000
0200
0000
,
0000
0000
0301
0010
1000
0000
1000
0000
1000
0100
0001
0000
0001
0100
0010
0000
,
0010
1000
0100
0000
1000
0100
1000
0010
0100
0000
0100
0000
0010
0000
0020
0000
,
0000
0031
1001
0010
1001
0100
1001
0010
,
0000
0000
0010
1000
0110
0000
0002
0000
0003
0000
1010
0000
0110
0000
0011
0000
,
1100
0110
0002
0003
1001
0010
1100
0020
,
0030
0000
1000
0010
0001
0000
0002
0000
0003
0000
1100
0000
0110
0000
1010
0000
,
0101
1001
0002
0003
0001
0100
2000
3001
,
0100
0000
0001
0010
0100
0000
0010
0000
0100
0000
0010
0000
0100
0000
0010
0000
,
0100
0000
0010
0000
0202
0000
0303
0000
0100
0000
0001
1000
0010
0000
0100
1000
,
0100
0000
0010
0001
1000
0000
0100
1000
0200
0000
0000
0000
0320
0000
0000
0000
,
0130
0010
0100
0010
0001
0010
0001
0010
1001
0000
0100
0010
1100
0000
0010
0100
,
0011
0000
0100
0010
1100
0000
0010
0100
0011
0000
0100
0010
1100
0000
0010
0100
,
0011
0000
0100
0010
1100
0000
0010
0100
0011
0000
0100
0010
1100
0000
0010
0100
,
0011
0000
0100
0010
1100
0000
0010
0100
0011
0000
0010
0100
1001
0000
0100
0010
,
1001
0000
0010
0100
1001
0000
0100
0010
0101
0000
0100
0010
1100
0000
0100
1000
,
0101
0000
0100
1000
0101
0000
0001
0100
1010
0000
1000
0001
1100
0000
0100
0010
,
1001
0000
0200
0000
0320
0000
0032
0000
0203
0000
0301
1000
0110
0000
0001
0010
,
0101
0000
1000
0001
1010
0000
0100
0010
0100
0010
0100
0010
0100
0010
0001
0010
,
0001
0010
0100
1000
0100
1000
0100
1000
0110
0000
0001
0010
1100
0000
1000
0100
,
0011
0000
0001
0010
1100
0000
1000
0100
0011
0000
0001
0010
1100
0000
1000
0100
,
0011
0000
1000
0000
0010
0000
0001
0000
0010
0000
1000
0001
0110
0000
0001
1000
,
0101
0000
1000
0001
1010
0000
0001
0100
0011
0000
1000
0010
1001
0000
0001
0010
,
1001
0000
0001
0000
0010
0000
0001
0000
1000
0000
0100
1000
0011
0000
0010
0001
,
1100
0000
0100
1000
0011
0000
0010
0001
1100
0000
0002
0000
0010
0000
2003
0000
,
0010
3200
0010
0302
0010
0010
0010
0013
,
0110
1000
1010
0100
0200
0320
0000
0230
,
0000
0000
0000
0000
0000
0000
0000
0000
0020
0000
0000
0030
0002
0000
0000
0003
0310
0000
0001
0000
1000
0000
0000
0000
0101
0000
0010
0000
0100
0000
0000
0000
,
1010
0100
1000
0000
0101
0010
0001
0000
1010
0100
1000
0000
1001
0100
0010
0000
,
1001
0010
0100
0000
0100
0010
0001
0010
0100
1000
0100
0010
2000
0000
0010
0000
,
3200
0001
0320
0100
0032
1000
0023
0100
,
0230
0000
0001
0000
1300
0000
0200
0000
0310
0001
1000
0000
1001
0100
0001
0000
,
1100
0010
0001
0000
0110
1000
0100
0000
1010
0001
0100
0000
0011
1000
0100
0000
,
1001
0100
1000
0000
1010
0100
0001
1000
0110
0001
0100
0010
0200
0000
0010
0000
,
0320
0100
0230
0010
0320
0100
0230
0010
,
0320
0000
0100
0000
0230
0000
0310
0000
1001
0010
0100
0000
1001
0100
0001
0000
,
1001
0010
1000
0000
0101
0010
0100
0000
0101
1000
0010
0000
1010
0001
0100
0000
,
1001
0100
0010
0000
0100
0010
0100
0010
0100
0010
0100
0010
0100
0000
0011
0000
,
0110
1100
0110
0011
0110
0200
0010
0002
,
0010
0000
0000
0000
0313
0000
0010
0000
0001
0000
0010
0000
0100
0001
1000
0000
,
0100
0000
0010
0000
0100
1000
0001
0000
1000
0000
0010
0000
1000
0001
0010
0000
,
0100
1000
0010
0000
0100
0001
0010
0000
1010
0000
0000
0000
1000
0000
0001
0000
,
1000
0000
0100
0010
0100
0000
0110
0000
,
0110
0000
0000
0000
0110
0000
0000
0000
1000
0100
0010
0000
0100
1000
0010
0000
,
0100
0001
0100
0010
1000
0000
0010
0000
0100
0000
0001
1000
0001
0000
1000
0000
,
0001
0000
0010
0000
0001
0000
1000
0000
0001
0100
0001
0000
0010
0100
0010
0000
,
0001
0100
0010
1000
0001
0100
0010
0000
1000
0100
0010
0001
0010
0001
0010
0001
,
0010
0000
0100
0000
1000
0000
0100
0000
1000
0000
0100
0000
1000
0000
0200
0000
0020
0000
0000
0000
0000
0330
0000
0000
0110
0000
0000
0000
0010
0000
0000
0000
,
0110
0020
0000
0100
0000
0001
0000
0100
,
0000
0100
0000
0030
0000
0100
1000
0001
,
1000
0020
0000
0001
0000
0100
0000
0001
,
0000
0100
0000
0100
0000
0030
0000
0010
,
0010
0100
1000
2000
0000
0100
0000
0010
,
0000
0001
0000
0000
3000
0000
1000
0001
,
1000
0001
0010
0100
0000
0200
0000
0000
,
0000
0300
0110
0000
0110
0000
0110
0000
,
0110
0200
0000
0010
0000
1000
0000
0001
,
0000
0010
0000
0000
0300
0100
0110
0010
,
1010
2000
0000
0100
0000
0010
0000
0001
,
0000
0010
0000
0002
0000
3003
0000
1000
,
1100
0100
0110
0020
0000
0100
0000
0100
,
0000
0200
0000
0330
0000
0100
0100
0010
,
0100
0000
1000
0000
0100
0000
0001
0000
0100
0000
0010
0000
0100
0010
0100
0010
,
0100
0010
0100
0010
1100
0001
0010
0000
0110
0001
1000
0000
0101
0010
0001
0000
,
1100
0010
1000
0000
0100
0010
0001
0010
0100
1000
0020
0000
0000
0000
0130
0001
,
0110
0000
0100
0000
0011
0100
1000
0000
0101
0010
0001
0000
0101
0010
1000
0000
,
0011
0100
0010
0000
1001
0100
1000
0010
0100
1000
0200
0000
0000
0000
0301
0010
,
0101
0000
1000
0000
0011
0100
0010
0000
1100
0010
1000
0000
0110
0001
0010
0000
,
0110
1000
0100
0000
0110
0001
0010
0100
1000
0100
0020
0000
0000
0000
0130
0001
,
1010
0000
0010
0000
0110
0001
1000
0000
1010
0100
0001
0000
1010
0100
0010
0000
,
0101
1000
0010
0000
1001
0100
0010
0001
0010
0100
1000
0100
0010
0001
0010
0100
,
1000
0100
0010
0001
1100
0010
1000
0000
0011
0100
0010
0000
0110
0001
1000
0000
,
0101
0010
0100
0000
1001
0000
0010
0000
1100
0000
0200
0000
0000
0000
0301
0010
,
1000
0010
0001
0010
1000
0010
0100
0000
0001
0010
0001
0000
0101
0000
0011
0000
,
1100
0000
0000
0000
0101
0000
0000
0000
0011
0000
0000
0000
0020
0000
0000
0000
0000
0000
0000
0030
0200
0000
0000
0000
0000
0000
0000
0000
0300
0000
0000
0000
,
0001
1000
0001
1000
0001
1000
0001
0000
0010
0100
0010
0000
0100
0010
0100
0000
,
0010
0100
0010
0000
0100
0010
0100
0000
0010
0100
0010
0000
0100
0010
0100
0000
,
0010
0100
1000
0100
0010
0001
0010
0100
1000
0100
0010
0001
0010
0100
1000
0100
,
0010
0001
0010
0100
1000
0100
0010
0001
0010
0100
0010
0100
0010
0100
0010
0100
,
0010
0000
0000
0000
0100
0000
0000
0000
0010
0000
0000
0000
0002
0000
0000
0000
0020
0000
0000
0000
0000
0000
0000
0000
0000
0000
0000
0000
0000
0000
0000
0000
0003
0000
0000
0000
0030
0000
0000
0000
0000
0000
0000
0000
0000
0000
0000
0000
0000
0000
0000
0000
0000
0000
0000
0000
2000
3000
0000
0000
0000
0000
0000
0000
,
2000
3000
0000
0000
0000
0000
0000
0000
2000
3000
0000
0000
0000
0000
0000
0000
0002
0003
0000
0000
0000
0000
0000
0000
0000
0000
0000
0000
0000
0000
0000
0000
0000
0000
0000
0000
0000
0000
0000
0000
0000
0000
0000
0000
0000
0000
0000
0000
0000
0000
0000
0000
0000
0000
0000
0000
0000
0000
0000
0000
0000
0000
0000
0000
;
