#TITLE:Shadows;
#SUBTITLE:;
#ARTIST:Dito;
#TITLETRANSLIT:;
#SUBTITLETRANSLIT:;
#ARTISTTRANSLIT:;
#CREDIT:;
#BANNER:shadows-banner.png;
#BACKGROUND:MoonShadows-bg.png;
#LYRICSPATH:;
#CDTITLE:CDTITLE.jpg;
#MUSIC:01 -yy shadows.mp3;
#OFFSET:0.200;
#SAMPLESTART:100.000;
#SAMPLELENGTH:12.000;
#SELECTABLE:YES;
#BPMS:0.000=141.020;
#STOPS:;
#BGCHANGES:;
// cache tags:
#FIRSTBEAT:10.500;
#LASTBEAT:290.500;
#SONGFILENAME:Songs/Definitive Keyboard Megapack/shadows-dito(Leone510)/01 -yy shadows.sm;
#HASMUSIC:1;
#HASBANNER:1;
#MUSICLENGTH:125.968;
// end cache tags

//---------------dance-single - ----------------
#NOTES:
     dance-single:
     :
     Challenge:
     11:
     0.733,1.000,0.365,0.468,0.710,541.000,46.000,59.000,0.000,0.000:
0000
0000
0000
0000
,
0000
0000
0000
0000
,
0000
0000
0000
0000
0000
2000
0000
0000
,
0000
0000
0000
0000
,
3000
0002
0000
0000
0003
2000
0000
0000
,
0000
0000
0000
0000
,
3000
0002
0000
0000
0003
0020
0000
0000
,
0000
0000
0000
0000
,
0030
0200
0000
0000
0300
2000
0000
0000
,
0000
0000
0000
0000
,
3000
0002
0000
0000
0003
0200
0000
0000
,
0000
0000
0000
0000
,
0300
0020
0000
0000
0030
0200
0000
0000
,
0000
0000
0000
0000
,
0300
0002
0000
0000
0003
2000
0000
0000
,
0000
0000
0000
0000
,
3000
0002
0000
0000
0003
0200
0000
0000
,
0000
0000
0000
0000
,
0300
0020
0000
0000
0030
0200
0000
0000
,
0000
0000
0000
0000
,
0300
0001
0000
0100
0000
1000
0000
1000
,
0001
0000
0000
1000
0000
0000
0010
0000
,
0000
0100
0000
0001
0000
1000
0000
0100
,
0010
0000
0000
0100
0000
1000
0001
0000
,
0000
1000
0000
0010
0000
0100
0000
0010
,
0100
0000
0001
0100
0000
0100
0010
0000
,
1000
0010
0000
0100
0000
0001
0000
0010
,
1100
0000
0001
1100
0000
0010
0101
0000
,
0000
1100
0000
0011
0000
1100
0000
0010
,
1100
0000
0100
1001
0000
0001
1010
0000
,
0000
1001
0000
0011
0000
1100
0000
0100
,
0011
0000
0001
1100
0000
1000
0110
0000
,
0000
0020
0000
0230
0000
0302
0000
1003
,
0011
0000
0001
1010
0000
0100
1010
0000
,
0000
0020
0000
0130
1000
0001
1000
0010
,
0100
0001
1000
0010
0100
0001
0010
1000
,
0001
0100
0010
1000
0001
0010
0100
0001
,
0010
1000
0100
0010
0100
0001
1000
0010
,
0100
0001
0010
0100
1000
0010
0100
0001
,
0010
0100
1000
0010
0100
0001
0010
0100
,
0010
1000
0100
0010
0100
0010
0001
0010
,
0100
0001
0010
1000
0100
0001
0010
1000
,
0001
0000
0100
0000
0010
0000
1000
0000
0010
0001
0100
0010
0001
0100
0010
1000
,
0100
0001
0010
0100
0010
1000
0100
0001
0010
0100
0001
0010
1000
0001
0100
0010
,
1000
0001
0100
0010
1000
0001
0010
0100
1000
0010
0100
0001
0010
0001
0010
0100
,
1000
0100
0010
0001
0100
0010
0001
0010
0100
0001
0010
0100
0001
1000
0010
0100
,
1000
0010
0100
0001
0010
0100
0001
1000
0001
0010
0100
0010
1000
0100
0010
0001
,
1000
0010
0100
0001
0010
0001
0100
0010
1000
0001
0100
0010
0001
1000
0100
0010
,
0001
0100
0010
1000
0001
1000
0010
0100
0001
1000
0100
0010
0100
0001
0100
0010
,
1000
0001
0010
0001
0010
0100
0010
0001
1000
0100
0010
0001
0100
1000
0001
0000
,
2200
3300
0022
0033
0000
0000
2002
3003
0010
0100
0010
1000
0001
0010
0100
0001
,
0010
1000
0001
0100
0010
0001
0100
0010
0001
1000
0001
1000
0100
1000
0100
0010
,
0100
0001
0010
0100
0001
1000
0001
0010
0001
1000
0001
0010
0001
0100
0010
0001
,
0010
0100
1000
0100
1000
0001
0010
0001
1000
0100
0010
0100
0001
0010
0001
0100
,
0010
1000
0100
0010
0100
0010
0001
0100
1000
0010
0001
0100
0010
0001
0010
0100
,
1000
0001
0010
0100
0010
0100
0001
1000
0100
1000
0010
1000
0100
0001
1000
0001
,
0010
0100
0010
0100
0001
0010
0001
0100
0010
1000
0001
0100
0010
0100
0010
0001
,
0100
0001
0010
0001
1000
0100
0010
1000
0010
0100
0001
1000
0010
0001
0100
1000
,
0022
0033
2200
3300
0000
0000
2020
3030
0100
0001
0010
0100
1000
0100
0010
0001
,
0100
0010
0001
1000
0001
0100
1000
0010
0100
0010
0100
0010
0100
0001
1000
0010
,
0100
0001
0010
0100
0001
0010
0100
0001
0010
1000
0100
0010
1000
0001
0010
0100
,
1000
0010
0100
1000
0001
0010
0001
0100
1000
0100
0010
0100
1000
0001
0010
0100
,
0010
0001
0010
1000
0001
0010
0100
0001
0010
0100
0001
0010
0100
1000
0010
0100
,
0001
0010
0100
0010
1000
0001
0100
0010
0001
0100
0010
1000
0010
0001
0100
0010
,
0001
1000
0010
0100
0001
0010
0100
1000
0001
0010
0100
0010
0001
0010
1000
0100
,
0010
0100
0010
1000
0001
0010
0100
1000
0100
0010
0001
0100
1000
0100
0001
0010
,
2200
3300
0202
0303
0000
0000
2002
3003
0010
0000
2200
3300
0000
0000
0100
0000
,
0022
0033
0000
0000
0010
0000
2200
3300
0000
0000
0100
0000
0022
0033
0000
0000
,
0000
0110
0000
1001
0000
0011
0000
0100
,
2200
3300
0000
0000
0100
0000
0022
0033
0000
0000
0001
0000
2020
3030
0000
0000
,
0000
0110
0000
0011
0000
0110
0000
1000
,
0022
0033
0000
0000
0010
0000
0220
0330
0000
0000
0010
0000
2002
3003
0000
0000
,
0000
0101
0000
1010
0000
1001
0000
0000
;

//---------------dance-single - Copied from----------------
#NOTES:
     dance-single:
     Copied from:
     Medium:
     12:
     0.849,1.000,1.000,0.468,0.710,541.000,134.000,59.000,0.000,16.000:
0000
0000
0000
0000
,
0000
0000
0000
0000
,
0000
0000
0000
0000
0000
2000
0000
0000
,
0000
0000
0000
0000
,
3000
0002
0000
0000
0003
2000
0000
0000
,
0000
0000
0000
0000
,
3000
0002
0000
0000
0003
0020
0000
0000
,
0000
0000
0000
0000
,
0030
0200
0000
0000
0300
2000
0000
0000
,
0000
0000
0000
0000
,
3000
0002
0000
0000
0003
0200
0000
0000
,
0000
0000
0000
0000
,
0300
0020
0000
0000
0030
0200
0000
0000
,
0000
0000
0000
0000
,
0300
0002
0000
0000
0003
2000
0000
0000
,
0000
0000
0000
0000
,
3000
0002
0000
0000
0003
0200
0000
0000
,
0000
0000
0000
0000
,
0300
0020
0000
0000
0030
0200
0000
0000
,
0000
0000
0000
0000
,
0300
0001
0000
0100
0000
1000
0000
1000
,
0001
0000
0000
1000
0000
0000
0010
0000
,
0000
0100
0000
0001
0000
1000
0000
0100
,
0010
0000
0000
0100
0000
1000
0001
0000
,
0000
1000
0000
0010
0000
0100
0000
0010
,
0100
0000
0001
0100
0000
0100
0010
0000
,
1000
0010
0000
0100
0000
0001
0000
0011
,
1100
0000
0101
1100
0000
1010
0101
0000
,
0000
1101
0000
1011
0000
1101
0000
0011
,
1100
0000
0110
1001
0000
0101
1010
0000
,
0000
1101
0000
0111
0000
1101
0000
0101
,
0011
0000
1001
1100
0000
1001
0110
0000
,
0000
0020
0000
0230
0000
0302
0000
1013
,
0011
0000
0101
1010
0000
0101
1010
0000
,
0000
0020
0000
0130
1000
0001
1100
0010
,
0100
0001
1010
0010
0100
0001
0110
1000
,
0001
0100
0011
1000
0001
0010
1100
0001
,
0010
1000
0101
0010
0100
0001
1100
0010
,
0100
0001
0110
0100
1000
0010
0101
0001
,
0010
0100
1010
0010
0100
0001
1010
0100
,
0010
1000
0101
0010
0100
0010
0101
0010
,
0100
0001
0110
1000
0100
0001
1010
1000
,
0001
0000
0100
0000
0110
0000
1000
0000
0010
0001
0100
0010
0001
0100
0010
1000
,
0100
0001
0010
0100
0010
1000
0100
0001
0010
0100
0001
0010
1000
0001
0100
0010
,
1000
0001
0100
0010
1000
0001
0010
0100
1000
0010
0100
0001
0010
0001
0010
0100
,
1000
0100
0010
0001
0100
0010
0001
0010
0100
0001
0010
0100
0001
1000
0010
0100
,
1000
0010
0100
0001
0010
0100
0001
1000
0001
0010
0100
0010
1000
0100
0010
0001
,
1000
0010
0100
0001
0010
0001
0100
0010
1000
0001
0100
0010
0001
1000
0100
0010
,
0001
0100
0010
1000
0001
1000
0010
0100
0001
1000
0100
0010
0100
0001
0100
0010
,
1000
0001
0010
0001
0010
0100
0010
0001
1000
0100
0010
0001
0100
1000
0001
0000
,
2200
3300
0022
0033
0000
0000
2002
3003
0011
0100
0010
1000
0101
0010
0100
0001
,
0110
1000
0001
0100
1010
0001
0100
0010
0101
1000
0001
1000
0110
1000
0100
0010
,
1100
0001
0010
0100
0011
1000
0001
0010
0101
1000
0001
0010
1001
0100
0010
0001
,
1010
0100
1000
0100
1010
0001
0010
0001
1010
0100
0010
0100
1001
0010
0001
0100
,
0011
1000
0100
0010
0101
0010
0001
0100
1001
0010
0001
0100
1010
0001
0010
0100
,
1010
0001
0010
0100
0011
0100
0001
1000
0101
1000
0010
1000
0110
0001
1000
0001
,
1010
0100
0010
0100
1001
0010
0001
0100
0011
1000
0001
0100
1010
0100
0010
0001
,
0110
0001
0010
0001
1010
0100
0010
1000
0011
0100
0001
1000
0110
0001
0100
1000
,
0022
0033
2200
3300
0000
0000
2020
3030
0011
0100
0010
1000
0101
0010
0100
0001
,
0110
1000
0001
0100
1010
0001
0100
0010
0101
1000
0001
1000
0110
1000
0100
0010
,
1100
0001
0010
0100
0011
1000
0001
0010
0101
1000
0001
0010
1001
0100
0010
0001
,
1010
0100
1000
0100
1010
0001
0010
0001
1010
0100
0010
0100
1001
0010
0001
0100
,
0011
1000
0100
0010
0101
0010
0001
0100
1001
0010
0001
0100
1010
0001
0010
0100
,
1010
0001
0010
0100
0011
0100
0001
1000
0101
1000
0010
1000
0110
0001
1000
0001
,
1010
0100
0010
0100
1001
0010
0001
0100
0011
1000
0001
0100
1010
0100
0010
0001
,
0110
0001
0010
0001
1010
0100
0010
1000
0011
0100
0001
1000
0110
0001
0100
1000
,
0022
0033
2200
3300
0000
0000
2020
3030
0010
0000
2200
3300
0000
0000
0100
0000
,
0022
0033
0000
0000
0010
0000
2200
3300
0000
0000
0100
0000
0022
0033
0000
0000
,
0000
0111
0000
1011
0000
1011
0000
0100
,
2200
3300
0000
0000
0100
0000
0022
0033
0000
0000
0001
0000
2020
3030
0000
0000
,
0000
0111
0000
0111
0000
1110
0000
1000
,
0022
0033
0000
0000
0010
0000
0220
0330
0000
0000
0010
0000
2002
3003
0000
0000
,
0000
0111
0000
1011
0000
1101
0000
0000
;
