#TITLE:Makiba;
#SUBTITLE:;
#ARTIST:Jea;
#TITLETRANSLIT:;
#SUBTITLETRANSLIT:;
#ARTISTTRANSLIT:;
#CREDIT:owenviau1;
#BANNER:;
#BACKGROUND:;
#LYRICSPATH:;
#CDTITLE:;
#MUSIC:Makiba.mp3;
#OFFSET:-0.064;
#SAMPLESTART:5.776;
#SAMPLELENGTH:29.999;
#SELECTABLE:YES;
#BPMS:0.000=168.064;
#STOPS:;
#BGCHANGES:;
// cache tags:
#FIRSTBEAT:0.000;
#LASTBEAT:350.500;
#SONGFILENAME:Songs/owenviau1 Simfiles 7/Makiba - [owenviau1]/Makiba.sm;
#HASMUSIC:1;
#HASBANNER:0;
#MUSICLENGTH:125.831;
// end cache tags

//---------------dance-single - 14 (owenviau1)----------------
#NOTES:
     dance-single:
     14 (owenviau1):
     Challenge:
     14:
     1.000,1.000,0.032,0.691,1.000,1252.000,4.000,87.000,0.000,0.000:
2000
0000
3000
0000
0020
0000
0030
0100
0002
0000
0003
0000
2000
0000
3000
0000
,
0002
0000
0003
0000
0020
0000
0030
0000
0200
0000
0300
0000
1000
0010
0100
0001
,
0200
0300
0020
0030
0000
0000
2000
3000
0002
0000
0000
0000
0023
0000
0000
0000
,
0130
0000
0000
0000
1000
0000
0000
0000
0001
1000
0002
0000
0103
0000
0020
0000
,
1030
0001
0100
0001
0010
0100
1000
0001
0100
0010
1000
0010
0100
0001
0100
0010
,
1000
0001
0010
0001
0100
0010
1000
0010
0100
0001
1000
0100
0010
0001
0100
0001
,
1000
0010
0100
0001
0100
0010
1000
0001
0010
0001
0100
0010
1000
0001
0010
0001
,
0100
0010
1000
0010
0100
0001
1000
0100
0010
0001
0100
0001
1000
0010
0100
0001
,
0100
0010
1000
0001
0010
0100
1000
0001
0010
0001
0100
0010
1000
0010
0100
0001
,
1000
0001
0100
0010
0100
0001
1000
0100
0010
0001
0100
0010
0100
0001
1000
0001
,
0010
0100
1000
0001
0010
0001
0100
0010
1000
0010
0100
0001
1000
0100
1000
0001
,
0100
0010
0100
0001
1000
0010
0100
0001
2000
0000
3000
0000
0004
0000
0013
0000
,
0100
1000
0001
0100
0001
1000
0010
0100
0010
1000
0001
0100
0001
0010
0100
1000
,
0001
0010
0001
0100
0010
0100
0001
1000
0010
1000
0001
0100
0010
0100
0001
1000
,
0100
1000
0010
0100
0001
1000
0100
0010
0001
0100
0010
0100
0001
1000
0100
1000
,
0010
0100
0001
0100
0010
1000
0001
0010
0100
1000
0001
0100
0001
1000
0010
1000
,
0001
0100
0010
0100
0001
1000
0010
1000
0100
0010
0001
0100
0010
1000
0010
0100
,
0001
1000
0001
0100
0010
0100
0001
1000
0010
0100
0010
1000
0001
0100
0010
0100
,
0001
1000
0100
0010
0001
0100
0010
1000
0010
0100
0001
1000
0100
1000
0001
0100
,
0010
1000
0010
0100
0001
1000
0100
0010
0001
1000
0010
0000
0100
0000
0010
0000
,
1000
0001
0100
0010
0100
0001
1000
0010
0100
0001
1000
0100
0010
0001
0100
0001
,
1000
0010
0100
0001
1000
0100
0010
0001
0100
0001
1000
0010
0100
0001
0100
0010
,
1000
0001
0010
0001
0100
0010
1000
0010
0100
0001
1000
0001
0100
0010
0100
0001
,
1000
0010
1000
0001
0100
0001
0010
0100
1000
0001
0010
0001
0100
0010
1000
0010
,
0100
0001
1000
0010
0100
0001
1000
0001
0100
0001
0010
0100
1000
0001
0010
0001
,
0100
0010
1000
0010
0100
0001
1000
0001
0010
0001
0100
0010
1000
0010
0100
0001
,
1000
0100
0010
0001
0100
0010
1000
0010
0100
0001
1000
0010
0100
0010
1000
0001
,
0010
0001
0100
0010
1000
0010
0100
0001
2000
0000
3000
0000
0040
0000
0130
0000
,
0001
1000
0001
0100
0010
1000
0010
0100
0001
1000
0100
0010
0001
0100
0001
1000
,
0010
0100
0010
1000
0001
0100
0001
0010
0100
1000
0001
0010
0001
0100
0010
1000
,
0010
0100
0001
1000
0100
1000
0010
0100
0010
1000
0001
0010
0100
1000
0001
0010
,
0001
0100
0010
1000
0010
0100
0001
1000
0001
0100
0010
1000
0010
0100
0001
1000
,
0100
0010
0001
0100
0010
1000
0010
0100
0001
1000
0001
0010
0100
1000
0001
0010
,
0001
0100
0010
1000
0010
0100
0001
1000
0001
0010
0100
1000
0001
0100
0010
1000
,
0010
0100
0001
1000
0100
1000
0001
0100
0010
0100
0001
1000
0010
0100
0001
1000
,
0001
0010
0100
1000
0001
0100
0001
1000
0010
0100
0001
0000
1000
0000
0010
0000
,
0100
0001
1000
0100
0010
0001
0100
0010
0100
0001
1000
0010
1000
0001
0100
0001
,
0010
0100
1000
0010
0100
0010
1000
0001
0100
0001
0010
0100
1000
0001
0010
0001
,
0100
0010
1000
0010
0100
0001
1000
0001
0100
0010
0100
0001
1000
0010
1000
0100
,
0010
0001
0100
0001
1000
0010
0100
0001
0100
0010
1000
0001
0010
0100
1000
0001
,
0010
0001
0100
0010
0100
0001
1000
0010
1000
0100
0010
0001
1000
0100
1000
0001
,
0100
0010
1000
0010
0100
0001
1000
0010
0100
0010
1000
0001
0100
0001
0010
0100
,
1000
0001
0010
0001
0100
0010
1000
0010
0100
0001
1000
0001
0100
0010
0100
0001
,
1000
0000
0000
0000
0100
0000
0000
0000
0010
0000
0000
0000
0001
0000
0000
0000
0100
0000
0000
0000
0010
0000
0000
0000
0100
0000
0000
0000
0001
0000
0000
0000
1000
0000
0000
0000
0000
0000
0000
0000
0002
0003
0000
0000
0020
0030
0000
0000
0002
0003
0000
0000
0000
0000
0000
0000
0020
0030
0000
0000
0000
0000
0000
0000
,
0100
0000
2000
3000
0100
0000
0020
0030
0001
0000
0020
0030
0100
0000
2000
3000
,
0001
0000
0020
0030
0001
0000
0200
0300
0001
0000
2000
3100
0010
0000
0002
0003
,
1000
0000
0002
0003
0100
0000
0020
0030
1000
0000
0020
0030
0100
0000
0002
0003
,
1000
0000
0200
0300
0010
0000
0002
0003
0100
0000
0002
1003
0010
0100
0020
1030
,
0001
0000
0200
0300
0001
0000
2000
3000
0001
0100
0010
0100
0001
1000
0010
1000
,
0001
0100
0010
1000
0010
0100
0001
1000
0100
1000
0001
0100
0010
0100
0001
1000
,
0010
0100
0001
1000
0100
0010
0001
0100
0010
1000
0001
0010
0001
0100
0010
0100
,
0001
1000
0010
1000
0001
0100
0010
1000
0010
0000
0100
0001
0100
0000
0010
0000
,
1000
0001
0100
0010
1000
0010
0100
0001
0100
0010
1000
0001
0010
0100
1000
0001
,
0010
0001
0100
0010
1000
0010
0100
0001
1000
0001
0100
0010
1000
0001
0010
0001
,
0100
0010
1000
0001
0100
0001
1000
0010
0100
0010
1000
0001
0010
0100
1000
0001
,
0010
0001
0100
0010
0100
0001
1000
0010
1000
0001
0100
0010
1000
0010
0100
0001
,
1000
0100
0010
0001
1000
0100
1000
0010
0100
0001
1000
0100
1000
0001
0100
0010
,
0100
0001
1000
0001
0010
0100
1000
0001
0010
0001
0100
0010
1000
0010
0100
0001
,
1000
0001
0100
0010
0100
0001
1000
0010
1000
0001
0100
0010
0100
0001
1000
0001
,
0010
0001
0100
0010
1000
0010
0100
0001
1000
0001
0010
0000
0100
0000
1000
0000
,
0001
0010
0100
1000
0001
0100
0001
1000
0010
0100
0001
1000
0100
1000
0010
0100
,
0010
1000
0001
0100
0001
1000
0010
1000
0001
0100
0001
0010
0100
1000
0001
0010
,
0001
0100
0010
1000
0010
0100
0001
1000
0100
1000
0001
0010
0001
0100
0010
1000
,
0010
0100
0001
1000
0001
0010
0100
1000
0001
0010
0001
1000
0100
1000
0001
0100
,
0010
1000
0010
0100
0001
1000
0100
0010
0001
1000
0010
1000
0001
0100
0010
1000
,
0010
0100
0001
1000
0001
0010
0001
0100
0010
1000
0010
0100
0001
1000
0100
0010
,
0001
1000
0100
1000
0010
0100
0001
0100
0010
1000
0001
0010
0001
1000
0100
0010
,
0001
0100
0001
1000
0010
1000
0001
0100
0020
0000
0030
0000
4000
0000
3001
0000
,
0010
0100
1000
0001
0010
0001
1000
0100
1000
0001
0100
0010
1000
0010
0100
0001
,
1000
0001
0010
0100
1000
0001
0100
0010
1000
0010
0100
0001
1000
0100
1000
0001
,
0100
0010
0100
0001
1000
0010
1000
0001
0100
0001
0010
0100
1000
0001
0010
0001
,
1000
0010
0100
0001
0100
0010
1000
0001
0100
0001
1000
0010
0100
0001
1000
0100
,
0010
0001
0100
0001
1000
0010
0100
0010
1000
0001
0010
0100
1000
0001
0010
0001
,
0100
0010
1000
0010
0100
0001
1000
0001
0100
0010
1000
0010
0100
0001
1000
0100
,
0010
0001
1000
0010
1000
0001
0100
0010
1000
0010
0100
0001
1000
0100
0010
0001
,
0100
0010
0100
0001
1000
0100
0010
0001
0100
0001
1000
0000
0010
0000
0100
0000
,
0010
1000
0002
0103
0001
0010
0200
1300
0010
0100
0002
0103
0010
1000
0002
1003
,
0100
0010
0002
0103
0001
1000
0020
0130
0001
1000
0200
1300
0010
0100
0002
0103
,
0010
1000
0002
0013
0100
1000
0002
0013
0001
0100
0020
0130
0001
1000
0020
1030
,
0001
0100
0020
1030
0010
0100
0002
1003
0100
0010
0002
1003
0100
1000
0020
0130
,
0010
1000
0002
0103
0001
1000
0020
0130
0010
1000
0002
0013
0001
1000
0200
1300
,
0010
0100
0002
1003
0100
1000
0002
0103
0010
1000
0020
0130
0001
1000
0200
1300
,
0001
0100
0020
0130
0001
1000
0020
0130
0001
1000
0200
1300
0010
0100
0002
1003
,
0100
0010
0002
0103
0001
1000
0020
0130
0001
1000
0200
0000
0300
0000
0020
0030
,
0002
0000
0003
0000
2000
0000
3000
0010
2000
0000
3000
0000
0002
0000
0003
0000
,
0020
0000
0030
0000
0200
0000
0300
0000
2000
0000
3000
0000
0001
0100
0001
1000
,
0020
0030
0200
0300
0000
0000
0200
0300
0002
0000
0000
0000
0203
0000
0000
0000
,
0320
0030
2000
3000
2002
3003
0000
0000
,
0000
0000
0000
0000
;
