#TITLE:Jubei Chan;
#SUBTITLE:- Way Of The Samurai;
#ARTIST:大地丙太郎;
#TITLETRANSLIT:;
#SUBTITLETRANSLIT:;
#ARTISTTRANSLIT:Daichi Akitaroh;
#CREDIT:;
#BANNER:jubeichanlogo.png;
#BACKGROUND:jubeichanbg.png;
#LYRICSPATH:;
#CDTITLE:;
#MUSIC:Jubei-ChanIntro.mp3;
#OFFSET:0.870;
#SAMPLESTART:43.906;
#SAMPLELENGTH:12.000;
#SELECTABLE:YES;
#BPMS:0.000=134.000;
#STOPS:;
#BGCHANGES:;
// cache tags:
#FIRSTBEAT:7.500;
#LASTBEAT:251.500;
#SONGFILENAME:Songs/Anime Songs/JubeiChan/JubeiChan.sm;
#HASMUSIC:1;
#HASBANNER:1;
#MUSICLENGTH:115.411;
// end cache tags

//---------------dance-single - ----------------
#NOTES:
     dance-single:
     :
     Easy:
     3:
     0.224,0.245,0.035,0.000,0.000,177.000,4.000,0.000,0.000,0.000:  // measure 1
0000
0000
0000
0000
,  // measure 2
0000
0000
0000
0000
0000
0000
0000
0100
,  // measure 3
0000
0100
0000
0010
0000
0010
0000
0100
,  // measure 4
0000
0100
0000
1000
0000
1000
0000
0001
,  // measure 5
0000
0001
0000
0100
0000
0010
0000
0001
,  // measure 6
0000
1000
0000
0000
0000
0000
0000
1000
,  // measure 7
0000
0010
0000
0001
0000
0100
0000
1000
,  // measure 8
0000
0001
0000
0000
0000
0000
0000
0010
,  // measure 9
0000
1000
0000
0100
0000
0001
0000
0010
,  // measure 10
0000
1000
0000
0000
0000
0000
0000
1000
,  // measure 11
0000
1000
0000
0001
0000
0001
0000
0010
,  // measure 12
0000
0100
0000
1000
0000
0001
0000
1000
,  // measure 13
0000
0001
0000
1000
0000
0100
0000
0010
,  // measure 14
0000
0001
0000
1000
0000
0001
0000
1001
,  // measure 15
0000
0000
0000
0000
0000
0100
0000
0000
,  // measure 16
0000
0010
0000
0000
0000
0001
0000
0000
,  // measure 17
0000
1000
0000
1000
0000
0100
0000
0000
,  // measure 18
0000
0001
0000
0000
0000
1000
0000
0000
,  // measure 19
0000
0010
0000
0000
0000
0100
0000
0001
,  // measure 20
0000
0001
0000
0000
0000
0001
0000
0000
,  // measure 21
0000
0010
0000
0000
0000
1000
0000
0000
,  // measure 22
0000
0001
0000
0010
0000
0010
0000
0000
,  // measure 23
0000
1000
0000
0000
0000
0001
0000
0000
,  // measure 24
0000
1000
0000
0000
0000
0001
0000
0100
,  // measure 25
0000
0100
0000
0000
0000
0010
0000
0000
,  // measure 26
0000
1000
0000
0000
0000
0001
0000
0000
,  // measure 27
0000
1000
0000
0000
0000
1000
0000
0001
,  // measure 28
0000
0001
0000
0000
0000
1000
0000
0000
,  // measure 29
0000
0001
0000
0000
0000
0010
0000
0010
,  // measure 30
0000
0100
0000
0100
0000
0000
0000
0001
,  // measure 31
0000
1000
0000
0001
0000
1000
0000
0100
,  // measure 32
0000
0010
0000
1000
0000
0001
0000
0010
,  // measure 33
0000
0100
0000
0001
0000
1000
0000
0100
,  // measure 34
0000
0010
0000
1000
0000
0001
0000
1001
,  // measure 35
0000
0000
0000
0000
0000
0100
0000
0000
,  // measure 36
0000
1000
0000
1000
0000
1000
0000
0000
,  // measure 37
0000
0100
0000
0000
0000
0001
0000
0000
,  // measure 38
0000
0100
0000
0000
0000
0001
0000
0001
,  // measure 39
0000
0001
0000
0000
0000
0010
0000
0000
,  // measure 40
0000
0001
0000
0000
0000
1000
0000
0000
,  // measure 41
0000
0100
0000
0100
0000
0100
0000
0000
,  // measure 42
0000
0001
0000
0000
0000
0100
0000
0000
,  // measure 43
0000
1000
0000
0000
0000
0010
0000
0010
,  // measure 44
0000
0010
0000
0000
0000
0001
0000
0000
,  // measure 45
0000
1000
0000
0000
0000
0001
0000
0000
,  // measure 46
0000
0001
0000
1000
0000
0100
0000
0000
,  // measure 47
0000
1000
0000
0000
0000
0010
0000
0000
,  // measure 48
0000
0001
0000
0000
0000
0100
0000
0010
,  // measure 49
0000
1000
0000
0000
0000
0001
0000
0000
,  // measure 50
0000
1000
0000
0000
0000
0001
0000
0010
,  // measure 51
0000
0001
0000
0000
0000
0000
0000
0100
,  // measure 52
0000
0100
0000
1000
0000
1000
0000
0010
,  // measure 53
0000
0010
0000
0001
0000
0001
0000
1000
,  // measure 54
0000
0001
0000
0100
0000
0001
0000
1000
,  // measure 55
0000
0010
0000
0001
0000
1000
0000
0001
,  // measure 56
0000
1000
0000
0100
0000
0010
0000
0001
,  // measure 57
0000
1000
0000
0001
0000
0010
0000
0100
,  // measure 58
0000
0010
0000
0001
0000
1000
0000
0100
,  // measure 59
0000
0010
0000
1000
0000
0001
0000
1001
,  // measure 60
0000
0000
0000
0000
0000
0001
0000
0000
,  // measure 61
0000
1000
0000
0000
0000
0001
0000
0000
,  // measure 62
0000
0010
0000
0000
0000
0100
0000
0000
,  // measure 63
0000
0010
0000
0000
0000
0100
0000
0110
;

//---------------dance-single - ----------------
#NOTES:
     dance-single:
     :
     Medium:
     5:
     0.334,0.300,0.165,0.000,0.000,251.000,19.000,0.000,0.000,0.000:  // measure 1
0000
0000
0000
0000
,  // measure 2
0000
0000
0000
0000
0000
0000
0000
1001
,  // measure 3
0000
0001
0000
0001
0000
1000
0000
1000
,  // measure 4
0000
0100
0000
0010
0000
1000
0000
0001
,  // measure 5
0000
0100
0000
0010
0000
1000
0000
0001
,  // measure 6
0000
0100
0000
0010
0000
0001
0000
1000
,  // measure 7
0000
0100
0000
0001
0000
0010
0000
0001
,  // measure 8
0000
1000
0000
0100
0000
0001
0000
0010
,  // measure 9
0000
1000
0000
0100
0000
0001
0000
0010
,  // measure 10
0000
1000
0000
0001
0000
0010
0000
0100
,  // measure 11
0000
1000
0000
0001
0000
0100
0000
0010
,  // measure 12
0000
1000
0000
0001
0000
0100
0000
0001
,  // measure 13
0000
1000
0000
0001
0000
0110
0000
1001
,  // measure 14
0000
0010
0000
0100
0000
0010
0000
1001
,  // measure 15
0000
0100
0000
0100
0000
0100
0000
0010
,  // measure 16
0000
0010
0000
0010
0000
1000
0000
1000
,  // measure 17
0000
0001
0000
0001
0000
0100
0000
0010
,  // measure 18
0000
1000
0000
0001
0000
0100
0000
0001
,  // measure 19
0000
0100
0000
1000
0000
0100
0000
1000
,  // measure 20
0000
0100
0000
0010
0000
0001
0000
0010
,  // measure 21
0000
0001
0000
1000
0000
0010
0000
1000
,  // measure 22
0000
0010
0000
0100
0000
0001
0000
0001
,  // measure 23
0000
0100
0000
0001
0000
0010
0000
1000
,  // measure 24
0000
0001
0000
0100
0000
0001
0000
0001
,  // measure 25
0000
1000
0000
0100
0000
0001
0000
1000
,  // measure 26
0000
0010
0000
0001
0000
0100
0000
0010
,  // measure 27
0000
1000
0000
0100
0000
0010
0000
1000
,  // measure 28
0000
0001
0000
0100
0000
1000
0000
0001
,  // measure 29
0000
0100
0000
0010
0000
1000
0000
0100
,  // measure 30
0000
0001
0000
0010
0000
1000
0000
0100
,  // measure 31
0000
0001
0000
0001
0000
0100
0000
1000
,  // measure 32
0000
0010
0000
0001
0000
0100
0000
1000
,  // measure 33
0000
0010
0000
0001
0000
1000
0000
0001
,  // measure 34
0000
1000
0000
0001
0000
1000
0000
1001
,  // measure 35
0000
0000
0100
0100
0100
0110
0000
0100
,  // measure 36
0000
0010
0000
0100
0000
0010
0000
1000
,  // measure 37
0000
0001
0000
1000
0000
0001
0000
0100
,  // measure 38
0000
0001
0000
0100
0000
1000
0000
0100
,  // measure 39
0000
1000
0000
0010
0000
0001
0000
0100
,  // measure 40
0000
0001
0000
0010
0000
1000
0000
0001
,  // measure 41
0000
0100
0000
0101
0000
0001
0000
0001
,  // measure 42
0000
0001
0000
1001
0000
1000
0000
1000
,  // measure 43
0000
1000
0000
1001
0000
0010
0000
0010
,  // measure 44
0000
0010
0000
1001
0000
0100
0000
0100
,  // measure 45
0000
0100
0000
1001
0000
0001
0000
0100
,  // measure 46
0000
1000
0000
0010
0000
1000
0000
0100
,  // measure 47
0000
0010
0000
0110
0000
0010
0000
0100
,  // measure 48
0000
0001
0000
0100
0000
1000
0000
0001
,  // measure 49
0000
0010
0000
0100
0000
1010
0000
0010
,  // measure 50
0000
0100
0000
0001
0000
1000
0000
0010
,  // measure 51
0000
0100
0000
0011
0000
1000
0000
0100
,  // measure 52
0000
0001
0000
0001
0000
0100
0000
0100
,  // measure 53
0000
0010
0000
0010
0000
1001
0000
0100
,  // measure 54
0000
0001
0000
1000
0000
0100
0000
0001
,  // measure 55
0000
1000
0000
0101
0000
0001
0000
1000
,  // measure 56
0000
0010
0000
0001
0000
1000
0000
0001
,  // measure 57
0000
0110
0000
0010
0000
0100
0000
0010
,  // measure 58
0000
0010
0000
0100
0000
0100
0000
1000
,  // measure 59
1000
0000
0001
0001
0000
1000
1000
1001
,  // measure 60
0000
0100
0000
0100
0000
0100
0000
0100
,  // measure 61
0000
0010
0000
0010
0000
0010
0000
0010
,  // measure 62
0000
0100
0000
0001
0000
1000
0000
0100
,  // measure 63
0000
1000
0001
0100
1000
0001
0010
0110
;

//---------------dance-single - ----------------
#NOTES:
     dance-single:
     :
     Hard:
     7:
     0.416,0.463,0.251,0.113,0.113,294.000,29.000,13.000,0.000,0.000:  // measure 1
0000
0000
0000
0000
,  // measure 2
0000
0000
0000
0000
0000
0000
0000
1010
,  // measure 3
0000
0011
0000
0100
0000
1000
0000
0001
,  // measure 4
0000
0010
0000
0100
0000
1100
0000
0101
,  // measure 5
0000
0100
0000
1000
0000
0010
0000
0001
,  // measure 6
0000
0100
0000
0001
0000
1000
0000
1000
,  // measure 7
0000
0001
0000
0001
0000
0000
1000
0000
0000
0000
0001
0000
0000
0000
0100
0000
,  // measure 8
0000
1000
0000
0010
0000
0100
0000
0001
,  // measure 9
0000
1000
0000
1000
0000
0000
0001
0000
0000
0000
0001
0000
0000
0000
0010
0000
,  // measure 10
0000
1000
0000
0001
0000
0100
0000
0010
,  // measure 11
0000
0100
0000
0100
0000
0000
0010
0000
0000
0000
1000
0000
0000
0000
0100
0000
,  // measure 12
0000
0010
0000
0010
0000
0000
0100
0000
0000
0000
1000
0000
0000
0000
1000
0000
,  // measure 13
0000
0100
0000
0001
0000
0000
0001
0000
0000
0000
1010
0000
0000
0000
0011
0000
,  // measure 14
0000
1100
0000
0101
0000
0110
0000
0002
,  // measure 15
0000
0000
0003
0000
0000
0001
0100
0001
0000
0000
0000
0000
0000
0000
1000
0000
,  // measure 16
0000
0100
0000
0001
0000
0010
0000
2000
,  // measure 17
0000
0000
3000
0000
0000
1000
0100
1000
0000
0000
1001
0000
0000
0000
0001
0000
,  // measure 18
0000
1000
0000
0100
0000
0010
0000
0110
,  // measure 19
0000
0100
0000
0001
0000
1000
0000
0010
,  // measure 20
0000
1000
0000
1001
0000
0100
0000
0001
,  // measure 21
0000
0010
0000
1000
0000
0100
0000
0010
,  // measure 22
0000
0110
0000
1001
0000
1000
0000
0200
,  // measure 23
0000
0000
0300
0000
0000
0100
0001
0100
0000
0000
0000
0000
0000
0000
0100
0000
,  // measure 24
0000
0001
0000
1000
0000
0010
0000
0200
,  // measure 25
0000
0000
0300
0000
0000
0100
1000
0100
0000
0000
0100
0000
0000
0000
1000
0000
,  // measure 26
0000
0001
0000
1001
0000
0010
0000
0100
,  // measure 27
0000
1000
0000
0001
0000
0100
0000
1001
,  // measure 28
0000
0100
0000
1000
0000
0001
0000
0100
,  // measure 29
0000
0010
0000
1000
0000
0001
0000
0100
,  // measure 30
0000
0100
0000
0100
0000
0100
0000
1000
,  // measure 31
0100
1100
0000
0001
0100
0101
0000
1000
,  // measure 32
0010
1010
0000
0010
0001
0011
0000
1000
,  // measure 33
0001
1001
0000
0010
0100
0110
0000
1000
,  // measure 34
0001
0100
1000
0001
0010
0100
0001
0202
,  // measure 35
0000
0303
0000
1001
1001
0110
0000
2000
,  // measure 36
0000
0000
3000
0000
0000
1000
0100
1000
0000
0000
0000
0000
0000
0000
0010
0000
,  // measure 37
0000
0100
0000
0001
0000
1000
0000
0002
,  // measure 38
0000
0000
0003
0000
0000
0001
0100
0001
0000
0000
1000
0000
0000
0000
0100
0000
,  // measure 39
0000
0010
0000
1000
0000
0001
0000
1000
,  // measure 40
0000
0100
0000
0010
0000
0100
0000
1000
,  // measure 41
0000
0010
0000
0001
0000
0100
0000
0001
,  // measure 42
0000
1000
0000
0010
0000
0100
0000
0001
,  // measure 43
0000
1000
0000
0010
0000
1000
0000
2000
,  // measure 44
0000
0000
3000
0000
0000
1000
0010
1000
0000
0000
0000
0000
0000
0000
1000
0000
,  // measure 45
0000
0100
0000
0001
0000
0010
0000
0002
,  // measure 46
0000
0000
0003
0000
0000
0001
0010
0001
0000
0000
0001
0000
0000
0000
0010
0000
,  // measure 47
0000
0001
0000
0010
0000
1000
0000
0010
,  // measure 48
0000
1000
0000
0010
0000
0100
0000
0001
,  // measure 49
0000
0100
0000
0001
0000
1000
0000
0100
,  // measure 50
0000
1000
0000
0100
0000
1000
0000
2002
,  // measure 51
0000
0000
0000
0000
0000
3003
0000
1000
,  // measure 52
0100
1000
0001
0100
0001
0010
0001
0010
,  // measure 53
0100
0010
0100
1000
0001
0010
0100
0001
,  // measure 54
1000
0001
1000
0100
1000
0001
0100
0010
,  // measure 55
0001
1000
0001
1000
0100
0010
0100
0010
,  // measure 56
1000
0001
1000
0100
0010
0100
1000
0100
,  // measure 57
0010
0001
1000
0100
0010
0001
1000
0100
,  // measure 58
0001
1000
0100
0010
0001
0010
0001
1000
,  // measure 59
0100
1000
0100
1000
0001
1000
0001
1001
,  // measure 60
0000
1000
0000
0001
0000
1000
0000
0100
,  // measure 61
0000
0001
0000
0100
0000
0010
0000
1000
,  // measure 62
0000
0001
0000
0100
0000
0001
0000
2000
,  // measure 63
0000
0000
3000
0100
1000
0001
0010
0110
;
