#TITLE:Ub3R R4vE;
#SUBTITLE:8-Arrowed;
#ARTIST:Rage;
#TITLETRANSLIT:;
#SUBTITLETRANSLIT:;
#ARTISTTRANSLIT:;
#CREDIT:;
#BANNER:Ub3rR4v3-bn.png;
#BACKGROUND:Ub3rR4v3-bg.png;
#LYRICSPATH:;
#CDTITLE:!IzzyTitle.png;
#MUSIC:rage_Ub3R-R4vE!.mp3;
#OFFSET:-0.040;
#SAMPLESTART:90.500;
#SAMPLELENGTH:11.980;
#SELECTABLE:YES;
#BPMS:0.000=175.000;
#STOPS:;
#BGCHANGES:;
// cache tags:
#FIRSTBEAT:0.000;
#LASTBEAT:388.000;
#SONGFILENAME:Songs/Izzy's 8-Arrowed Pack Volume 1/Ub3r R4ve/uberrave.sm;
#HASMUSIC:1;
#HASBANNER:1;
#MUSICLENGTH:133.075;
// end cache tags

//---------------dance-double - Ub3r R4v3 EXPERT----------------
#NOTES:
     dance-double:
     Ub3r R4v3 EXPERT:
     Hard:
     15:
     1.000,1.000,1.000,0.150,1.000,1448.000,1421.000,20.000,0.000,15.000:
10001000
01000100
00100010
00010001
10000100
00010010
01001000
00010100
01001000
00100001
10000100
00100001
10000100
01000010
10001000
00100010
,
10001000
00010100
10001000
01000010
10001000
00010001
00101000
01000100
00101000
00010001
10000010
01000100
00100010
01000001
00101000
00010100
,
10000010
01000100
00100010
00010001
10001000
01000100
00100010
00010001
10001000
01000100
10000010
00010001
00101000
01000100
10001000
00010001
,
10000010
01000100
00101000
00010001
00101000
01000100
10000010
00010001
10000010
00100100
01001000
00010001
10001000
01000010
00100100
00010001
,
10001000
01000100
10000010
00010001
01001000
00010100
01001000
00100001
10000100
00100001
10000100
01000010
00101000
00010010
10001000
01000100
,
00100010
01000001
10001000
01000100
00100010
00010100
00101000
01000100
00100010
00010001
00100010
01000100
10000010
00100001
10000010
00100100
,
01001000
00010010
10001000
01000010
00100100
00010001
00101000
00010100
10000010
01000001
00100010
00010001
01001000
00010100
01000010
00100001
,
01000100
00010001
01000100
00100010
01000100
00010001
00100100
01000010
10000100
00010001
10000010
00010100
10001000
01000001
00101000
00010001
,
10001000
01000100
00100010
00010001
10001000
01000100
10000010
00010001
01001000
00010100
01001000
00100001
10000100
00100001
10000100
01000010
,
00101000
01000010
10001000
01000100
00100010
00010100
10001000
00100100
10000010
00100001
10001000
01000010
10001000
00010010
10001000
00100100
,
10001000
01000001
10001000
00010010
10001000
01000100
00101000
00010001
00101000
01000100
10000010
00100001
01000010
00100100
10001000
01000010
,
10000100
00010010
01001000
00100100
10001000
00010001
01000100
00100010
10001000
01000001
00100100
00010010
10001000
01000100
00100010
00010001
,
10001000
01000100
00100010
00010001
00101000
01000100
10000010
00100001
01000010
00010100
10001000
00100010
01000100
00010001
10001000
00100010
,
01000100
00010001
01001000
00010010
10000100
01000001
00100100
00010001
00101000
01000100
10000010
01000001
10000010
00100100
01001000
00010100
,
10001000
00010010
00100100
01000001
10001000
00010001
01000010
00100100
01001000
00010001
10000100
00100010
01000100
00010001
10001000
01000010
,
00100100
00010001
10001000
00010100
00100010
01000001
10001000
00100001
01000010
00010100
10001000
00100010
01000100
00010001
10001000
00010010
,
00100100
01000001
10001000
00010001
00100010
01000100
10001000
00100001
01000010
00100100
10001000
00010010
01000100
00100010
10001000
00010001
,
01000100
00100010
10001000
01000001
00100100
00010010
10001000
00100100
01000010
00010001
10001000
00100010
01000100
00010001
00101000
01000010
,
10000100
01000001
00100010
00010100
10001000
01000100
00100010
00010001
01001000
00100100
01000010
00100001
10000100
01000010
00100100
00010010
,
10001000
01000100
00100010
00010001
10001000
01000100
00100010
00010001
10001000
00100100
01000010
00010001
10001000
00100010
01000100
00010001
,
10001000
00100010
10000100
00100001
01001000
00010010
01001000
00010010
10000100
00100001
01000100
00010001
10001000
00100010
01000100
00010001
,
10001000
01000010
00100100
00010001
10001000
00100100
01000010
00010001
10001000
00010010
00100100
01000001
10001000
01000001
00100010
00010100
,
01001000
00100100
01000010
00010001
01000100
00010010
01000100
00100001
10000100
00100001
10000100
01000010
10001000
00010010
10001000
00100100
,
10001000
00010001
10001000
00100010
10001000
00010001
10001000
01000010
00101000
00010001
10001000
00010100
01000010
00100001
10001000
00010001
,
10000100
00010010
10001000
00100001
01001000
00100001
10001000
00010010
00100100
01000010
10001000
00010001
00100010
01000100
10001000
00010001
,
01000010
00100100
10001000
00010001
10000100
00010010
10001000
01000001
10001000
00100001
10001000
00010100
10001000
00100010
10001000
00100001
,
01001000
00010010
01001000
00010010
10000100
00010001
00100100
01000001
10001000
00010001
10000010
01000100
00101000
01000001
10001000
00010100
,
00100010
01000100
10001000
00010001
10000010
01000100
00101000
00010001
10001000
01000100
10000010
00010001
01001000
00010100
01001000
00100001
,
10000100
00010001
00100100
00010010
10001000
00100001
01000010
00010001
00101000
01000010
10000100
00010001
10000010
01000100
00101000
00010001
,
10001000
01000100
00100010
00010001
10001000
00010100
00100010
01000001
10001000
00010001
00100010
01000100
10001000
00010001
00100010
00010100
,
10001000
01000001
10000010
00100001
01001000
00010100
10001000
00100010
01000100
00010001
10001000
00100010
01000100
00010001
10001000
00010010
,
00100100
01000001
10001000
00100001
01000010
00100100
10001000
00010010
10000100
00100010
01001000
00010001
10001000
00100010
10000100
01000001
,
10001000
00100010
01001000
00010100
10001000
00100010
01000100
00010001
10001000
00010010
00100100
01000001
10001000
00010001
00100010
01000100
,
10001000
00100001
01000010
00010100
00101000
01000010
10000100
00100001
01000010
00010100
00101000
01000010
10000100
00100001
01000010
00010100
,
10001000
00100010
01000100
00010001
10001000
00010010
00100100
01000001
10001000
00010001
10000010
01000100
00101000
00010001
00101000
01000100
,
10000010
01000001
00100010
00010100
01001000
00100100
10000010
00100001
01000100
00010010
10001000
01000010
10000100
00100001
10001000
00100100
,
10001000
00010010
01001000
00010010
01001000
00100001
10000100
00100001
10000100
00010010
01001000
00100010
10001000
00010001
00100100
01000010
,
10001000
01000001
00100010
00010100
01001000
00100100
10000010
00100001
01000100
00010010
10001000
01000010
10000100
00100001
10001000
00100100
,
10001000
00010010
01001000
00010010
01001000
00100001
10000100
00100001
10000100
00010010
01001000
00100010
10001000
00010001
10000100
00100010
,
10001000
00010001
01001000
00010010
10001000
00100001
01000100
00010001
10001000
00100010
10000100
00010001
10001000
00010010
00101000
01000001
,
10001000
01000001
00100010
00010100
01001000
00100100
10000010
00100001
01000100
00010010
10001000
01000010
10000100
00100001
10001000
00100100
,
10001000
00010010
01001000
00010010
01001000
00100001
10000100
00100001
10000100
00010010
01001000
00100010
10001000
00010001
01000100
00100010
,
10001000
00010001
10000100
00100010
10001000
00010001
01001000
00010010
10001000
00100001
01000100
00010001
10001000
00100010
10000100
00010001
,
10001000
00010010
00101000
01000001
10001000
01000001
00100010
00010100
01001000
00100100
10000010
00100001
01000100
00010010
10001000
01000010
,
10000100
00100001
10001000
00100100
10001000
00010010
01001000
00010010
01001000
00100001
10000100
00100001
10000100
00010010
01001000
00100010
,
10001000
01000001
00100100
00010010
10001000
01000100
00100010
00010001
10001000
01000100
00100010
00010001
10001000
00010100
01000010
00100001
,
10001000
00010001
01000100
00100010
10001000
00010001
01000100
00100010
10001000
00010001
01000100
00100010
10001000
01000001
00100100
00010010
,
10001000
00100100
01000010
00010001
01001000
00010010
10000100
00100001
10000100
00100001
10001000
01000010
00101000
00010010
10001000
01000100
,
10000010
01000001
10001000
00010100
01001000
00010100
01001000
00010001
10000100
00100001
10000100
00010001
00101000
00010010
00101000
00010001
,
10000010
01000001
00100010
00010001
01001000
00100100
10000010
00010001
01000100
00100010
10001000
01000001
00100100
00010010
01001000
00100100
,
10000010
00010001
01000100
00100010
10001000
00010001
01000100
00100010
10001000
00100001
01000100
00010010
00101000
01000010
10000100
01000001
,
00100010
00010100
10001000
01000100
00100010
01000001
10001000
01000100
00100010
00010100
10001000
01000100
00100010
00010001
00101000
01000100
,
00100010
00010001
10000010
00100100
10000010
00100001
01001000
00010010
10001000
01000010
10000100
01000001
00101000
00010100
00101000
01000100
,
10001000
00010100
10000010
01000001
10000010
01000001
10001000
00010100
01001000
00010100
01001000
00100001
10000100
00100001
01000100
00010010
,
10001000
00100010
01000100
00010001
10001000
00010010
00100100
01000001
10001000
00010001
00100010
01000100
10001000
01000001
00100010
00010100
,
01001000
00100100
01000010
00010001
00100100
01000010
10000100
00010001
00100010
01000100
10001000
00010001
10000010
01000100
00101000
00010001
,
11001100
00000010
00001100
00000010
00000022
00000033
00001000
00000100
,
00000202
00000000
00000000
00000303
00001000
00000100
00000010
00000001
,
00002002
00000000
00000000
00000000
00000000
00010000
10000000
00010000
,
20020000
00000000
00000000
00000000
00000000
00000000
00000000
30033003
,
00001100
00000010
00001100
00000010
00000022
00000033
00001000
00000100
,
00000202
00000000
00000000
00000303
00001000
00000100
00000010
00000001
,
00002002
00000000
00000000
00000000
00000000
00010000
10000000
00010000
,
20020000
00000000
00000000
00000000
00000000
00000000
00000000
30033003
,
00011000
00100100
00011000
00100100
00011000
00100100
01000010
10000001
00011000
10000001
00100100
01000010
00011000
10000001
01000010
00100100
,
00011000
10000001
00011000
01000010
00100100
10000001
00011000
01000010
00100100
10000001
00011000
01000010
00100100
10000001
00011000
10000001
,
00100100
01000010
00011000
10000001
00100100
01000010
00011000
01000010
00100100
10000001
00011000
01000010
00100100
01000010
00011000
10000001
,
00100100
10000001
00011000
01000010
00100100
10000001
00011000
10000001
00100100
01000010
00011000
10000001
00100100
01000010
00011000
10000001
,
00100100
01000010
00011000
10000001
01000010
00100100
00011000
00100100
01000010
10000001
00011000
01000010
00100100
10000001
00011000
10000001
,
00100100
01000010
00011000
10000001
00100100
01000010
00011000
10000001
00100100
01000010
00011000
10000001
00100100
01000010
00011000
10000001
,
01000010
10000001
00100100
01000010
00011000
00100100
00011000
01000010
00100100
10000001
01000010
10000001
00100100
01000010
00011000
10000001
,
01000010
00100100
00011000
10000001
00011000
10000001
00100100
01000010
00011000
10000001
01000010
00100100
00011000
01000010
00100100
10000001
,
00011000
10000001
00100100
01000010
00011000
10000001
00100100
01000010
00011000
10000001
00100100
01000010
00011000
10000001
00011000
00100100
,
00011000
10000001
00011000
01000010
00011000
10000001
00100100
01000010
00011000
10000001
00100100
01000010
00011000
10000001
00011000
10000001
,
00100100
01000010
00011000
10000001
00100100
01000010
00011000
10000001
00100100
01000010
00011000
10000001
00100100
01000010
00011000
01000010
,
00011000
10000001
01000010
00100100
00011000
10000001
00100100
01000010
00011000
10000001
01000010
00100100
00011000
10000001
00100100
01000010
,
00011000
10000001
00100100
01000010
00011000
10000001
00100100
01000010
00011000
10000001
00100100
01000010
00011000
01000010
00011000
00100100
,
01000010
10000001
00100100
01000010
00011000
00100100
01000010
10000001
00100100
01000010
00011000
00100100
01000010
10000001
00100100
01000010
,
00011000
01000010
00100100
01000010
00011000
10000001
01000010
00100100
00011000
01000010
00100100
01000010
00011000
10000001
01000010
00100100
,
00011000
01000010
00100100
01000010
00011000
10000001
01000010
00100100
00011000
00100100
01000010
10000001
00011000
01000010
00100100
10000001
,
00100100
10000001
00011000
01000010
00100100
10000001
00011000
00100100
00011000
01000010
00100100
10000001
00100100
10000001
00011000
01000010
,
00100100
10000001
00011000
00100100
00011000
01000010
00100100
10000001
01000010
10000001
00011000
10000001
00100100
01000010
00011000
10000001
,
01000010
00100100
00011000
01000010
00100100
01000010
00011000
00100100
00011000
10000001
01000010
00100100
00011000
10000001
01000010
10000001
,
00011000
01000010
00011000
10000001
00100100
01000010
00011000
00100100
00011000
10000001
01000010
10000001
00011000
01000010
00100100
10000001
,
00011000
00100100
00011000
01000010
00011000
10000001
00011000
01000010
00100100
10000001
00011000
10000001
01000010
00100100
00011000
00100100
,
01000010
10000001
00011000
10000001
00100100
01000010
00011000
10000001
00100100
01000010
00011000
10000001
00100100
01000010
00011000
00100100
,
01000010
10000001
00011000
10000001
00100100
01000010
00100100
10000001
00011000
00100100
01000010
10000001
00011000
01000010
00100100
01000010
,
00011000
00100100
00011000
10000001
00100100
01000010
00011000
10000001
00100100
01000010
00011000
10000001
00100100
01000010
00100100
10000001
,
00011000
00100100
01000010
10000001
00011000
01000010
00100100
10000001
00011000
01000010
00100100
10000001
01000010
10000001
00011000
00100100
,
00011000
10000001
01000010
00100100
00011000
10000001
00100100
01000010
00011000
01000010
00011000
10000001
01000010
00100100
00011000
01000010
,
00100100
10000001
00011000
10000001
00011000
01000010
00100100
10000001
01000010
10000001
00100100
01000010
00011000
00100100
00011000
10000001
,
00100100
01000010
00011000
10000001
00100100
01000010
00011000
10000001
01000010
00100100
00011000
10000001
00100100
01000010
00011000
00100100
,
01000010
00100100
00011000
10000001
00100100
01000010
00011000
10000001
01000010
10000001
00011000
01000010
00100100
10000001
00100100
01000010
,
00011000
00100100
01000010
10000001
00011000
01000010
00100100
10000001
00100100
01000010
00011000
00100100
00011000
10000001
00100100
10000001
,
00011000
01000010
00100100
10000001
00011000
00100100
01000010
10000001
00011000
01000010
00100100
10000001
01000010
00100100
00011000
10000001
,
00100100
01000010
00011000
01000010
00100100
10000001
00011000
01000010
00100100
10000001
00011000
01000010
00100100
10000001
00011000
10000010
,
20022102
00000000
00000000
00000000
00000100
00000000
00000000
00000000
00000000
00000100
00000000
00000000
00000000
00000100
00000000
00000000
00000000
00000100
00000000
00000000
00000000
00000000
00000100
00000000
,
30033003
00000000
00000000
00000000
;

//---------------dance-double - Ub3r R4ve----------------
#NOTES:
     dance-double:
     Ub3r R4ve:
     Medium:
     12:
     1.000,1.000,1.000,0.150,0.000,739.000,717.000,20.000,0.000,10.000:
00011000
01000010
00100100
00011000
10000001
00100100
00100100
00011000
,
00011000
10000001
00011000
10000001
00011000
01000010
01000010
00011000
,
10000001
01000010
00011000
01000010
00011000
10000001
00011000
00011000
,
01000010
10000001
00011000
01000010
01000010
00011000
00011000
10000001
,
10000001
01000010
00011000
00011000
10000001
00100100
00011000
00011000
,
10000001
00011000
01000010
00011000
01000010
01000010
10000001
10000001
,
00011000
00011000
00100100
00011000
01000010
10000001
00011000
01000010
,
00100100
00100100
10000001
00100100
00100100
10000001
00011000
00011000
,
00011000
10000001
00011000
01000010
00011000
00011000
00100100
10000001
,
00011000
00011000
01000010
10000001
01000010
00011000
00011000
00011000
,
10000001
01000010
00011000
10000001
00011000
01000010
10000001
00011000
,
00100100
00011000
10000001
00100100
00011000
00100100
00011000
01000010
,
00011000
10000001
00011000
01000010
01000010
00011000
10000001
00011000
,
00100100
00011000
00100100
10000001
00011000
01000010
01000010
00011000
,
10000001
00100100
00011000
01000010
00011000
10000001
00100100
00011000
,
00100100
00011000
01000010
00011000
10000001
00011000
00100100
00011000
,
10000001
00011000
01000010
00011000
01000010
10000001
00100100
00011000
,
10000001
00011000
00100100
10000001
01000010
00011000
00100100
00011000
,
10000001
01000010
00011000
01000010
00011000
10000001
00100100
00100100
,
00011000
10000001
00011000
01000010
00011000
10000001
00011000
00100100
,
00011000
10000001
00011000
00011000
00100100
10000001
00011000
00100100
,
00011000
01000010
00011000
01000010
00011000
10000001
00011000
01000010
,
00011000
10000001
00100100
00100100
00100100
10000001
00011000
00100100
,
01000010
10000001
01000010
00100100
10000001
00011000
01000010
00011000
,
00100100
00011000
10000001
00011000
00100100
00011000
01000010
00011000
,
10000001
00011000
00100100
00011000
10000001
00011000
00011000
00011000
,
01000010
10000001
00100100
00100100
00011000
01000010
10000001
00011000
,
01000010
00011000
01000010
00011000
00011000
01000010
00011000
00011000
,
10000001
00100100
00011000
01000010
00011000
10000001
01000010
00011000
,
00011000
10000001
00011000
01000010
00011000
01000010
10000001
10000001
,
00011000
01000010
00011000
10000001
00100100
00011000
00100100
00011000
,
10000001
00011000
01000010
00011000
10000001
00011000
00011000
00100100
,
00011000
10000001
00011000
00100100
00011000
00100100
00011000
10000001
,
00011000
01000010
00011000
10000001
01000010
00011000
00100100
10000001
,
00011000
00100100
00011000
10000001
00011000
01000010
00011000
10000001
,
01000010
01000010
00011000
01000010
10000001
00011000
00100100
00011000
,
00011000
10000001
00011000
00100100
10000001
00011000
00011000
00100100
,
10000001
01000010
00011000
01000010
10000001
00011000
00100100
00011000
,
10000001
00011000
00011000
10000001
00100100
00011000
10000001
00100100
,
00011000
10000001
00011000
00100100
00011000
10000001
00011000
00011000
,
10000001
10000001
00011000
01000010
10000001
00011000
00100100
10000001
,
00011000
00011000
00011000
10000001
00100100
00011000
10000001
00100100
,
01000010
10000001
00011000
00011000
10000001
01000010
00011000
00100100
,
01000010
10000001
00100100
10000001
00011000
01000010
00100100
00011000
,
10000001
00011000
10000001
00011000
01000010
00100100
01000010
00011000
,
10000001
00100100
00011000
10000001
00011000
01000010
10000001
01000010
,
00011000
00100100
10000001
00100100
00011000
10000001
00011000
01000010
,
10000001
01000010
00011000
10000001
00100100
00011000
10000001
00011000
,
01000010
10000001
00011000
00011000
10000001
00100100
00011000
10000001
,
01000010
00100100
00011000
01000010
10000001
00011000
00100100
00011000
,
10000001
00100100
00011000
10000001
00011000
00100100
00011000
10000001
,
01000010
00011000
10000001
00100100
01000010
00011000
10000001
01000010
,
01000010
00100100
10000001
00011000
10000001
00100100
00011000
10000001
,
00011000
01000010
00011000
00011000
10000001
00011000
01000010
00100100
,
00011000
10000001
00011000
00100100
00011000
10000001
00011000
01000010
,
10000001
01000010
00100100
10000001
10000001
01000010
00100100
00011000
,
11001100
00000010
00001100
00000010
00000022
00000033
00001000
00000100
,
00000202
00000000
00000000
00000303
00001000
00000100
00000010
00000001
,
00002002
00000000
00000000
00000000
00000000
00010000
10000000
00010000
,
20020000
00000000
00000000
00000000
00000000
00000000
00000000
30033003
,
00001100
00000010
00001100
00000010
00000022
00000033
00001000
00000100
,
00000202
00000000
00000000
00000303
00001000
00000100
00000010
00000001
,
00002002
00000000
00000000
00000000
00000000
00010000
10000000
00010000
,
20020000
00000000
00000000
00000000
00000000
00000000
00000000
30033003
,
00011000
01000010
00100100
00011000
10000001
00100100
00100100
00011000
,
00011000
10000001
00011000
10000001
00011000
01000010
01000010
00011000
,
10000001
01000010
00011000
01000010
00011000
10000001
00011000
00011000
,
01000010
10000001
00011000
01000010
01000010
00011000
00011000
10000001
,
10000001
01000010
00011000
00011000
10000001
00100100
00011000
00011000
,
10000001
00011000
01000010
00011000
01000010
01000010
10000001
10000001
,
00011000
00011000
00100100
00011000
01000010
10000001
00011000
01000010
,
00100100
00100100
10000001
00100100
00100100
10000001
00011000
00011000
,
00011000
10000001
00011000
01000010
00011000
00011000
00100100
10000001
,
00011000
00011000
01000010
10000001
01000010
00011000
00011000
00011000
,
10000001
01000010
00011000
10000001
00011000
01000010
10000001
00011000
,
00100100
00011000
10000001
00100100
00011000
00100100
00011000
01000010
,
00011000
10000001
00011000
01000010
01000010
00011000
10000001
00011000
,
00100100
00011000
00100100
10000001
00011000
01000010
01000010
00011000
,
10000001
00100100
00011000
01000010
00011000
10000001
00100100
00011000
,
00100100
00011000
01000010
00011000
10000001
00011000
00100100
00011000
,
10000001
00011000
01000010
00011000
01000010
10000001
00100100
00011000
,
10000001
00011000
00100100
10000001
01000010
00011000
00100100
00011000
,
10000001
01000010
00011000
01000010
00011000
10000001
00100100
00100100
,
00011000
10000001
00011000
01000010
00011000
10000001
00011000
00100100
,
00011000
10000001
00011000
00011000
00100100
10000001
00011000
00100100
,
00011000
01000010
00011000
01000010
00011000
10000001
00011000
01000010
,
00011000
10000001
00100100
00100100
00100100
10000001
00011000
00100100
,
01000010
10000001
01000010
00100100
10000001
00011000
01000010
00011000
,
00100100
00011000
10000001
00011000
00100100
00011000
01000010
00011000
,
10000001
00011000
00100100
00011000
10000001
00011000
00011000
00011000
,
01000010
10000001
00100100
00100100
00011000
01000010
10000001
00011000
,
01000010
00011000
01000010
00011000
00011000
01000010
00011000
00011000
,
10000001
00100100
00011000
01000010
00011000
10000001
01000010
00011000
,
00011000
10000001
00011000
01000010
00011000
01000010
10000001
10000001
,
00011000
01000010
00011000
10000001
00100100
00011000
00100100
00011000
,
10000001
00011000
01000010
00011000
10000001
00011000
00011000
00100100
,
20022002
00000000
00000000
00000000
00000000
00000000
00000000
30033003
;

//---------------dance-double - Ub3r R4ve----------------
#NOTES:
     dance-double:
     Ub3r R4ve:
     Easy:
     10:
     1.000,1.000,1.000,0.150,0.000,739.000,717.000,20.000,0.000,10.000:
10001000
00100010
01000100
10001000
00010001
01000100
01000100
10001000
,
10001000
00010001
10001000
00010001
10001000
00100010
00100010
10001000
,
00010001
00100010
10001000
00100010
10001000
00010001
10001000
10001000
,
00100010
00010001
10001000
00100010
00100010
10001000
10001000
00010001
,
00010001
00100010
10001000
10001000
00010001
01000100
10001000
10001000
,
00010001
10001000
00100010
10001000
00100010
00100010
00010001
00010001
,
10001000
10001000
01000100
10001000
00100010
00010001
10001000
00100010
,
01000100
01000100
00010001
01000100
01000100
00010001
10001000
10001000
,
10001000
00010001
10001000
00100010
10001000
10001000
01000100
00010001
,
10001000
10001000
00100010
00010001
00100010
10001000
10001000
10001000
,
00010001
00100010
10001000
00010001
10001000
00100010
00010001
10001000
,
01000100
10001000
00010001
01000100
10001000
01000100
10001000
00100010
,
10001000
00010001
10001000
00100010
00100010
10001000
00010001
10001000
,
01000100
10001000
01000100
00010001
10001000
00100010
00100010
10001000
,
00010001
01000100
10001000
00100010
10001000
00010001
01000100
10001000
,
01000100
10001000
00100010
10001000
00010001
10001000
01000100
10001000
,
00010001
10001000
00100010
10001000
00100010
00010001
01000100
10001000
,
00010001
10001000
01000100
00010001
00100010
10001000
01000100
10001000
,
00010001
00100010
10001000
00100010
10001000
00010001
01000100
01000100
,
10001000
00010001
10001000
00100010
10001000
00010001
10001000
01000100
,
10001000
00010001
10001000
10001000
01000100
00010001
10001000
01000100
,
10001000
00100010
10001000
00100010
10001000
00010001
10001000
00100010
,
10001000
00010001
01000100
01000100
01000100
00010001
10001000
01000100
,
00100010
00010001
00100010
01000100
00010001
10001000
00100010
10001000
,
01000100
10001000
00010001
10001000
01000100
10001000
00100010
10001000
,
00010001
10001000
01000100
10001000
00010001
10001000
10001000
10001000
,
00100010
00010001
01000100
01000100
10001000
00100010
00010001
10001000
,
00100010
10001000
00100010
10001000
10001000
00100010
10001000
10001000
,
00010001
01000100
10001000
00100010
10001000
00010001
00100010
10001000
,
10001000
00010001
10001000
00100010
10001000
00100010
00010001
00010001
,
10001000
00100010
10001000
00010001
01000100
10001000
01000100
10001000
,
00010001
10001000
00100010
10001000
00010001
10001000
10001000
01000100
,
10001000
00010001
10001000
01000100
10001000
01000100
10001000
00010001
,
10001000
00100010
10001000
00010001
00100010
10001000
01000100
00010001
,
10001000
01000100
10001000
00010001
10001000
00100010
10001000
00010001
,
00100010
00100010
10001000
00100010
00010001
10001000
01000100
10001000
,
10001000
00010001
10001000
01000100
00010001
10001000
10001000
01000100
,
00010001
00100010
10001000
00100010
00010001
10001000
01000100
10001000
,
00010001
10001000
10001000
00010001
01000100
10001000
00010001
01000100
,
10001000
00010001
10001000
01000100
10001000
00010001
10001000
10001000
,
00010001
00010001
10001000
00100010
00010001
10001000
01000100
00010001
,
10001000
00010001
10001000
00010001
01000100
10001000
00010001
01000100
,
00100010
00010001
10001000
10001000
00010001
00100010
10001000
01000100
,
00100010
00010001
01000100
00010001
10001000
00100010
01000100
10001000
,
00010001
10001000
00010001
10001000
00100010
01000100
00100010
10001000
,
00010001
01000100
10001000
00010001
10001000
00100010
00010001
00100010
,
10001000
01000100
00010001
01000100
10001000
00010001
10001000
00100010
,
00010001
00100010
10001000
00010001
01000100
10001000
00010001
10001000
,
00100010
00010001
10001000
10001000
00010001
01000100
10001000
00010001
,
00100010
01000100
10001000
00100010
00010001
10001000
01000100
10001000
,
00010001
01000100
10001000
00010001
10001000
01000100
10001000
00010001
,
00100010
10001000
00010001
01000100
00100010
10001000
00010001
00100010
,
00100010
01000100
00010001
10001000
00010001
01000100
10001000
00010001
,
10001000
00100010
10001000
10001000
00010001
10001000
00100010
01000100
,
10001000
00010001
10001000
01000100
10001000
00010001
10001000
00100010
,
00010001
00100010
01000100
00010001
00010001
00100010
01000100
10001000
,
11001100
00000010
00001100
00000010
00000022
00000033
00001000
00000100
,
00000202
00000000
00000000
00000303
00001000
00000100
00000010
00000001
,
00002002
00000000
00000000
00000000
00000000
00010000
10000000
00010000
,
20020000
00000000
00000000
00000000
00000000
00000000
00000000
30033003
,
00001100
00000010
00001100
00000010
00000022
00000033
00001000
00000100
,
00000202
00000000
00000000
00000303
00001000
00000100
00000010
00000001
,
00002002
00000000
00000000
00000000
00000000
00010000
10000000
00010000
,
20020000
00000000
00000000
00000000
00000000
00000000
00000000
30033003
,
10001000
00100010
01000100
10001000
00010001
01000100
01000100
10001000
,
10001000
00010001
10001000
00010001
10001000
00100010
00100010
10001000
,
00010001
00100010
10001000
00100010
10001000
00010001
10001000
10001000
,
00100010
00010001
10001000
00100010
00100010
10001000
10001000
00010001
,
00010001
00100010
10001000
10001000
00010001
01000100
10001000
10001000
,
00010001
10001000
00100010
10001000
00100010
00100010
00010001
00010001
,
10001000
10001000
01000100
10001000
00100010
00010001
10001000
00100010
,
01000100
01000100
00010001
01000100
01000100
00010001
10001000
10001000
,
10001000
00010001
10001000
00100010
10001000
10001000
01000100
00010001
,
10001000
10001000
00100010
00010001
00100010
10001000
10001000
10001000
,
00010001
00100010
10001000
00010001
10001000
00100010
00010001
10001000
,
01000100
10001000
00010001
01000100
10001000
01000100
10001000
00100010
,
10001000
00010001
10001000
00100010
00100010
10001000
00010001
10001000
,
01000100
10001000
01000100
00010001
10001000
00100010
00100010
10001000
,
00010001
01000100
10001000
00100010
10001000
00010001
01000100
10001000
,
01000100
10001000
00100010
10001000
00010001
10001000
01000100
10001000
,
00010001
10001000
00100010
10001000
00100010
00010001
01000100
10001000
,
00010001
10001000
01000100
00010001
00100010
10001000
01000100
10001000
,
00010001
00100010
10001000
00100010
10001000
00010001
01000100
01000100
,
10001000
00010001
10001000
00100010
10001000
00010001
10001000
01000100
,
10001000
00010001
10001000
10001000
01000100
00010001
10001000
01000100
,
10001000
00100010
10001000
00100010
10001000
00010001
10001000
00100010
,
10001000
00010001
01000100
01000100
01000100
00010001
10001000
01000100
,
00100010
00010001
00100010
01000100
00010001
10001000
00100010
10001000
,
01000100
10001000
00010001
10001000
01000100
10001000
00100010
10001000
,
00010001
10001000
01000100
10001000
00010001
10001000
10001000
10001000
,
00100010
00010001
01000100
01000100
10001000
00100010
00010001
10001000
,
00100010
10001000
00100010
10001000
10001000
00100010
10001000
10001000
,
00010001
01000100
10001000
00100010
10001000
00010001
00100010
10001000
,
10001000
00010001
10001000
00100010
10001000
00100010
00010001
00010001
,
10001000
00100010
10001000
00010001
01000100
10001000
01000100
10001000
,
00010001
10001000
00100010
10001000
00010001
10001000
10001000
01000100
,
20022002
00000000
00000000
00000000
00000000
00000000
00000000
30033003
;

//---------------dance-double - Ub3r R4ve----------------
#NOTES:
     dance-double:
     Ub3r R4ve:
     Beginner:
     7:
     0.820,0.728,1.000,0.150,0.000,373.000,367.000,20.000,0.000,6.000:
10001000
01000100
00010001
01000100
,
10001000
10001000
10001000
00100010
,
00010001
10001000
10001000
10001000
,
00100010
10001000
00100010
10001000
,
00010001
10001000
00010001
10001000
,
00010001
00100010
00100010
00010001
,
10001000
01000100
00100010
10001000
,
01000100
00010001
01000100
10001000
,
10001000
10001000
10001000
01000100
,
10001000
00100010
00100010
10001000
,
00010001
10001000
10001000
00010001
,
01000100
00010001
10001000
10001000
,
10001000
10001000
00100010
00010001
,
01000100
01000100
10001000
00100010
,
00010001
10001000
10001000
01000100
,
01000100
00100010
00010001
01000100
,
00010001
00100010
00100010
01000100
,
00010001
01000100
00100010
01000100
,
00010001
10001000
10001000
01000100
,
10001000
10001000
10001000
10001000
,
10001000
10001000
01000100
10001000
,
10001000
10001000
10001000
10001000
,
10001000
01000100
01000100
10001000
,
00100010
00100010
00010001
00100010
,
01000100
00010001
01000100
00100010
,
00010001
01000100
00010001
10001000
,
00100010
01000100
10001000
00010001
,
00100010
00100010
10001000
10001000
,
00010001
10001000
10001000
00100010
,
10001000
10001000
10001000
00010001
,
10001000
10001000
01000100
01000100
,
00010001
00100010
00010001
10001000
,
10001000
10001000
10001000
10001000
,
10001000
10001000
00100010
01000100
,
10001000
10001000
10001000
10001000
,
00100010
10001000
00010001
01000100
,
10001000
10001000
00010001
10001000
,
00010001
10001000
00010001
01000100
,
00010001
10001000
01000100
00010001
,
10001000
10001000
10001000
10001000
,
00010001
10001000
00010001
01000100
,
10001000
10001000
01000100
00010001
,
00100010
10001000
00010001
10001000
,
00100010
01000100
10001000
01000100
,
00010001
00010001
00100010
00100010
,
00010001
10001000
10001000
00010001
,
10001000
00010001
10001000
10001000
,
00010001
10001000
01000100
00010001
,
00100010
10001000
00010001
10001000
,
00100010
10001000
00010001
01000100
,
00010001
10001000
10001000
10001000
,
00100010
00010001
00100010
00010001
,
00100010
00010001
00010001
10001000
,
10001000
10001000
00010001
00100010
,
10001000
10001000
10001000
10001000
,
00010001
01000100
00010001
01000100
,
11001100
00000000
00001100
00000000
00000022
00000033
00001000
00000000
,
00000202
00000000
00000000
00000303
00001000
00000000
00000010
00000000
,
00002002
00000000
00000000
10010000
,
20020000
00000000
00000000
00000000
00000000
00000000
00000000
30033003
,
00001100
00000000
00001100
00000000
00000022
00000033
00001000
00000000
,
00000202
00000000
00000000
00000303
00001000
00000000
00000010
00000000
,
00002002
00000000
00000000
10010000
,
20020000
00000000
00000000
00000000
00000000
00000000
00000000
30033003
,
10001000
01000100
00010001
01000100
,
10001000
10001000
10001000
00100010
,
00010001
10001000
10001000
10001000
,
00100010
10001000
00100010
10001000
,
00010001
10001000
00010001
10001000
,
00010001
00100010
00100010
00010001
,
10001000
01000100
00100010
10001000
,
01000100
00010001
01000100
10001000
,
10001000
10001000
10001000
01000100
,
10001000
00100010
00100010
10001000
,
00010001
10001000
10001000
00010001
,
01000100
00010001
10001000
10001000
,
10001000
10001000
00100010
00010001
,
01000100
01000100
10001000
00100010
,
00010001
10001000
10001000
01000100
,
01000100
00100010
00010001
01000100
,
00010001
00100010
00100010
01000100
,
00010001
01000100
00100010
01000100
,
00010001
10001000
10001000
01000100
,
10001000
10001000
10001000
10001000
,
10001000
10001000
01000100
10001000
,
10001000
10001000
10001000
10001000
,
10001000
01000100
01000100
10001000
,
00100010
00100010
00010001
00100010
,
01000100
00010001
01000100
00100010
,
00010001
01000100
00010001
10001000
,
00100010
01000100
10001000
00010001
,
00100010
00100010
10001000
10001000
,
00010001
10001000
10001000
00100010
,
10001000
10001000
10001000
00010001
,
10001000
10001000
01000100
01000100
,
00010001
00100010
00010001
10001000
,
20022002
00000000
00000000
00000000
00000000
00000000
00000000
30033003
;
