#TITLE:Battle Train;
#SUBTITLE:Hot SOTA mix;
#ARTIST:Sota Fujimori;
#TITLETRANSLIT:;
#SUBTITLETRANSLIT:;
#ARTISTTRANSLIT:;
#CREDIT:Mad Matt;
#BANNER:../Tachyon Gamma-bn.png;
#BACKGROUND:../Tachyon Gamma-bg.png;
#LYRICSPATH:;
#CDTITLE:;
#MUSIC:Battle Train.ogg;
#OFFSET:-0.012;
#SAMPLESTART:52.132;
#SAMPLELENGTH:13.000;
#SELECTABLE:YES;
#DISPLAYBPM:160.000;
#BPMS:0.000=160.000;
#STOPS:;
#BGCHANGES:;
// cache tags:
#FIRSTBEAT:20.000;
#LASTBEAT:396.000;
#SONGFILENAME:Songs/Tachyon Gamma/Battle Train - [Mad Matt]/Battle Train.sm;
#HASMUSIC:1;
#HASBANNER:1;
#MUSICLENGTH:150.423;
// end cache tags

//---------------dance-single - Mad Matt----------------
#NOTES:
     dance-single:
     Mad Matt:
     Challenge:
     13:
     1.000,1.000,0.120,0.126,1.000,1161.000,18.000,19.000,117.000,0.000:

0000
0000
0000
0000
,
0000
0000
0000
0000
,
0000
0000
0000
0000
,
0000
0000
0000
0000
,
0000
0000
0000
0000
,
1001
0000
0000
0000
1000
0000
0100
0000
0010
0000
0000
0000
0100
0000
0000
0000
1000
0000
0010
0000
0100
0000
0010
0000
1000
0000
0001
0000
0010
0000
0100
1000
,
0100
0000
0000
0000
0010
0000
0001
0000
1000
0000
0000
0000
0010
0000
0000
0000
1000
0000
0100
0000
0010
0000
0001
0000
1000
0000
0001
0000
0100
0000
0010
1000
,
0010
0000
0000
0000
0100
0000
0010
0000
1000
0000
0000
0000
0100
0000
0000
0000
1000
0000
0010
0000
0100
0000
0001
0000
1000
0000
0010
0000
0100
0000
0001
1000
,
0001
0000
0000
0000
1000
0000
0001
0000
0010
0000
0000
0000
0100
0000
0000
0000
0010
0000
0001
0000
1000
0000
0010
0000
0100
0000
0001
0000
0100
0000
0010
1000
,
0010
0000
0000
0000
0100
0000
0001
0000
1000
0000
0000
0000
0100
0000
0000
0000
1000
0000
0010
0000
0100
0000
0001
0000
1000
0000
0100
0000
0010
0000
0001
1000
,
0001
0000
0000
0000
0010
0000
0100
0000
1000
0000
0000
0000
0010
0000
0000
0000
1000
0000
0100
0000
0010
0000
0100
0000
1000
0000
0001
0000
0100
0000
0001
1000
,
0004
0000
MMM0
0000
0400
0003
M0MM
0000
,
0040
0000
0000
0000
0300
0000
0000
0000
MM0M
0000
0000
0000
0000
0000
0000
0000
4000
0000
0000
0000
0030
0000
0000
0000
0MMM
0000
0000
0000
3000
0000
0001
0010
,
0001
0000
0000
0000
1000
0000
0001
0000
0100
0000
0000
0000
0010
0000
0000
0000
0100
0000
0001
0000
1000
0000
0100
0000
0010
0000
0100
0000
1000
0000
0001
0100
,
0001
0000
0000
0000
1000
0000
0001
0000
0010
0000
0000
0000
0100
0000
0000
0000
0010
0000
0001
0000
1000
0000
0010
0000
0100
0000
0010
0000
1000
0000
0001
0010
,
0004
0000
MMM0
0000
0040
0003
MM0M
0000
,
0400
0000
0000
0000
0030
0000
0000
0000
M0MM
0000
0000
0000
0000
0000
0000
0000
4000
0000
0000
0000
0300
0000
0000
0000
0MMM
0000
0000
0000
3000
0000
0001
0100
,
0002
0100
0100
0100
,
0040
0000
0003
0000
0400
0000
0000
0330
,
1001
0000
0001
0100
0001
0010
0001
1000
0010
MM0M
0010
0001
1000
0010
1000
0100
,
0010
M00M
0010
0100
0001
0010
0001
1000
0001
0100
0001
0010
0001
1000
0010
1000
,
0100
M00M
0100
0010
1000
0001
0010
0001
0100
M0MM
0100
0010
0001
1000
0010
1000
,
0100
M00M
0100
0001
1000
0100
0010
0001
1000
0001
0010
0100
1000
0010
1000
0100
,
0010
M00M
0010
0100
0001
0010
0001
1000
0010
MM0M
0010
0100
1000
0010
1000
0001
,
0010
M00M
0010
1000
0001
0010
0001
1000
0001
0100
0010
1000
0001
0010
0001
1000
,
0100
M00M
0100
0010
1000
0100
1000
0001
0100
M0MM
0100
0010
0001
0100
0001
1000
,
0100
M00M
0100
0001
1000
0100
1000
0001
0100
0010
1000
0100
1000
0001
0100
0010
,
1000
0001
1000
0001
0010
0001
0010
0100
0010
0100
1000
0100
1000
0001
1000
0001
,
0100
0001
0100
0010
0100
0010
1000
0010
1000
0001
1000
0001
0010
0001
0010
0100
,
1000
0000
0000
0001
0000
0000
0100
0000
0000
0001
0000
0000
1000
0000
0000
0010
0000
0000
1000
0000
0000
0001
0000
0000
0010
0000
0000
0100
0000
0000
1000
0000
0001
0000
0100
0000
0010
0000
1000
0000
0010
0000
0100
0000
0001
0000
1000
0000
,
0100
0000
0000
0010
0000
0000
0100
0000
0000
1000
0000
0000
0001
0000
0100
0000
0001
0000
1000
0000
0010
0000
0100
0000
0001
0000
1000
0000
0100
0000
0010
0000
0001
0000
1000
0000
0001
0000
0010
0000
0100
0000
1000
0000
0001
0000
0100
0000
,
0001
0000
0000
0100
0010
0100
0010
0000
0000
1000
0010
1000
0010
0000
0000
1000
0001
1000
0001
0000
0000
1000
0100
1000
,
0001
0000
0000
0100
0001
0100
0010
0000
0000
1000
0010
1000
0001
0000
0000
0010
0100
1000
0001
0000
0000
1000
0100
0010
,
0001
0000
0000
1000
0001
0100
0010
0000
0000
1000
0010
0100
0001
0000
0000
1000
0100
1000
0100
0000
0000
0010
0100
0010
,
0100
0000
0000
0010
0001
0010
0004
0000
0000
0000
0000
0000
0000
0000
0000
0003
0000
0000
2000
0000
0000
0000
0000
0000
,
3001
0010
0001
0100
0010
1000
0100
1000
0001
0100
0010
1000
0100
1000
0010
0100
,
0001
0010
0001
1000
0100
1000
0010
0100
0001
1000
0010
0100
0001
0010
0001
0100
,
0010
1000
0100
1000
0001
0100
0001
0010
0100
1000
0010
1000
0100
0010
0001
1000
,
0001
0010
0100
1000
0010
0100
0001
0010
0001
0100
0010
1000
0100
1000
0001
0100
,
0010
1000
0100
1000
0001
0100
0010
1000
0010
0100
0001
0010
0100
0010
0001
0100
,
0010
0100
0001
0010
0100
1000
0001
1000
0100
1000
0010
0100
0001
0010
0001
0100
,
0010
1000
0100
1000
0001
0100
0001
0010
0100
1000
0010
1000
0100
0010
0001
0100
,
0001
1000
0100
0010
0001
0100
0010
1000
0100
0010
0001
0100
0010
1000
0100
1000
,
0010
0100
0001
0010
0001
1000
0010
0100
0001
0010
0001
1000
0010
0100
0001
0010
,
0001
1000
0010
0100
0001
0010
0001
1000
0100
1000
0010
1000
0100
0010
0001
0100
,
0010
1000
0100
1000
0001
0100
0010
1000
0100
1000
0010
0100
0001
0010
0001
1000
,
0100
1000
0010
0100
0001
0100
0010
1000
0001
0010
0001
1000
0010
1000
0100
0010
,
0001
0100
0001
0010
0100
1000
0010
0100
0001
0010
0100
0010
0001
0100
0010
1000
,
0100
1000
0010
0100
0001
0010
0001
0100
0010
1000
0100
0010
0001
0100
0001
0010
,
0100
0010
0001
0100
0010
1000
0100
1000
0001
0100
0010
1000
0001
0010
0001
1000
,
0100
1000
0010
0100
0001
0010
0001
0100
0010
1000
0100
1000
0010
0100
0001
1000
,
0200
0000
1000
0000
,
1000
0000
0000
0000
0000
0300
2000
0000
3002
0000
0000
0000
0203
0000
0000
0000
,
0320
0000
0000
0000
0000
0000
0000
0000
0000
0000
0000
0000
0000
0000
0000
0000
0000
0000
0000
0000
0000
0000
0000
0000
0000
0000
0000
0000
0000
0000
0000
0030
2010
0000
0000
0000
0000
0000
0000
0000
0000
0000
0000
0000
0000
0000
0000
0000
0000
0000
0000
0000
0000
0000
0000
0000
0000
0000
0000
0000
0000
0000
0000
3000
,
1200
0000
0000
0000
0000
0000
0000
0000
0000
0000
0000
0000
0000
0000
0000
0000
0000
0000
0000
0000
0000
0000
0000
0000
0000
0000
0000
0000
0000
0000
0000
0300
0120
0000
0000
0000
0000
0000
0000
0000
0000
0000
0000
0000
0000
0000
0000
0030
0010
0002
0000
0000
0000
0000
0000
0000
0000
0000
0000
0000
0000
0003
0000
0000
,
2001
0000
0010
3002
,
0023
0000
0000
0000
0000
0000
0000
0000
0000
0000
0000
0000
0000
0000
0000
0000
0230
0000
0000
0000
0000
0000
0000
0000
0000
0000
0000
0000
0000
0000
0000
0000
0320
0000
0000
0000
0000
0000
0000
0000
0000
0000
0000
0000
0000
0000
0000
0000
0032
0000
0000
0000
0000
0000
0000
0000
0000
0000
0000
0000
0000
0000
0000
0003
,
0011
1001
1010
0110
,
1100
0011
1100
0011
1100
0000
0020
0000
,
1030
0100
1000
0010
0100
0001
0010
0001
0100
0010
1000
0100
1000
0010
0100
0001
,
0010
0001
1000
0100
1000
0010
0100
0001
1000
0001
0010
0100
1000
0010
1000
0100
,
1000
0010
0100
0001
0010
0001
1000
0100
0010
0001
1000
0001
0010
0100
1000
0010
,
1000
0001
0010
0100
1000
0010
0100
0001
1000
0100
1000
0010
0100
0001
0010
0001
,
0100
0010
1000
0100
1000
0001
0010
0100
1000
0010
1000
0100
0010
0001
0100
0001
,
1000
0100
1000
0010
0100
0001
1000
0100
1000
0001
0100
0010
1000
0001
0010
0001
,
0100
0010
1000
0100
1000
0001
0100
0010
0100
0001
1000
0100
1000
0010
0100
0001
,
1000
0100
0010
0001
1000
0100
0010
0001
1000
0001
0010
0100
1000
0001
0010
0100
,
1000
0000
0000
0000
0001
0000
1000
0000
0010
0000
0000
0000
0100
0000
0000
0000
0010
0000
1000
0000
0001
0000
0010
0000
0001
0000
1000
0000
0100
0000
1000
0001
,
1000
0000
0000
0000
0100
0000
0010
0000
0001
0000
0000
0000
0100
0000
0000
0000
0001
0000
0010
0000
0100
0000
1000
0000
0001
0000
0100
0000
0010
0000
1000
0001
,
1000
0000
0000
0000
0001
0000
0100
0000
0010
0000
0000
0000
0100
0000
0000
0000
0001
0000
0010
0000
0100
0000
0010
0000
0001
0000
1000
0000
0010
0000
0100
0001
,
0100
0000
0000
0000
0010
0000
1000
0000
0001
0000
0000
0000
0010
0000
0000
0000
0001
0000
0100
0000
0010
0000
1000
0000
0001
0000
1000
0000
0100
0000
0010
0001
,
0010
0000
0000
0000
0100
0000
0010
0000
0001
0000
0000
0000
0100
0000
0000
0000
0001
0000
0010
0000
0100
0000
1000
0000
0001
0000
0100
0000
0010
0000
1000
0001
,
1000
0000
0000
0000
0001
0000
1000
0000
0010
0000
0000
0000
0100
0000
0000
0000
0010
0000
1000
0000
0001
0000
0010
0000
0100
0000
1000
0000
0100
0000
0010
0001
,
0010
0000
0000
0000
0100
0000
1000
0000
0001
0000
0000
0000
0100
0000
0000
0000
0001
0000
0010
0000
0100
0000
1000
0000
0001
0000
0100
0000
0010
0000
1000
0001
,
1000
0000
0000
0000
0010
0000
0100
0000
0001
0000
0000
0000
0010
0000
0000
0000
0001
0000
0100
0000
0010
0000
0100
0000
0001
0000
1000
0000
0100
0000
1000
0001
,
4000
0000
0MMM
0000
0400
3000
M0MM
0000
,
0040
0000
0000
0000
0300
0000
0000
0000
MM0M
0000
0000
0000
0000
0000
0000
0000
0004
0000
0000
0000
0030
0000
0000
0000
MMM0
0000
0000
0000
0003
0000
1000
0010
,
1000
0000
0000
0000
0001
0000
1000
0000
0100
0000
0000
0000
0010
0000
0000
0000
0100
0000
1000
0000
0001
0000
0100
0000
0010
0000
0100
0000
0001
0000
1000
0100
,
1000
0000
0000
0000
0001
0000
1000
0000
0010
0000
0000
0000
0100
0000
0000
0000
0010
0000
1000
0000
0001
0000
0010
0000
0100
0000
0010
0000
0001
0000
1000
0010
,
4000
0000
0MMM
0000
0040
3000
MM0M
0000
,
0400
0000
0000
0000
0030
0000
0000
0000
M0MM
0000
0000
0000
0000
0000
0000
0000
0004
0000
0000
0000
0300
0000
0000
0000
MMM0
0000
0000
0000
0003
0000
1000
0100
,
2000
0100
0100
0100
,
0040
0000
3000
0000
0400
0000
0000
0330
,
1001
0000
1000
0100
1000
0010
1000
0001
0010
MM0M
0010
1000
0001
0010
0001
0100
,
0010
M00M
0010
0100
1000
0010
1000
0001
1000
0100
1000
0010
1000
0001
0010
0001
,
0100
M00M
0100
0010
0001
1000
0010
1000
0100
M0MM
0100
0010
1000
0001
0010
0001
,
0100
M00M
0100
1000
0001
0100
0010
1000
0001
1000
0010
0100
0001
0010
0001
0100
,
0010
1000
0100
1000
0100
0010
0100
0010
0001
0010
0001
1000
0001
1000
0010
1000
,
0010
0100
0010
0100
0001
0100
0001
1000
0001
1000
0100
1000
0100
0010
0001
0010
,
0100
1000
0010
1000
0010
0100
0010
0100
0001
0100
0001
1000
0001
1000
0100
1000
,
0100
0010
0100
0010
0001
0010
0001
0100
0001
0100
0010
0100
0010
1000
0100
1000
,
0010
M00M
0010
0100
1000
0010
1000
0001
0010
MM0M
0010
0100
0001
0010
0001
1000
,
0010
M00M
0010
0001
1000
0010
1000
0001
1000
0100
0010
0001
1000
0010
1000
0001
,
0100
M00M
0100
0010
0001
0100
0001
1000
0100
M0MM
0100
0010
1000
0100
1000
0001
,
0100
M00M
0100
1000
0001
0100
0001
1000
0100
0010
0001
0100
0001
1000
0001
0100
,
0010
M00M
0010
0001
1000
0100
1000
0001
0010
MM0M
0010
1000
0001
0100
0001
1000
,
0010
M00M
0010
0001
0010
0100
1000
0001
0100
0001
1000
0010
1000
0001
0010
0001
,
0100
M00M
0100
1000
0010
1000
0001
1000
0100
M0MM
0100
0001
0010
0001
1000
0010
,
0100
M00M
0100
1000
0010
0100
0001
0010
0001
0100
0010
1000
0100
1000
0010
0100
,
M0MM
0000
0000
0000
;
