#TITLE:RED ZONE;
#SUBTITLE:;
#ARTIST:Tatsh & NAOKI;
#TITLETRANSLIT:;
#SUBTITLETRANSLIT:;
#ARTISTTRANSLIT:;
#CREDIT:;
#BANNER:RedZone-BNR.PNG;
#BACKGROUND:RedZone-BG.PNG;
#LYRICSPATH:;
#CDTITLE:!eggmanTitle.png;
#MUSIC:SPEED RAVE - RED ZONE.mp3;
#OFFSET:-0.220;
#SAMPLESTART:36.364;
#SAMPLELENGTH:12.000;
#SELECTABLE:YES;
#BPMS:0.000=165.000;
#STOPS:;
#BGCHANGES:;
// cache tags:
#FIRSTBEAT:0.000;
#LASTBEAT:284.000;
#SONGFILENAME:Songs/Ace Megapack/Red Zone/RedZone.sm;
#HASMUSIC:1;
#HASBANNER:1;
#MUSICLENGTH:107.839;
// end cache tags

//---------------dance-single - ----------------
#NOTES:
     dance-single:
     :
     Hard:
     10:
     1.000,1.000,1.000,0.000,1.000,806.000,157.000,0.000,0.000,0.000:
1000
0000
0010
0000
0000
0000
1000
0000
0000
0000
0000
0010
0000
0000
0000
0000
0000
0000
0000
0000
0000
0000
0000
0000
0000
0000
0000
0000
0000
0000
0000
0000
,
0100
0000
0000
0000
0001
0000
1000
0000
0000
0000
0000
0000
0000
0000
0000
0000
0000
0000
0000
0000
0000
0100
0000
0010
,
0000
0000
0000
0001
0000
0000
0000
0000
0000
0000
0000
0000
0000
0000
0000
0000
,
0011
1100
0011
1100
0011
0000
1100
0011
0000
1100
0011
0000
1100
0011
1100
0000
,
0100
1000
0010
0100
0010
1000
0100
0010
0001
0010
0100
0010
0001
0100
0010
0000
,
0100
0001
1000
0100
0010
0100
1000
0001
0100
0010
0100
0000
0001
1000
0000
0100
,
0010
0100
1000
0010
0100
0001
0010
0100
0010
0001
1000
0010
0100
0001
1000
0000
,
0100
0000
0000
0010
0000
0000
0100
0000
0000
1000
0000
0000
0010
0000
0000
0100
0000
0000
0001
0000
0000
1000
0000
0000
0001
0000
0000
0000
0000
0000
0101
0000
0000
0000
0000
0000
1001
0000
0000
0000
1001
0000
0000
0000
1001
0000
0000
0000
,
0001
1000
0010
0100
0010
1000
0100
0010
0001
0010
0100
0010
0001
0100
0010
0000
,
0100
0001
1000
0100
0010
0100
1000
0001
0100
0010
1000
0100
1000
0010
0100
0001
,
1000
0100
0010
0001
0100
0010
0100
0001
1000
0100
1000
0001
0100
0010
0100
0001
,
0000
1001
0000
0000
1001
0010
0100
0001
1000
0100
0000
0010
0100
1000
0010
0100
,
0001
0101
1000
0101
1000
0101
1000
0101
,
1001
1010
0001
1010
0001
0110
0101
0110
,
0010
0100
0001
1000
0100
0010
0100
1000
0010
0100
0001
1000
0100
0010
0001
0000
,
1000
0010
0100
0001
1000
0010
0100
0001
1000
0100
1000
0010
0100
0001
1000
0100
,
0010
0011
1001
0011
1000
0011
1001
0011
,
0001
1010
0001
1010
0001
1010
1010
1010
,
0010
1000
0100
0010
0100
1000
0010
0100
0001
1000
0100
0010
0100
1000
0010
0000
,
1010
0000
0000
0000
1100
0000
0100
0000
0010
0100
1000
0010
0100
0001
1000
0100
,
0010
0001
0100
0000
0101
0000
0100
0000
0010
0100
0001
1000
0100
1000
0010
0100
,
0001
1000
0100
0000
1100
0000
0100
0000
0010
0100
1000
0010
0100
0001
1000
0001
,
0100
0010
1000
0000
1100
0000
0100
0010
0100
1000
0010
0100
0001
0000
1000
0000
,
0100
0010
0100
1000
0010
0000
0100
0001
1000
0100
0010
0100
1000
0001
0100
0010
,
0100
0001
1000
0000
0101
0000
1000
0000
0010
1000
0100
0010
0100
1000
0001
0100
,
0010
0100
0001
0000
0101
0000
1000
0000
0010
0100
0010
1000
0100
0010
0100
1000
,
0001
0100
0010
0000
0101
0000
0010
0000
1000
0100
1000
0010
0100
0000
0001
0000
,
1000
0100
1000
0010
0100
0000
0001
1000
0100
0010
0001
0000
1000
0010
0100
0000
,
0110
0000
0110
0000
1001
0000
0110
1001
0000
1001
0000
0110
1001
0000
1001
0000
,
1000
0000
0010
0000
1000
0100
0000
1000
0010
0000
1000
0001
0000
0000
1001
0000
,
0110
0000
0110
0000
1001
0000
0110
1001
0000
1001
0000
0110
1001
0000
0110
0000
,
0010
0100
0001
1000
0100
0010
0001
1000
0100
0010
0001
1000
0010
0100
0000
0000
,
0110
0000
0110
0000
1001
0000
0110
1001
0000
1001
0000
0001
1000
0010
0100
0001
,
1000
0100
0010
0100
0000
1000
0010
0000
1000
0100
0000
1000
0001
0000
1000
0010
,
0100
0000
0110
0000
0100
0001
0000
0100
0010
0000
0100
0001
0000
0100
0010
0000
,
0100
0000
0001
0000
1000
0100
0000
0000
1100
0000
0000
0110
0000
0000
0011
0000
,
1001
0000
1000
0000
0010
0000
0100
0001
1000
0000
0100
0000
0010
0000
0100
0000
,
1000
0000
1100
0000
0100
0000
0010
0100
1000
0000
0010
0000
0000
0000
0100
0000
,
0110
0000
0100
0000
0101
0000
0001
0100
0010
0000
1010
0000
1000
0000
1100
0000
,
0100
0110
0010
0011
1001
0011
1001
0001
,
0101
0100
0110
0100
0101
0000
1001
1000
,
0100
0010
0110
0010
0011
0000
0011
0001
,
1001
1100
1000
0000
1100
0110
0011
0011
,
0011
0100
0011
0100
0011
0100
0011
0100
0011
0100
0011
0100
0011
0100
0011
0100
,
0010
0001
0100
0000
0101
0000
0100
0000
0010
0100
0001
1000
0100
0010
0100
1000
,
0001
0100
0010
0000
0110
0000
0010
0000
1000
0100
1000
0010
0100
0001
1000
0100
,
0010
0100
1000
0000
1001
0000
0001
0000
0100
0010
0100
0001
1000
0000
0100
0000
,
0010
0100
1000
0010
0100
0000
0010
0100
0001
1000
0100
1000
0010
0100
0001
0010
,
0100
1000
0001
0000
1001
0000
1000
0000
0010
0100
0001
1000
0100
1000
0010
0100
,
0001
0010
0100
0000
0110
0000
0100
0000
1000
0010
0100
0001
1000
0100
0010
0100
,
1000
0001
0100
0000
0101
0000
0010
0000
0100
0001
1000
0100
0010
0000
0100
0000
,
1000
0010
0100
0001
1000
0000
0001
1000
0100
0010
0001
0000
0000
0000
0000
0000
,
0110
0000
0110
0000
1001
0000
0110
1001
0000
1001
0000
0110
1001
0000
1001
0000
,
1000
0000
0010
0000
1000
0100
0000
1000
0010
0000
1000
0001
0000
0000
1001
0000
,
0110
0000
0110
0000
1001
0000
0110
1001
0000
1001
0000
0110
1001
0000
1001
0000
,
1000
0010
0100
0001
1000
0100
0010
0001
1000
0100
0010
0001
1000
0010
0000
0000
,
0110
0000
0110
0000
1001
0000
0110
1001
0000
1001
0000
1000
0010
0100
0010
1000
,
0100
0010
0001
0100
0000
0010
0100
0000
0010
1000
0000
0010
0100
0000
0010
1000
,
0100
0000
1100
0000
0100
0010
0000
0100
1000
0000
0100
0010
0000
0100
1000
0000
,
0010
0000
1010
0000
0010
0100
0000
0000
1001
0000
0001
1000
0000
1000
0001
0000
,
1001
0000
0000
0000
,
1001
0010
0100
0001
1000
0100
0010
0100
1000
0001
0100
0010
0100
0001
0010
0100
,
0010
0001
1000
0100
1000
0010
0100
0001
0010
0100
0010
0001
1000
0100
0010
0100
,
1000
0010
0100
0001
1000
0100
0010
0100
1000
0001
0100
0010
0100
0001
1000
0001
,
0100
0001
1000
0100
0010
0100
1000
0001
0010
0100
1000
0010
0100
0001
1000
0100
,
0010
0001
1000
0010
1000
0010
0100
0001
0100
0001
0010
0001
0100
0010
1000
0100
,
1000
0100
0010
0001
0100
0010
0100
0001
1000
0100
0010
0100
1000
0001
0100
0010
,
0100
0001
1000
0100
0010
0100
1000
0001
0100
0010
0100
0001
1000
0100
0010
0100
,
0010
0001
1000
0010
1000
0100
0010
0001
1000
0001
0100
0010
0100
0001
1000
0100
,
0011
0000
0000
0011
0000
0000
1001
0000
0000
0000
1001
0000
1010
0000
1001
0000
,
1100
0000
0000
0011
0000
0000
1001
0000
0000
0000
1010
0000
1001
0000
1010
0000
,
1001
0000
0000
0000
;
