#TITLE:One Winged Angel;
#SUBTITLE:Sector 7 Hath Wrought The Angel;
#ARTIST:Trenthian;
#TITLETRANSLIT:;
#SUBTITLETRANSLIT:;
#ARTISTTRANSLIT:;
#CREDIT:Darkmage;
#BANNER:s7hwta-bn.png;
#BACKGROUND:s7hwta-bg.png;
#LYRICSPATH:;
#CDTITLE:!darkmagetitle2.png;
#MUSIC:s7hwta.ogg;
#OFFSET:0.295;
#SAMPLESTART:26.219;
#SAMPLELENGTH:16.000;
#SELECTABLE:YES;
#BPMS:0.000=120.000;
#STOPS:;
#BGCHANGES:0.000=s7hwta-bg.png=1.000=0=0=1,
99999=-nosongbg-=1.000=0=0=0 // don't automatically add -songbackground-
;
// cache tags:
#FIRSTBEAT:2.000;
#LASTBEAT:603.000;
#SONGFILENAME:Songs/Archmage and Dark0wl Hammer of Thor UltraHyperMegaPack/OWA Sector 7/s7hwta.sm;
#HASMUSIC:1;
#HASBANNER:1;
#MUSICLENGTH:105.000;
// end cache tags

//---------------dance-single - Darkmage----------------
#NOTES:
     dance-single:
     Darkmage:
     Hard:
     11:
     1.000,1.000,1.000,1.000,1.000,1232.000,216.000,178.000,0.000,48.000:
0000
0000
0000
0000
0000
0000
0000
0000
1000
0100
0010
0001
1000
0100
0010
0001
,
1000
0100
0010
0001
1000
0100
0010
0001
0001
0010
0100
1000
0001
0010
0100
1000
,
0001
0010
0100
1000
1100
0000
0110
0000
0012
0000
0000
0000
2003
0000
0000
0000
,
0000
0000
3020
0000
,
0230
0000
0000
0000
0000
0000
0000
0000
0301
0000
0000
0010
0001
0000
0000
0000
,
1000
0010
0100
0000
0001
0010
0100
0000
,
1000
0100
0010
0000
0102
0000
0213
0000
,
1320
2031
3120
0231
,
0312
2103
3000
0000
,
0000
0000
0000
0000
0110
0000
0000
0000
1000
0000
0000
0000
0010
0000
0000
0000
0100
0000
0001
0000
0000
0000
1000
0000
0000
0000
0010
0100
0010
0000
0100
0000
,
0001
0000
1000
0000
0010
0000
0000
0000
0100
0000
0010
0000
1000
0000
0010
0000
0100
0000
0001
0000
0010
0000
0100
1000
0100
0000
0010
0000
0001
0000
1000
0000
,
0010
0000
0000
0000
0100
0000
0000
0000
0001
0000
0100
0000
0010
0000
1000
0000
0010
0000
0100
0000
0000
0000
0010
0000
0000
0000
1000
0010
1000
0000
0001
0000
,
0010
0100
1000
0000
0100
0010
0001
1000
0010
0000
0100
0010
1000
0010
0100
0000
,
0101
0000
0000
0000
0110
0000
0000
0000
1000
0000
0010
0000
0100
0000
0010
0000
1000
0000
0001
0000
0000
0000
0100
0010
0100
0000
0010
0000
1000
0000
0001
0000
,
0010
0000
0100
0000
1000
0000
0010
0000
1010
0000
0100
0001
0010
0000
0001
0000
,
0011
0000
0000
0000
0100
0000
1000
0000
0010
0000
0100
0000
0001
0000
0100
0000
0010
0000
1000
0000
0000
0000
0001
0010
0001
0000
0100
0000
0010
0000
1000
0000
,
0010
0000
0100
0000
0001
0000
0010
0000
0011
0000
0100
1000
0010
0000
1000
0000
,
1010
0000
0100
0010
1000
0000
0001
1000
1010
0000
0100
0001
0011
0000
0110
0000
,
1100
0000
0010
0000
0001
0000
0100
0010
0000
1000
0010
0000
0100
0001
0000
0010
,
0100
0000
1000
0010
0000
0100
0001
0000
0010
0100
0000
1000
0010
0000
0100
0001
,
0000
0100
0010
0000
1000
0010
0000
0100
0001
0000
0010
0100
1000
0100
0010
0001
,
0010
0100
1000
0100
0011
0000
0101
0000
0010
0100
0001
0000
1010
0000
0100
0000
,
0010
0000
0000
0000
1000
0100
1000
0010
0100
0001
0010
0001
0100
0010
1000
0001
,
0010
0100
1000
0010
0101
0000
1010
0000
0100
0010
1000
0000
1100
0000
0011
0000
,
0101
0000
0000
0000
0100
0010
1000
0010
0100
0001
0010
0100
0010
0001
1000
0010
,
0100
0001
0100
0010
1000
0000
0000
0000
0101
0000
0000
0000
1010
0000
0110
0000
,
0101
0000
0000
0000
1000
0100
1000
0010
0100
0001
0010
0001
0100
0010
1000
0010
,
0100
0001
0010
0100
1000
0010
0100
0001
0101
0000
0000
0000
0110
0000
1010
0000
,
1100
0000
0000
0000
0100
1000
0100
0010
0001
1000
0010
0100
0010
1000
0001
0010
,
0100
0010
0001
1000
0101
0000
0000
0000
0110
0000
0000
0000
1100
0000
0000
0000
,
1010
0110
0011
0101
,
1010
1100
0011
0101
,
1010
0011
1001
1010
,
1001
1200
2300
3020
,
0230
0302
0023
0230
,
2300
3020
0230
0302
,
0023
0230
2300
3002
,
0203
0000
0301
1000
0001
1000
0001
1000
,
0010
0000
0100
0010
1000
0001
0010
0100
,
1000
0000
0001
1000
0001
1000
0001
1000
,
0010
0000
0100
0010
1000
0001
0010
0100
,
1000
0000
0001
1000
0001
1000
0001
1000
,
0010
0100
0010
1000
0000
0010
1000
0000
,
0010
1000
0001
1000
0001
1000
0001
1000
,
0010
0000
0100
0010
1000
0001
0010
0100
,
1000
0012
0023
0230
,
2300
3020
0230
0302
,
2003
3200
0320
0032
,
2003
3020
0230
0302
,
2003
0000
0000
0000
3100
0010
0001
1000
0010
0100
0001
0010
0001
0100
0010
1000
,
0100
1000
0010
0100
0001
0010
0100
1000
0010
0100
0010
1000
0100
0010
0100
0010
,
0001
1000
0010
0100
0001
0100
0010
1000
0001
0010
0100
0010
0001
1000
0100
0010
,
0100
1000
0010
0100
0010
1000
0001
0010
0001
0100
0010
1000
0100
1000
0010
0100
,
0001
0010
0001
0100
0010
0100
0010
1000
0100
0010
0100
1000
0010
0100
0001
0010
,
0100
1000
0100
0010
0001
1000
0010
0100
0010
1000
0001
0010
0100
0010
0001
1000
,
0010
0100
0010
1000
0100
0010
0100
0010
0001
1000
0010
0100
0001
0100
0010
1000
,
0100
1000
0010
0100
0001
0100
0010
1000
0001
0010
0100
0010
0001
1000
0010
0100
,
0001
0100
0010
1000
1001
0000
0000
1000
0010
0000
0000
0000
0101
0000
0110
0000
,
1010
0000
0100
0010
1000
0001
0010
0100
,
1000
0000
0001
1000
0001
1000
0001
1000
,
0010
0000
0101
0110
1010
0000
1100
0110
,
0011
2001
0000
3200
,
0320
0032
0000
2003
,
0000
3110
0020
0230
,
0302
0123
0230
2300
,
3200
0312
0000
2013
,
3102
0123
0000
0231
,
0000
1310
0000
0200
,
2300
3012
0000
0023
,
0000
0000
0000
0000
1130
0000
0010
0000
0001
0000
1000
0010
0000
0000
0000
0000
,
0100
0000
0000
0000
1001
0000
0100
0000
0010
0000
1000
0000
0010
0000
0000
1000
,
0000
0000
0000
0000
0101
0000
0010
0000
0100
0000
1000
0000
0001
0000
0000
1000
,
0000
0000
0000
0000
1100
0010
0001
0010
0100
0010
0001
0010
0100
1000
0000
0010
,
0100
0000
0000
0000
0101
0010
1000
0010
0100
0001
0010
0100
1000
0001
0000
0100
,
0010
0000
0000
0000
0110
0000
0110
0000
1000
0010
0000
0100
0000
0001
0000
0010
,
0100
1000
0011
0011
0100
1000
0101
0001
,
0210
0000
0000
0000
0000
0000
1300
0000
0010
0000
0100
0000
0001
0000
0000
0100
0000
0000
0010
0000
0000
0000
0000
0000
0000
0000
0000
1000
0000
0000
0000
0000
0000
0001
0000
0000
0000
0000
0000
0010
0000
0000
0000
0000
0000
0100
0000
0000
,
1000
0000
0001
0000
0100
0010
1000
0000
0010
0000
0100
0000
0010
1000
0010
0000
,
0101
0000
0110
0000
1010
1000
0100
0000
1100
0000
0010
0000
0110
0000
0100
0001
,
0101
0100
0010
0000
1020
0000
1030
0000
0000
0000
0000
0000
0210
0000
0300
0000
,
0021
0000
0031
0000
1010
0100
0001
0010
0100
1000
0010
0100
0001
0010
0100
1000
,
0010
0100
0001
0010
0100
1000
0100
0010
0001
1000
0100
0010
0001
1000
0100
0010
,
0001
0010
0100
1000
1010
0000
0101
0000
1000
0100
0010
0000
0021
0000
0230
0000
,
2300
0000
3000
0000
0100
0010
0001
1000
0010
0100
0001
0010
0100
0010
0001
1000
,
0010
0100
0001
0010
1100
0000
0110
0000
0001
0010
0100
0000
2010
0000
3002
0000
,
0023
0000
0030
0000
0100
0010
1000
0001
0010
0100
0010
0001
1000
0010
0100
0010
,
1000
0001
0010
0100
0021
0000
0000
0000
0230
0000
0000
0000
2300
0000
0000
0000
,
3020
0230
0302
0023
,
2030
0000
3001
0100
0001
0100
0001
0100
,
0010
0000
0100
0010
1000
0001
0010
0100
,
1000
0100
0010
0001
1000
0010
1001
0000
0000
0000
0000
0000
0100
0000
0000
0010
0000
0000
1000
0000
0000
0001
0000
0000
,
0010
0100
1000
0010
0000
0000
0000
0001
,
0000
0010
0000
0000
1000
0000
0000
0000
0010
0000
0100
0000
0001
0000
0010
0000
,
0000
0000
0000
0000
0000
0000
0100
0000
1000
0000
0100
0000
0001
0000
0000
0000
0000
0000
0000
0000
0000
0000
0000
0000
0200
0000
0000
0000
0000
0000
2300
0000
0000
0000
0000
0000
3012
0000
0000
0000
0000
0000
0003
0000
0000
0210
0000
0000
,
0000
0300
1020
0000
1031
0000
0001
0000
0011
0000
0010
0000
0110
0000
0100
0000
,
1100
1000
1010
0010
0000
0000
0102
0000
,
0123
0000
0231
0000
0000
2300
3020
0000
,
2030
3002
0023
0230
,
2300
0100
3010
0001
0010
0001
0010
0001
,
1100
0000
1000
0010
0100
0001
0010
0100
,
1001
0000
0100
0010
0100
0010
0100
0010
,
1001
0000
0010
0100
0001
0010
0100
1000
,
0011
0000
0110
0000
1100
0000
0000
0000
0001
0010
0000
0000
0200
0000
2300
0000
,
3002
0003
0210
2310
3102
0000
0213
2310
,
3102
0000
0003
0000
0110
0000
0000
0000
1000
0010
0000
0000
1020
0000
0231
0000
,
0321
0000
1230
1320
0231
0000
0312
0123
,
2130
0000
0110
0000
3012
0000
0000
0000
0103
0010
0000
0000
2010
0000
0100
0000
,
3001
0000
0002
0023
2030
0000
3200
0320
,
0032
0100
2013
0000
3200
0000
0320
0000
,
0032
2003
3020
0032
,
0023
0000
0000
0000
0230
0000
0000
0000
0301
0010
0000
0000
1100
0000
0110
0000
,
0011
0000
0200
0320
0132
0000
0113
1010
,
1200
1000
0312
0000
0000
0213
0000
0000
,
2310
0000
0000
0000
3100
0010
1000
0001
,
0010
0000
0100
0000
1001
0000
0000
0000
0100
0010
0000
0000
1010
0000
0110
0000
,
0101
0000
0011
0110
1200
0000
1310
0110
,
0102
0213
0000
0000
,
0320
0000
2030
0000
3200
0320
0032
0000
,
2003
0000
3020
0000
0231
0000
0000
0000
0310
1000
0000
0000
1010
0000
0110
0000
,
0101
0000
0011
1100
0110
0000
1010
0110
,
0011
1020
0000
0231
,
0320
2030
0000
3020
,
0130
0000
0010
0000
1000
0000
0001
0000
1000
0000
0001
0000
1000
0100
0010
0000
,
0001
0000
0000
0000
0000
0000
1000
0000
0000
0000
0000
0000
0001
0000
0000
0010
0000
0000
0100
0000
0000
0000
0000
0000
1000
0000
0000
0000
0000
0000
0001
0000
0000
0000
0000
0000
1000
0000
0010
0000
0100
0000
0001
0000
0000
0000
0000
0000
,
1000
0000
0010
0000
0100
0000
0001
0000
0000
0000
0000
0000
1000
0000
0000
0000
0000
0000
0010
0000
0000
0000
0000
0000
0100
0000
0000
0000
0000
0000
0010
0000
0000
0000
0000
0000
1000
0000
0000
0001
0000
0000
0010
0000
0000
0000
0000
0000
,
0100
0000
0000
0000
0000
0000
1000
0000
0000
0000
0000
0000
0001
0000
0000
0100
0000
0000
1000
0000
0000
0000
0000
0000
0100
0000
0000
0000
0000
0000
0010
0000
0000
0000
0000
0000
1000
0000
0100
0000
0010
0000
0001
0000
0000
0000
0000
0000
,
0100
0000
0010
0000
1000
0000
0001
0000
0000
0000
0000
0000
0010
0000
0000
0100
0000
0000
1000
0000
0000
0001
0000
0000
0010
0000
0000
0100
0000
0000
1000
0000
0000
0001
0000
0000
0010
0000
0000
0100
0000
0000
1000
0000
0000
0001
0000
0000
,
0010
0100
1000
0010
0010
0100
0001
1000
0010
0100
0001
1000
0010
0100
0001
1000
,
0010
0100
0001
1000
0010
0000
0100
0000
0010
0000
0100
0000
0001
0010
0100
0000
,
1000
0000
0000
0000
0000
0000
0100
0000
0000
0000
0000
0000
0010
0000
0000
0001
0000
0000
1000
0000
0000
0000
0000
0000
0010
0000
0000
0000
0000
0000
0100
0000
0000
0000
0000
0000
0001
0000
0010
0000
0100
0000
1000
0000
0000
0000
0000
0000
,
1000
0000
0010
0000
0100
0000
0001
0000
0000
0000
0000
0000
1000
0000
0000
0010
0000
0000
1000
0000
0000
0000
0000
0000
1010
0000
0000
0000
0000
0000
0100
0000
0000
0010
0000
0000
0100
0000
0000
0001
0000
0000
0010
0000
0000
0000
0000
0000
,
0011
0000
0001
0010
0001
0100
0010
0000
0110
0000
0100
0010
1000
0010
0100
0000
,
0110
0000
0001
0010
0100
0010
0001
0000
0011
0000
0010
0100
1000
0100
0010
0000
,
0110
0000
0100
1000
0100
0010
0100
0000
1100
0000
0001
0010
0100
0010
0100
0000
,
0011
0000
1000
0010
0101
0000
0110
0000
1000
0000
0010
0000
0101
0000
0000
0110
,
0000
1010
2002
0000
0000
0000
3003
0100
,
0010
1000
2020
0000
0000
3030
0220
0330
,
0202
0303
0022
0000
0000
0000
0200
0000
,
0000
0000
0333
0000
1001
0000
0110
0000
0100
0010
1000
0000
1010
0000
0110
0000
,
0011
0000
0000
0000
1000
0100
0010
0100
0010
0001
0010
0001
0010
0100
1000
0100
,
0010
0001
0010
0100
1010
0000
0101
0000
0010
0100
0001
0000
0011
0000
0110
0000
,
1100
0000
0000
0000
0100
0010
0100
0010
0001
0010
0100
1000
0100
0010
0001
0010
,
0100
1000
0100
0010
1100
0000
0011
0000
0100
0010
0001
0000
1100
0000
0011
0000
,
1001
0000
0000
0000
0000
0000
0200
0000
0000
0320
0000
0000
2030
0000
0000
3001
0010
0100
2000
0000
0000
3020
0000
0000
,
0130
0000
0000
0000
0101
0000
0000
0010
1000
0000
0000
0000
0011
0000
1100
0000
,
1001
0000
0200
0320
2030
0000
3002
0003
,
1000
0000
0110
0000
1001
0000
0100
0001
,
1000
0100
0010
0001
1000
0010
0100
0001
,
0010
0100
1000
0100
0001
0100
0010
0001
,
0100
0000
0000
0000
1000
0000
0000
0000
0100
0000
0000
0000
0010
0000
0000
0000
1000
0000
0000
0000
0001
0000
0000
0000
0010
0000
0000
0000
0100
1000
0001
0010
,
0100
2200
3311
0000
0000
0000
0000
0000
;

//---------------dance-single - Darkmage----------------
#NOTES:
     dance-single:
     Darkmage:
     Challenge:
     15:
     1.000,1.000,1.000,0.619,1.000,1822.000,152.000,65.000,0.000,13.000:
0000
0000
0000
0000
0000
0000
0000
0000
0000
0000
0000
0000
0000
0000
0000
0000
1000
0010
1000
0010
1000
0000
0001
0000
0100
0000
0010
0000
0000
0000
1000
0000
,
0000
0000
0001
0010
0001
0000
0100
0000
0010
0000
1000
0000
0001
0000
0000
0000
1000
0000
0100
0010
0100
0000
1000
0000
0001
0000
0100
0000
0010
0000
1000
0001
,
1000
0001
0100
0010
1010
0000
0110
0000
0101
0000
0001
0010
0001
0010
0000
0001
,
0000
0000
1000
0010
1000
0000
0001
0000
0100
0000
0001
0000
0010
0000
0000
0000
1000
0000
0000
0000
0001
0000
0010
0000
0001
0000
0000
0000
0100
0000
0000
0000
,
0001
0000
0000
0000
0001
0000
0000
0000
1000
0000
0000
0000
1010
0000
0000
0000
0101
0000
0000
0000
0010
0000
1000
0000
0001
0000
0010
0000
0000
0000
0100
1000
,
0010
1000
0001
0000
0100
0000
0010
0000
1000
0000
0000
0000
0001
0000
0000
0000
1100
0000
0000
0000
0010
0000
0001
0000
0010
0000
0000
0000
0100
0000
0000
0000
,
0011
0000
0100
1000
0100
0000
0010
0000
0101
0000
0000
0000
1010
0000
0000
0000
,
1100
0011
1010
1100
,
0011
1001
0000
0000
,
0000
0000
0000
0000
0110
0000
0000
0000
1001
0000
0000
0000
1000
0000
0100
0000
1000
0000
0010
0000
0000
0000
0100
0000
0000
0000
0001
0010
0001
0000
1000
0000
,
0010
0000
0100
0000
0001
0000
0000
0000
1000
0000
0010
0100
0010
0000
1000
0000
0001
0000
1000
0000
0001
0010
0001
0000
1000
0000
0010
0000
1000
0000
0001
0000
,
0000
0000
0000
0000
1000
0000
0000
0000
0001
0100
0001
0000
0010
0000
0001
0000
0100
0001
0100
0000
0000
0000
0010
0000
0000
0000
0100
0010
0100
0000
0010
0000
,
1000
0001
0100
0000
1000
0001
0100
0010
1000
0001
0010
0100
1000
0010
0100
0001
,
0101
0000
0000
0000
0110
0000
0000
0000
1000
0100
1000
0000
0010
0000
0000
0000
0100
0001
0100
0000
0000
0000
0000
0000
0001
0100
0001
0100
0001
0000
0010
0000
,
0100
0000
1000
0000
0011
0000
0010
0001
0010
0000
0100
0000
1010
0000
1000
0010
,
1000
0000
0000
0000
0001
0000
0000
0000
1000
0010
1000
0000
0001
0000
0000
0000
0010
0001
0010
0000
0000
0000
0000
0000
0100
1000
0100
1000
0100
0000
0010
0000
,
0001
0000
1000
0000
0101
0000
0100
0001
0100
0000
0001
0000
1100
0000
1000
0100
,
1000
0000
0000
0000
0001
0000
0000
0000
1000
0010
1000
0000
0010
0000
1000
0000
0101
0000
0000
0000
0000
0000
0000
0000
0011
0000
0000
0000
0110
0000
0000
0000
,
1100
0000
0000
0000
0011
0000
0001
0100
0000
0001
0010
0000
0001
0100
0000
0001
,
0010
0001
0100
0001
0010
0000
0000
0000
1010
0000
0000
0000
1000
0000
0010
0000
0000
0000
1000
0000
0100
0000
0000
0000
1000
0000
0010
0000
0000
0000
0100
0000
,
0010
0000
0000
0000
1000
0000
0100
0000
0000
0000
1000
0000
0010
0000
0000
0000
1000
0000
0001
0000
0000
0000
0000
0000
1000
0010
1000
0010
1000
0010
1000
0010
,
1000
0010
1000
0010
1000
0010
1000
0010
0101
0000
0000
0000
1010
0000
0000
0000
1000
0000
0100
0000
0010
0000
0000
0000
1000
0010
0100
0001
0100
0010
1000
0001
,
1000
0000
0000
0000
0001
0010
0001
0010
0100
1000
0010
0100
0010
1000
0010
1000
,
0100
0000
0010
0000
0001
0000
1000
0000
0101
0000
0000
0000
1010
0000
0000
0000
0001
0000
0100
0000
0010
0000
0000
0000
1000
0010
0100
0001
0100
0010
1000
0001
,
1000
0000
0000
0000
0100
0010
0100
0001
0100
1000
0001
0100
1000
0100
0010
1000
,
0010
0001
0010
0100
1000
0000
0000
0000
0101
0000
0000
0000
1010
0000
1100
0000
,
0011
0000
0000
0000
1100
0000
1100
0000
0001
0100
0001
0000
0011
0000
0011
0000
,
1000
0100
1000
0000
0011
0000
0000
0000
1100
0000
0000
0000
0011
0000
1100
0000
,
1010
0000
0000
0000
0101
0000
0101
0000
0001
0010
0001
0000
1100
0000
1100
0000
,
0010
0000
1000
0000
0010
0000
0000
0000
1000
0010
1000
0100
1000
0000
0010
0000
1000
0100
1000
0000
0000
0000
0000
0000
0010
0100
0010
1000
0100
1000
0010
0100
,
0010
0000
0000
0000
1000
0000
0000
0000
0101
0000
0001
0010
0001
0000
0100
0000
0010
0000
1000
0100
1000
0000
0001
0000
0100
0000
0001
0010
0001
0100
0010
1000
,
0100
0000
0000
0000
0001
0000
0000
0000
0100
1000
0100
0010
0100
0000
1000
0000
0001
0100
0001
0000
0000
0000
0000
0000
0100
0010
1000
0010
0100
0001
0100
0010
,
1000
0000
0000
0000
0001
0000
0000
0000
1000
0000
0001
0010
0001
0000
0100
0000
0010
0000
1000
0100
1000
0000
0001
0000
0100
0010
1000
0001
0010
0001
0100
0001
,
0010
0000
0000
0000
0100
0000
0000
0000
1100
0000
0000
0000
1000
0010
1000
0100
1000
0000
0010
0000
0000
0000
1000
0000
0100
1000
0010
1000
0100
1000
0010
0100
,
0010
0000
1000
0000
0101
0000
0010
0001
0010
0000
0001
0000
1100
0000
0010
1000
,
0010
0000
0000
0000
1000
0000
0000
0000
0101
0000
0000
0000
0010
0000
0001
0000
0010
0000
0100
0000
0010
0000
0000
0000
0001
0000
0100
0000
0001
0000
1000
0100
,
1000
0000
0000
0000
0001
0000
0000
0000
1010
0000
0000
0000
0010
0000
1000
0000
0010
0000
0000
0000
1000
0000
0000
0000
0001
0010
0001
0010
0001
0010
0001
0010
,
0001
0010
0001
0010
0001
0010
0001
0010
0100
0000
0000
0000
1000
0000
0010
0000
1000
0000
0000
0000
0001
0000
0010
0000
0001
0000
0100
0000
0001
0000
0010
0000
,
0100
0000
1000
0000
0001
0000
0100
0010
0100
0000
0001
1000
0100
1000
0010
0100
,
0001
0000
0000
0000
1000
0000
0000
0000
0001
0010
0001
0100
0010
0000
0000
0000
1000
0000
0100
0000
0000
0000
1000
0000
0000
0000
0001
0000
0000
0000
0100
0000
,
0001
0000
1000
0000
0100
0000
0000
0000
0010
0000
1000
0010
1000
0000
0001
0000
1000
0000
0001
0010
0001
0000
1000
0000
0001
0100
0001
0000
1000
0000
0010
0000
,
0100
0000
0000
0000
0001
0000
0000
0000
1000
0010
1000
0010
1000
0000
0000
0000
0001
0000
0100
0000
0000
0000
0001
0000
0000
0000
1000
0000
0100
0000
1000
0000
,
0010
0100
0001
0000
0101
0000
0100
0001
0100
0000
1000
0000
1010
0000
1000
0010
,
1000
0000
0000
0000
0010
0000
0000
0000
1000
0100
0010
0001
0010
0000
0100
0000
1000
0000
0000
0000
0000
0000
1000
0000
0000
0000
0000
0000
0001
0000
0100
0000
,
0001
0000
0100
0000
0101
0000
0100
0001
0100
0010
1000
0000
0010
1000
0010
0001
,
0010
0000
1000
0000
1100
0000
0010
0001
0010
0000
0100
0000
1000
0010
0100
0001
,
0100
0000
0000
0000
0001
0000
0000
0000
0010
0000
0001
0100
0001
0000
1000
0000
0100
0000
1000
0010
1000
0000
0001
0000
1000
0100
0010
0000
0001
0000
0100
0000
,
0010
0000
0000
0000
1000
0000
0000
0000
0001
0010
0001
0100
0010
0000
0000
0000
1000
0000
0100
0000
0000
0000
1000
0000
0000
0000
0001
0000
1000
0000
0001
0000
,
1000
0000
0001
0000
0100
0000
0000
0000
0001
0010
0001
0010
0001
0010
0001
0010
0001
0010
0001
0010
0001
0010
0001
0010
0100
1000
0100
1000
0100
1000
0100
1000
,
0100
1000
0100
1000
0100
1000
0100
1000
0001
0000
0010
0000
0001
0000
0100
0000
0010
0000
1000
0000
0010
0000
0100
0000
0001
0000
0010
0000
0001
0000
0100
0000
,
0010
1000
0010
1000
0100
1000
0010
0100
0001
0010
0001
0100
0010
1000
0010
0100
,
0001
0010
0100
1000
0100
1000
0010
0100
0010
1000
0001
0100
0001
0010
0001
0100
,
0010
1000
0010
0100
0001
0010
0100
1000
0100
0010
0001
0010
0100
1000
0100
0010
,
0001
0010
0100
1000
0010
1000
0100
0010
0001
0010
0001
0010
0100
1000
0100
1000
,
0010
1000
0001
0100
0001
0010
0001
0100
0010
1000
0010
0100
0001
0010
0001
0100
,
0010
1000
0100
1000
0100
0010
0100
1000
0010
0100
0001
0100
0010
0100
0001
1000
,
0100
1000
0010
0100
0001
0010
0100
0010
0001
0010
0100
0001
0100
1000
0100
0010
,
0100
0001
0100
1000
0101
0000
0000
0000
0001
0100
0000
0000
0101
0000
0110
0000
,
1010
0000
0000
0000
0000
0000
0000
0000
1000
0100
1000
0000
0001
0000
0100
0000
0010
0000
0000
0000
1000
0000
0000
0000
0001
0010
0001
0100
0001
0010
0001
0100
,
0010
1000
0001
0100
0001
0100
0001
0100
,
0010
0000
1010
0110
0202
0000
1313
1100
,
0022
2133
0000
3200
,
0320
0032
0000
2003
,
0000
3101
0020
0230
,
2300
3012
2003
3020
,
0230
1320
0000
0230
,
0302
2003
0000
3002
,
0000
0113
0000
0200
,
0320
0032
0000
2003
,
0002
0000
0000
0000
3113
0000
1000
0000
0001
0000
0010
0100
0000
0000
0000
0000
,
1000
0000
0000
0000
0101
0001
0100
0001
0010
0001
0100
0001
0010
0001
0100
0001
,
0010
0001
0100
0001
1000
0001
0100
0001
1000
0001
0100
0001
1000
0001
0100
0001
,
1000
0001
0100
0001
1000
0010
0100
0010
1000
0010
0100
0010
1000
0010
0100
0010
,
1000
0010
0100
0010
1000
0010
0001
0010
1000
0010
0001
0010
1000
0010
0001
0010
,
1000
0010
0001
0010
1000
0100
0010
0001
0010
0001
0010
0001
0010
0100
1000
0100
,
0010
0001
0010
0100
0001
0100
1000
0100
0010
0001
1000
0100
0010
0001
1000
0100
,
0010
0000
0001
0000
1000
0000
0100
0000
0001
0100
0001
0000
0100
0000
1000
0000
0010
0000
0100
0000
0001
0000
0100
0000
0010
0000
1000
0000
0010
0000
0100
0000
,
0001
0100
0010
1000
0001
0010
0100
1000
0001
0010
0100
1000
0001
0010
0100
1000
,
0001
0000
0010
0000
0100
0000
0001
0000
0100
0000
1000
0000
0010
0000
0100
0000
0001
0000
0100
0000
0010
0000
1000
0000
0001
0000
0100
0010
0100
0000
0001
0000
,
1000
0010
0100
0001
1000
0010
1000
0001
0010
0001
0100
0010
1000
0001
0100
0010
,
1000
0001
1000
0001
1000
0001
1000
0001
0100
0000
0001
0000
1000
0000
0100
0000
1000
0000
0010
0000
0100
0000
0001
1000
0100
0000
1000
0000
0010
0000
0100
0000
,
0001
0100
0010
1000
0001
0010
0001
0100
0010
1000
0010
0100
0001
1000
0100
1000
,
0010
0100
0010
0100
0010
0100
0010
0100
1001
0000
0000
0000
0001
0000
0100
0000
0001
0000
0000
0000
0101
0000
0000
0000
0100
0000
0010
0000
0100
0000
0001
0000
,
1000
0000
0100
0000
1000
0100
1000
0010
0100
0001
1000
0001
0010
0001
0100
0001
,
1000
0000
0100
0000
0010
0001
0100
0010
1000
0000
0010
0000
0100
0000
0000
0000
1000
0000
0001
0000
0000
0000
1000
0000
0001
0000
0010
0000
0100
0000
0001
0000
,
0100
0000
0010
0000
0001
0100
0010
0100
0001
1000
0100
1000
0010
0100
0010
1000
,
0001
0000
1000
0000
0100
1000
0010
0100
0001
0010
0001
0100
0001
0000
0000
0000
1000
0000
0100
0000
0000
0000
1000
0000
0000
0000
0001
0000
0000
0000
0100
0000
,
0010
1000
0001
0000
1000
0100
1000
0010
0100
0010
1000
0100
0010
0001
0100
0001
,
0010
0000
0100
0000
1000
0010
0100
0001
0100
0010
1000
0010
0100
0000
0000
0000
0001
0000
0100
0000
0000
0000
0010
0000
0000
0000
1000
0000
0000
0000
0001
0000
,
0010
0001
1000
0000
0001
0100
0010
0100
0001
1000
0100
1000
0010
0100
0001
1000
,
0001
0010
0100
1000
0001
0010
0100
1000
0011
0000
0000
0000
0000
0000
0000
0000
1000
0000
0000
0000
0100
0000
0000
0000
0010
0000
0000
0000
0001
0000
0000
0000
,
1000
0010
0100
0001
0000
0000
0000
0100
,
0000
0010
0000
0000
1000
0000
0000
0000
0001
0000
0010
0000
0100
0000
1000
0000
,
0000
0000
0000
0000
0000
0000
1000
0000
0100
0000
0010
0000
0001
0000
0000
0000
0000
0000
0000
0000
0000
0000
0000
0000
1000
0000
0000
0000
0000
0000
0010
0000
0000
0000
0000
0000
0101
0000
0000
0000
0000
0000
0000
0000
0000
0011
0000
0000
,
0000
0000
1100
0000
1010
0000
0001
1000
1010
0000
0001
1000
1100
0001
0100
0000
,
0101
0000
0010
0001
0011
0000
1000
0001
0011
0000
0100
0001
0011
0010
0100
0000
,
1100
0000
1000
0000
0000
0000
0001
0000
1000
0010
1000
0010
1000
0000
0000
0000
0001
0000
0100
0000
0000
0000
0001
0000
0000
0000
1000
0000
0000
0000
0001
0000
,
0010
0001
0100
0000
0101
0000
0001
0100
0001
0000
1000
0000
1010
0000
0010
1000
,
0010
0000
1000
0000
0100
0001
0100
0001
0100
0001
0100
0001
0100
0001
0100
0001
,
1000
0000
0001
0000
1000
0010
0100
0010
1000
0010
0001
0010
0100
0001
0010
0001
,
1000
0000
0100
0000
0010
0001
0010
0001
0010
0001
0010
0001
0010
0001
0010
0001
,
1000
0000
0001
0000
0100
0010
1000
0001
0010
0001
0100
1000
0100
0010
1000
0001
,
0011
0000
1100
0000
0110
0000
1000
0100
1000
0000
0001
0000
0100
0001
0010
0001
,
0100
0000
0010
0000
1000
0010
1000
0010
1000
0001
0010
0001
0100
0001
0010
0001
,
0100
0000
1000
0000
0110
0000
0001
1000
0001
0000
1000
0000
0001
0010
0001
0100
,
0010
0000
1000
0000
0100
1000
0100
0010
1000
0010
0001
0010
0100
0001
0100
1000
,
0200
0322
2133
0000
0000
0000
3200
0000
,
0320
0032
0000
2003
,
0000
3101
0020
0230
,
2300
3002
0203
0320
,
2030
0000
0000
0000
3011
0000
0001
0010
0001
0000
1000
0000
0001
0100
0010
0100
,
0001
0000
1000
0000
0100
0010
0100
0001
0100
1000
0010
0001
0010
0100
1000
0100
,
0010
1000
0001
0010
2200
0000
0000
0000
3300
0000
0022
0000
0000
0000
0033
0000
,
0220
0000
0000
0330
1000
0100
0010
0001
,
0010
0000
0100
0000
0011
0000
1000
0010
1000
0000
0001
0000
1000
0100
1000
0010
,
1000
0000
0001
0000
0100
0001
0100
0010
0100
0001
1000
0100
1000
0010
0100
0010
,
1000
0001
0010
0001
0200
0000
0000
0000
0000
0000
0000
0000
0000
0000
0000
0000
,
0320
0000
2030
0000
3200
0320
0032
0000
,
0023
0000
0230
0000
1310
0000
0001
0010
0001
0000
0100
0000
0010
1000
0010
0001
,
0010
0000
0100
0000
1000
0100
0010
0100
1000
0100
0010
1000
0100
0001
0100
0010
,
0100
0010
0001
1000
0002
0000
0000
0000
0000
0000
0000
0000
0203
0000
0320
0000
,
2030
3002
0000
0023
,
0230
0000
2300
0000
3011
0000
1100
0000
0011
0000
1100
0000
0011
0110
1100
0000
,
0110
0000
0000
0000
0000
0000
0011
0000
0000
0000
0000
0000
1100
0000
0000
0110
0000
0000
0011
0000
0000
0000
0000
0000
0110
0000
0000
0000
0000
0000
1100
0000
0000
0000
0000
0000
0001
0000
0010
0000
0001
0000
0100
0000
0000
0000
0000
0000
,
0010
0000
1000
0000
0010
0000
0100
0000
0000
0000
0000
0000
1010
0000
0000
0000
0000
0000
0101
0000
0000
0000
0000
0000
1010
0000
0000
0000
0000
0000
0101
0000
0000
0000
0000
0000
1010
0000
0000
0110
0000
0000
0101
0000
0000
0000
0000
0000
,
0110
0000
0000
0000
0000
0000
1010
0000
0000
0000
0000
0000
0101
0000
0000
0110
0000
0000
1010
0000
0000
0000
0000
0000
0110
0000
0000
0000
0000
0000
0101
0000
0000
0000
0000
0000
0100
0000
0010
0000
1000
0000
0010
0000
0000
0000
0000
0000
,
1000
0000
0001
0000
0010
0000
0001
0000
0000
0000
0000
0000
1000
0000
0000
0100
0000
0000
0010
0000
0000
0001
0000
0000
1000
0000
0000
0100
0000
0000
0010
0000
0000
0001
0000
0000
1000
0000
0000
0100
0000
0000
0010
0000
0000
0001
0000
0000
,
1000
0100
0010
0001
0001
0010
0100
1000
0001
0010
0100
1000
0001
0010
0100
1000
,
0001
0010
0100
1000
1000
0100
0010
0001
1000
0100
0010
0001
1000
0100
0010
0001
,
1000
0100
0010
0001
0001
0010
0100
1000
0001
0010
0100
1000
0001
0010
0100
1000
,
0001
0010
0100
1000
0100
0010
0100
0001
0100
0010
0100
0001
0100
0010
0100
0001
,
0100
0010
0100
0001
0001
0100
1000
0010
1000
0100
0001
0100
1000
0010
1000
0100
,
1000
0010
1000
0001
0001
0010
0100
0010
0001
0100
0010
0100
0001
0010
0100
0010
,
0001
0100
0010
0100
0100
0010
0100
0001
0010
0100
1000
0001
0010
0100
1000
0001
,
0010
0100
1000
0100
1100
0000
1100
0000
1010
0000
0110
0000
0101
0000
0000
0011
,
0000
0000
0000
0000
1100
0000
0000
0000
1000
0010
1000
0000
0010
0000
1000
0000
0010
0000
1000
0000
0000
0000
0010
0000
1000
0000
0010
1000
0010
0000
1000
0000
,
0010
0000
1000
0000
0001
0000
0000
0000
1000
0100
1000
0000
0001
0000
0100
0000
0001
0010
0001
0000
0000
0000
0000
0000
1000
0001
1000
0000
0100
0000
1000
0000
,
0001
0000
0000
0000
1000
0000
0000
0000
0001
0010
0001
0000
0010
0000
0001
0000
0010
0000
0000
0000
0100
1000
0100
1000
0100
0000
1000
0000
0010
0000
0100
0000
,
0001
0000
1000
0000
0101
0001
0010
0100
0001
0100
0010
0001
0100
0010
0100
0001
,
0010
0100
0010
0001
1000
0010
0001
0010
0100
0001
0100
1000
0100
0001
0010
0100
,
0001
0100
1000
0001
0100
0010
1000
0010
0100
0010
1000
0100
0010
0100
1000
0010
,
0100
0010
1000
0100
1000
0010
0100
1000
0100
0001
1000
0100
0010
0100
0001
0100
,
0010
0001
1000
0001
1010
0000
1100
0000
0010
0001
0100
0000
0010
1000
0001
0010
,
0001
0000
0000
0000
0000
0000
0000
0000
0000
0000
0000
0000
1100
0000
0000
0000
0000
0000
0010
0000
0000
1000
0000
0000
0010
0000
0000
0000
0000
0000
1000
0000
0100
0000
0010
0000
0001
0000
0000
0000
0000
0000
0010
0000
0000
0001
0000
0000
,
0010
0000
0001
0000
1010
0000
0000
0100
0001
0000
0000
0000
0011
0000
0110
0000
,
1100
0000
0001
1000
0001
0000
1000
0000
,
0001
0000
0000
0000
1001
0000
0000
0001
0100
0000
0000
0000
0100
0000
0010
0000
,
1000
0000
0010
0100
0001
0000
1000
0010
,
0100
0000
0000
0000
0011
0000
0000
0100
1000
0000
0000
0000
0010
0000
0001
0000
,
0100
0000
0000
0000
0000
0000
0000
0000
0010
0000
0000
0000
0100
0000
0000
0000
0001
0000
0000
0000
0000
0000
0000
0000
0001
0000
0000
0000
1000
0100
0010
0001
,
1000
0001
0202
0000
0000
0000
0303
0000
;
