#TITLE:Blank File;
#SUBTITLE:- 01 -  Ecliptica;
#ARTIST:Sonata Arctica;
#TITLETRANSLIT:;
#SUBTITLETRANSLIT:;
#ARTISTTRANSLIT:;
#CREDIT:;
#BANNER:BF.JPG;
#BACKGROUND:Blank_file.JPG;
#LYRICSPATH:;
#CDTITLE:exbios.png;
#MUSIC:sonata arctica - 01 - blank file.mp3;
#OFFSET:0.000;
#SAMPLESTART:99.980;
#SAMPLELENGTH:12.000;
#SELECTABLE:YES;
#BPMS:0.000=170.000;
#STOPS:;
#BGCHANGES:;
// cache tags:
#FIRSTBEAT:1.250;
#LASTBEAT:683.500;
#SONGFILENAME:Songs/toune 4/sonata arctica - 01 - blank file/sonata arctica - 01 - blank file.sm;
#HASMUSIC:1;
#HASBANNER:1;
#MUSICLENGTH:245.741;
// end cache tags

//---------------dance-single - ----------------
#NOTES:
     dance-single:
     :
     Hard:
     12:
     1.000,1.000,0.684,0.395,1.000,1984.000,168.000,97.000,0.000,5.000:
0000
0000
0000
0000
0000
1100
0000
0000
0001
0100
0001
0000
0010
1000
0100
0000
,
0010
0100
0000
0011
0000
0000
1000
0001
0010
0000
0001
1000
0200
0000
0000
0000
,
0000
0301
0000
0000
0000
0101
0000
1000
0000
0100
0010
0000
0100
0000
1000
0100
,
0000
0010
0001
0010
0000
1000
0100
1000
0000
0100
0010
0001
0000
0110
0000
0000
,
1000
0100
0010
0000
0100
1000
0010
0000
0100
1000
0001
0000
0010
0100
0010
0000
,
0001
0010
0100
0000
0010
0100
0001
0010
1000
0000
0010
0001
0000
1010
0000
0000
,
0000
0000
0010
0000
1000
0000
0001
0000
0100
0000
0000
0010
0000
0000
1000
0000
,
0001
0000
0000
0100
0000
0010
0000
1000
0000
0000
0100
0000
0000
0001
0000
0000
,
0000
0100
0000
0000
0000
0010
0000
0000
1000
0000
0000
0100
0000
0000
0010
0000
,
0100
0000
0010
0000
1000
0000
0100
0000
0010
0000
0100
0000
0011
0000
0100
1000
,
0100
0000
0001
0010
0001
0000
1010
0000
0000
0100
0010
1000
0000
0001
0100
0010
,
0000
1000
0100
0001
0000
0010
0100
0001
0000
1000
0100
0010
0000
1000
0100
0001
,
0000
0010
0100
1000
0000
0100
0010
0001
0000
0000
0000
0100
0010
0001
0100
1000
,
0100
0001
0010
0100
0001
0010
0100
0010
0000
0000
1010
0000
0000
0000
0000
0010
,
1000
0000
0100
0001
0010
0000
0100
1000
0001
0000
0100
0010
1000
0000
0001
0100
,
0010
0100
0000
1001
0000
0100
0010
1001
0000
0100
0010
1001
0000
0100
0010
1001
,
0000
0000
0010
0001
0100
0000
0010
0100
1000
0000
0001
0010
0001
0000
0100
1000
,
0010
0001
1000
0100
0000
0001
0010
0100
0000
0010
0001
1000
0000
0010
0100
0010
,
0100
0010
0100
0000
0011
0000
1000
0100
0010
0100
0001
0010
0100
0001
0100
0010
,
0100
1000
0001
0100
0010
0001
0100
1000
0100
0010
1000
0100
0001
0010
1000
0100
,
0010
0100
0000
1010
0000
0100
0001
0010
0100
0001
0010
1000
0100
0001
0010
0001
,
0010
0100
0010
0100
1000
0100
0010
0100
1000
0100
0010
0100
0001
0010
0100
1000
,
0000
0101
0000
0000
0010
0100
0001
0010
1000
0100
0001
0010
0100
1000
0001
0100
,
0010
0001
0010
0100
0000
1010
0000
1000
0100
0010
0001
0010
0100
0000
0011
0000
,
1000
0100
0010
0100
1000
0100
0000
0011
0000
0100
1000
0001
0010
0100
0001
0010
,
0100
0001
0100
0010
0100
0000
2010
0001
0000
0100
0010
0000
0001
0000
0020
3000
,
0000
0000
0000
0000
0000
0030
0101
0000
2010
0001
0100
0010
3000
0101
0000
1020
,
0100
1000
0001
0000
0030
1100
0000
0102
0010
1000
0100
0000
1000
0003
0110
0000
,
2001
0010
0100
0010
0000
3000
0101
0000
0020
1000
0100
0001
0100
0000
0030
1001
,
0000
0201
0010
0001
1000
0000
0300
1001
0000
0120
0001
0000
1000
0100
0000
1000
,
0130
0000
1000
0100
0000
0000
1100
0000
0002
0000
0000
0000
0000
0000
0000
0000
,
0000
0000
0000
0200
0003
0000
0000
0000
0300
0011
0000
0100
1000
0000
0100
1000
,
0010
0001
0100
0000
0010
0100
0010
0000
0001
0010
0001
0100
1000
0100
0001
0010
,
0100
1000
0001
0010
0100
1000
0100
0000
1100
0000
0010
0100
1000
0010
0000
0100
,
1000
0000
0011
0000
0000
0100
1000
0100
1000
0100
0000
0011
0000
0100
1000
0100
,
0000
0001
0010
0100
0000
0010
1000
0100
0000
0010
0001
0100
0000
0001
0100
1000
,
0010
0100
1001
0000
0010
0100
1001
0000
0010
0100
1001
0000
0000
0100
0010
1000
,
0000
0001
0100
0010
0000
1000
0100
0001
0000
0010
0100
1000
0000
0100
0001
0010
,
1001
0000
0100
0010
1100
0000
0010
0001
1100
0000
0010
0000
1000
0000
0100
0000
,
0001
0000
0000
0010
0000
0000
1000
0000
0000
0100
0000
0001
0000
0000
0100
0000
,
0010
0000
0000
1000
0000
0000
0001
0000
0010
0000
1000
0000
0100
0000
0001
0000
,
0010
0100
0000
1000
0100
0000
0001
0010
0001
0000
0100
1000
0100
0000
0001
0010
,
0100
2000
0010
0001
0010
0100
3000
0011
0000
0000
0100
1000
0100
0000
0001
0010
,
0100
0000
0010
1000
0100
0000
0001
0010
0001
0000
0100
1000
0010
0000
1001
0000
,
0010
0100
1010
0000
0010
0100
1010
0000
0010
0100
1010
0000
0000
0100
0010
0001
,
0000
0100
0010
1000
0000
0100
0001
0010
0000
1000
0001
0010
0000
0100
1000
0010
,
0000
0100
0010
0001
0000
1100
0000
0010
0100
1001
0000
0010
0100
1001
0000
0010
,
0100
1001
0000
0010
0100
1001
0000
0000
0110
0000
0000
0100
1000
0100
0000
0001
,
0010
0100
0000
0001
0010
0100
0000
1000
0000
0010
0000
0100
1000
0100
0000
0001
,
0010
0100
0000
0001
1000
0100
0000
0010
0001
0010
0100
0000
1000
0100
0010
0100
,
0000
0010
0100
0001
0010
0100
1000
0100
1000
0100
0000
0011
0000
1000
0100
0010
,
0100
0001
0010
1000
0100
0001
0010
1000
0100
0010
1000
0100
0010
1000
0100
0001
,
0010
1000
0100
0001
0010
0100
1000
0010
0000
1100
0000
0010
0100
0001
0010
0100
,
1000
0010
0100
0001
0010
0100
0010
0001
0010
0100
0010
0001
0010
0100
0010
0001
,
0010
0100
1000
0000
0011
0000
0100
1000
0100
0001
0010
0100
1000
0100
0010
0100
,
1000
0100
0010
0100
1000
0100
0010
0001
0010
0100
0000
1010
0000
0100
1000
0100
,
0001
0010
0100
0000
1001
0000
0100
0010
0100
1000
0001
0100
0000
1010
0000
0100
,
1000
0100
0001
0010
1000
0100
0001
0010
0001
0100
0000
0210
0001
0000
0010
0001
,
0000
1000
0000
0002
0300
0000
0000
0000
0000
0000
0003
0110
0000
2010
0001
0100
,
0010
3000
0101
0000
0201
0010
0001
1000
0000
0300
1010
0000
0102
1000
0010
0100
,
0000
0010
0003
1100
0000
1002
0010
0100
0010
0000
0003
1010
0000
2001
0010
0100
,
0001
0100
0000
3000
0011
0000
0210
0001
1000
0001
0000
0300
1010
0000
0021
0100
,
0000
0001
0100
0000
0001
0130
0000
0001
0100
0010
0000
1100
0000
0002
0000
0000
,
0000
0000
0000
0000
0000
0000
0000
0000
0200
0003
0000
0000
0000
0300
0011
0000
,
0000
1000
0100
0010
0000
1000
0100
0010
1000
0100
0001
0010
1000
0100
0010
1000
,
0100
0010
1000
0100
0010
0001
1000
0100
0010
0001
1000
0100
0010
0001
0010
0000
,
0110
0000
0001
0010
0100
1000
0000
0000
0002
0000
0000
0000
0000
0000
0200
0003
,
0000
1300
0010
0002
0100
0010
1000
0100
0013
0200
0001
0010
0001
0010
0300
1000
,
0002
0010
0100
1000
0003
0100
0010
0001
2000
0100
0010
0001
0100
0010
3000
0000
,
0020
0100
1000
0100
1000
0001
0030
0200
0001
0010
0300
1000
0020
0100
1000
0100
,
0030
0200
0001
0010
0001
0010
0001
0010
0001
0010
0001
0010
0300
0010
0001
1000
,
0100
0010
1000
0001
0100
0000
0010
0100
0001
0010
1000
0100
0000
1000
0100
0010
,
0100
0000
0011
0000
0100
1000
0000
0200
0000
0000
0000
0000
0000
0000
0002
0300
,
0000
0000
0000
2000
0000
0003
0000
0000
0000
0000
0000
0000
0000
0000
0000
0020
,
3000
0000
0000
0000
0130
0000
0000
0001
0010
0100
0000
1000
0100
0010
0000
1000
,
0100
0000
0000
0001
0000
0000
0010
0000
0000
0000
0000
0000
0101
0000
0000
0000
0010
0000
0100
0000
1000
0000
0001
0000
0100
0000
0000
0010
0000
0000
1000
0000
0000
0100
0000
0000
0010
0000
0001
0000
0100
0000
0010
0000
0001
0000
0100
0000
,
1000
0000
0000
0010
0000
0000
0001
0000
0000
0100
0000
0000
0010
0000
1000
0000
0100
0000
1000
0000
0100
0000
0010
0000
0001
0000
0000
0100
0000
0000
1000
0000
0000
0100
0000
0000
0001
0000
0000
0010
0000
0000
0100
0000
0000
1000
0000
0000
,
0100
0000
0000
0010
0000
0000
0100
0000
0000
1000
0000
0000
0100
0000
0010
0000
0001
0000
0100
0000
0010
0000
0001
0000
0100
0000
0000
0010
0000
0000
0100
0000
0000
1000
0000
0000
0010
0000
0100
0000
1000
0000
0010
0000
0100
0000
1000
0000
,
0100
0000
0000
0010
0000
0000
0001
0000
0000
0010
0000
0000
0100
0000
0000
0001
0000
0000
1000
0000
0000
0100
0000
0000
0010
0000
0000
1000
0000
0000
0100
0000
0000
0010
0000
0000
0100
0000
0010
0000
0001
0000
0010
0000
0100
0000
1000
0000
,
0100
0010
0100
0001
0100
1000
0100
0010
0100
0001
0100
1000
0100
0010
0100
0001
,
0100
1000
0100
0001
0100
0010
0100
1000
0100
0010
0100
0001
0010
0100
1000
0001
,
0100
0000
0000
0010
0000
0000
1000
0000
0000
0100
0000
0000
0001
0000
0000
0000
0010
0000
0000
0000
1000
0000
0000
0000
0100
0000
0000
0000
0001
0000
0000
0000
0100
0000
0000
0000
0010
0000
0000
0000
1000
0000
0000
0000
0010
0000
0000
0000
,
0100
0000
0000
0000
1000
0000
0000
0000
0001
0000
0000
0000
0100
0000
0000
0000
0010
0000
0000
0000
1000
0000
0000
0000
0100
0000
0000
0000
0010
0000
0000
0000
0100
0000
0000
0000
1000
0000
0000
0100
0000
0000
1000
0000
0000
0100
0000
0000
,
0000
0000
0000
0010
0000
0000
0001
0000
0000
0000
0100
0000
0000
0000
0010
0000
0000
0000
1000
0000
0000
0000
0100
0000
0000
0000
0010
0000
0000
0000
1000
0000
0000
0000
0001
0000
0000
0000
0010
0000
0000
0000
0100
0000
0010
0000
0001
0000
,
0100
0010
0001
0000
0010
0000
0100
0000
1000
0000
0100
0000
0001
0000
0010
0000
1000
0100
0001
0010
0000
1000
0000
0100
,
0000
0001
0000
0010
0000
1000
0000
0100
0010
0001
0100
1000
0100
0000
0001
0000
0010
0000
1000
0000
0001
0000
0100
0000
,
0010
0001
0100
0010
0000
1000
0000
0100
0000
0001
0000
0010
0000
1000
0000
0100
0000
0001
0000
0010
0000
0100
0000
1000
,
0000
0001
0000
0010
0000
0100
0000
1000
0000
0100
0000
0010
0000
0001
0000
0100
0000
0010
0000
1000
0000
0100
0000
0010
,
0000
0100
0000
0001
0000
0010
0001
0100
0010
0001
0000
0100
0010
0000
0100
0000
1000
0000
0100
0010
0001
0000
0100
0010
,
0001
0100
1000
0010
0100
1000
0010
0100
0001
0010
0100
1000
,
0100
0000
0010
0000
0001
0000
0000
0000
0100
0000
1000
0000
0100
0000
0000
0000
0010
0000
0100
0000
1000
0000
0000
0000
0001
0000
0100
0000
0010
0000
0000
0000
0100
0000
1000
0000
0001
0000
0000
0010
0000
0000
0100
0000
0000
0010
0000
0000
,
0100
0000
0011
0000
0100
1000
0000
0100
0000
0011
0000
0100
1000
0000
0010
0000
,
0101
0000
0010
0100
0000
0001
0000
1010
0000
0100
0001
0000
0010
0000
1100
0000
,
0001
0010
0000
0100
0000
1001
0000
0100
0010
0000
1000
0000
0101
0000
0010
0001
,
0000
0100
0000
1001
0000
0100
0010
0000
0001
0000
1010
0000
0100
0001
0000
0010
,
0000
0101
0000
0000
0100
0010
0000
0000
1001
0000
0000
0100
0010
0000
0000
1001
,
0000
0000
0100
0010
0000
0000
1100
0000
0001
0010
0000
1100
0000
0001
0010
0000
,
1100
0000
0001
0010
0100
0000
1010
0000
0001
0010
0100
0010
0100
1000
0001
0010
,
0100
0010
0001
0010
1000
0100
0001
0100
0010
1000
0100
0010
0100
0010
0100
0000
,
0001
0010
0001
0100
0000
1000
0100
0010
0100
0010
0001
0000
0000
0000
0000
1000
,
0100
0010
0100
1000
0000
0001
0010
0100
1000
0100
0001
0010
0000
0000
0000
1000
,
0100
0010
0100
0010
0101
0010
0001
0010
0100
1000
0100
0010
0101
0010
0001
0010
,
0100
0010
0001
0010
1000
0100
0001
0010
0100
1000
0001
0010
0100
1000
0000
0100
,
0010
0001
0100
0010
0100
0000
0010
0100
1000
0100
0001
0000
0010
0100
1000
0100
,
0010
0000
0000
0000
1000
0100
0010
0100
1000
0000
0000
0001
0010
0100
0001
0010
,
0000
0000
0000
0000
1000
0100
0010
0100
1000
0000
0000
0100
0010
0001
0100
0010
,
0000
0000
1000
0100
0010
0100
1000
0000
0000
0002
0203
0000
0300
0000
0100
1000
,
0100
0000
0010
0000
0001
0000
0010
0000
0000
0100
0000
0000
1000
0000
0100
0000
0010
0000
0100
0000
0000
1000
0000
0000
0100
0000
0010
0000
0001
0000
0010
0000
0000
0100
0000
0000
1000
0000
0100
0000
0010
0000
0100
0000
0000
1000
0000
0000
,
0100
0000
0010
0000
0001
0000
0010
0000
0000
0100
0000
0000
1000
0000
0100
0000
0010
0000
0100
0000
0000
1000
0000
0000
0100
0000
0001
0000
0010
0000
0100
0000
0000
1000
0000
0000
0010
0000
0100
0000
0001
0000
0010
0000
0000
0100
0000
0000
,
0001
0000
0010
0000
0100
0000
1000
0000
0000
0010
0000
0000
0100
0000
0010
0000
0001
0000
0010
0000
0000
0100
0000
0000
1000
0000
0010
0000
0100
0000
0001
0000
0000
0010
0000
0000
0100
0000
0010
0000
1000
0000
0100
0000
0000
0010
0000
0000
,
0001
0000
0010
0000
0100
0000
0001
0000
0000
0010
0000
0000
0100
0000
0010
0000
0001
0000
0010
0000
0000
0100
0000
0000
1000
0000
0100
0000
0010
0000
0100
0000
0000
1000
0000
0000
0100
0000
0010
0000
0100
0000
1000
0000
0000
0100
0000
0000
,
0001
0000
0010
0000
0100
0000
0001
0000
0000
0010
0000
0000
0100
0000
0010
0000
1000
0000
0100
0000
0000
0010
0000
0000
0001
0000
0100
0000
0010
0000
0100
0000
0000
1000
0000
0000
0100
0000
0010
0000
0100
0000
0001
0000
0000
0010
0000
0000
,
0100
0000
0010
0000
0001
0000
0010
0000
0000
0100
0000
0000
1000
0000
0100
0000
0010
0000
0001
0000
0000
0100
0000
0000
0010
0000
0100
0000
0010
0000
0001
0000
0000
0000
0000
0000
0000
0000
1100
0000
0000
0000
0000
0000
0001
0000
0010
0000
,
0100
1000
0100
0010
0001
0010
0100
1000
0100
0010
0001
0010
0100
1000
0100
0010
0001
0010
0100
1000
0100
0010
0001
0010
,
0100
0000
1000
0000
0100
0000
0010
0000
0001
0000
0010
0000
0100
0000
1000
0000
0100
0000
0010
0000
0001
0000
0010
0000
0100
0000
1000
0000
0100
0000
0010
0000
0001
0000
0010
0000
0000
0000
0000
1100
0000
0000
0000
0000
0000
0010
0000
0000
,
0001
0010
0000
0100
1000
0100
0000
0001
0010
0100
0000
0010
1000
0100
0000
0001
,
0100
0010
0000
1000
0100
0010
0000
0100
1000
0100
0000
0001
0010
0100
0000
0010
,
0200
0301
0000
1000
0200
0310
0000
0001
0020
0130
0000
0010
0200
1300
0000
0010
,
0001
0100
0000
0010
0100
1000
0000
0100
0010
0001
0000
0100
1000
0100
0000
0010
,
0001
0100
0000
1000
0100
0010
0000
1000
0001
0100
0000
1000
0010
0100
0000
0001
,
0010
0100
0000
0001
0010
1000
0000
0100
1000
0100
0000
0010
0001
0010
0000
0100
,
1000
0100
0000
0001
0010
0100
0000
0010
0100
0001
0000
1000
0100
0010
0000
0100
,
1000
0000
0000
0100
0000
0000
0000
0000
0000
0100
0000
0000
1000
0000
0000
0100
0000
0000
0000
0000
0010
0000
0000
0000
0100
0000
0000
0000
0010
0000
0000
0000
0100
0000
0000
0000
0010
0000
0000
0100
0000
0000
0010
0000
0000
0000
0000
0000
,
0201
0010
0001
0010
0300
0001
2000
0010
0100
0001
0010
0100
3000
0001
0020
0100
,
1000
0100
0001
0030
0001
0200
0010
1000
0001
0300
0010
0002
0100
1000
0100
0010
,
0103
0000
0010
0100
1000
0101
0000
0010
0100
1000
0101
0000
0010
0100
1000
0200
,
0010
0001
0010
0001
0010
0001
0010
0000
0300
0000
0001
0010
0100
0001
1000
0100
,
0010
0000
1000
0100
1000
0100
0010
0000
0100
0010
0001
0100
0022
0033
0000
0100
,
1000
0100
0000
1010
0000
0200
0000
0000
0000
0000
0302
0000
0000
0000
0000
0000
,
0023
0000
0000
0000
0000
0230
0000
0000
0000
0000
0000
0000
0320
0000
0000
0000
,
0000
0131
0000
1000
0100
0010
0100
0000
0001
1000
0010
0100
0000
1000
0010
0010
,
0001
0010
0010
0100
0001
0010
0000
0101
0000
0010
0100
0000
1010
0000
0100
0010
,
0000
1001
0000
0100
0010
0000
0101
0000
0010
0100
0000
1010
0000
0100
0010
0000
,
1001
0000
0100
0010
0000
1100
0000
0010
0001
0000
0110
0000
0001
0010
0000
0101
,
0000
0100
1000
0000
0011
0000
0100
0010
0000
0101
0000
0010
0100
0000
0011
0000
,
0200
0000
1300
0000
0010
0100
0010
0000
0020
0000
0031
0000
0100
0010
0001
0000
,
0200
0000
1300
0000
0001
0010
0100
0000
0020
0000
0130
0000
1000
0100
0010
0000
,
0000
0101
0000
0000
0101
0000
0000
0001
0000
0000
1001
0000
0000
1001
0000
0000
,
0110
0000
0000
0100
0000
0100
0000
1010
0000
0002
0013
0000
1100
0000
0020
0031
,
0000
0110
0000
2000
3100
0000
0011
0000
0200
1300
0000
0011
0000
0200
0310
0000
,
1100
0000
0020
0031
0000
1010
0000
0200
1300
0000
0011
0000
0200
1300
0000
0101
,
0000
0020
0130
0000
2010
0000
0001
0000
0101
0000
0010
0000
0100
0000
3101
0000
,
0010
0100
0000
0001
1000
0000
0010
0100
0000
1000
0010
0000
0100
0001
0000
0010
,
1000
0000
0100
0010
0000
1000
0100
0000
0001
0010
0000
0100
0001
0000
0010
2000
,
0000
0100
0000
0001
0000
0110
0000
0001
0000
0010
3000
0101
0000
0020
1000
0000
,
0100
0000
0001
0000
0000
0000
0000
0030
1000
0100
0001
0010
0100
0010
1000
0100
,
0002
0010
1000
0100
0010
1000
0100
0003
1000
0020
0100
0001
1000
0100
0030
0100
,
2000
0001
0100
0010
3000
0100
0002
0010
0100
1000
0100
0003
1000
0100
0010
1000
,
0100
0010
0100
1000
0001
0010
0100
0001
0010
0100
0010
0001
0010
0200
1000
0010
,
1000
0010
1000
0010
0000
0300
0000
0001
0010
0100
0010
1000
0100
0001
0020
1000
,
0000
0000
0100
0000
0000
1000
0032
0000
0200
0000
0000
0303
0000
1010
0000
1000
,
0100
0010
0100
0001
0020
0100
0000
0000
1000
0000
0000
0100
0000
0032
1000
0000
,
0000
0010
0000
0000
0100
0000
0000
0203
0000
0000
0001
0000
0000
0001
0000
1010
,
0000
0300
0010
0001
0010
0100
1000
0100
0000
0001
0000
1010
0000
0100
0010
0001
,
0200
0010
0000
0000
1000
0000
0002
0000
0300
0000
0010
0000
0000
0100
2000
0003
,
0010
0000
0000
0001
0000
0000
0010
0000
0000
0100
0000
3001
0000
0110
0000
0002
,
1000
0000
0000
0100
0000
0000
0010
2000
0003
0100
0000
0000
0001
0000
0020
0000
,
3000
0000
1000
0000
0000
0001
0000
0000
0100
0000
0030
0000
0000
0000
0000
2000
,
0001
0000
0010
0000
0001
0000
0010
3200
0001
0000
0010
0000
1000
0300
0001
0200
,
0010
0000
1000
0000
0001
0000
0010
0000
1300
0000
0010
0000
0100
0000
0010
0002
,
0100
1000
0100
0000
0010
0100
1000
0000
0100
1000
0013
0100
1000
0000
0200
0001
,
1000
0001
1000
0001
0010
1300
0000
0120
0001
0100
0001
0100
0001
0100
0001
0030
,
0000
1010
0100
0010
1000
0101
0010
0100
0010
1010
0001
0010
0100
0101
1000
0100
,
0010
0110
0001
0010
0100
1001
0010
0100
0010
0101
0010
0100
0001
1010
0100
0010
,
0100
1001
0010
0100
0001
0011
0100
0010
0001
1100
0001
0010
1000
0110
0001
0010
,
0100
0101
0010
0100
0010
1010
0100
0010
1000
0101
0010
1000
0001
0110
0000
1000
,
0010
0100
0000
0011
0000
0100
0010
1000
0000
0101
0000
0010
0100
0001
0000
0110
,
0000
0001
0010
0100
0000
1010
0000
0010
0000
1010
0000
0010
0000
1001
0000
0100
,
0000
1010
0000
0100
0000
0011
0000
0100
0000
1010
0000
0001
0000
0010
0000
0100
,
0000
1000
0000
0100
0000
0010
0000
0001
0000
0010
0000
0100
0000
1000
0000
0000
,
1002
0000
0000
0000
0000
0000
0000
0003
;
