#TITLE:The Day of Justice;
#SUBTITLE:;
#ARTIST:All Shall Parish;
#TITLETRANSLIT:;
#SUBTITLETRANSLIT:;
#ARTISTTRANSLIT:;
#CREDIT:;
#BANNER:../Beast - bn.png;
#BACKGROUND:../Beast - bg.png;
#LYRICSPATH:;
#CDTITLE:;
#MUSIC:The Day of Justice.ogg;
#OFFSET:-0.045;
#SAMPLESTART:80.560;
#SAMPLELENGTH:12.000;
#SELECTABLE:YES;
#DISPLAYBPM:210.000;
#BPMS:0.000=210.000,344.000=145.000;
#STOPS:;
#BGCHANGES:;
// cache tags:
#FIRSTBEAT:0.000;
#LASTBEAT:565.000;
#SONGFILENAME:Songs/Beast Aoreo BEAST! 2/The Day of Justice - [Aoreo]/The Day of Justice.sm;
#HASMUSIC:1;
#HASBANNER:1;
#MUSICLENGTH:191.697;
// end cache tags

//---------------dance-single - J. Nero----------------
#NOTES:
     dance-single:
     J. Nero:
     Challenge:
     14:
     1.000,1.000,0.224,0.407,1.000,1533.000,43.000,78.000,8.000,0.000:
000M
000M
000M
000M
,
2000
3000
0000
0000
0100
0000
0000
0000
0020
0030
0000
0000
0100
0000
0000
0000
2000
3000
0000
0000
0001
0000
0000
0000
0200
0300
0000
0000
0010
0000
0000
0000
,
0200
0300
0000
0000
0001
0000
0000
0000
0020
0030
0000
0000
0001
0000
0000
0000
2000
3000
0000
0000
0200
0300
0000
0000
0020
0030
0000
0000
0002
0003
0000
0000
,
0200
0300
0000
0000
0010
0000
0000
0000
0200
0300
0000
0000
0001
0000
0000
0000
0020
0030
0000
0000
0100
0000
0000
0000
0020
0030
0000
0000
0002
0003
0000
0000
,
2000
3000
0000
0000
0010
0000
0000
0000
0200
0300
0000
0000
0010
0000
0000
0000
2000
3000
0000
0000
0001
0000
0000
0000
0020
0030
0000
0000
0002
0003
0000
0000
,
1000
0010
1010
0100
0101
0001
1001
1000
,
0110
0010
0101
0100
1010
1000
0101
0001
,
1000
0001
1000
0010
0100
0010
1000
0001
0010
0100
1000
0001
1000
0100
0010
0001
,
1000
0010
0100
0001
0100
0010
1000
0010
0100
0001
1000
0001
1000
0100
0010
0100
,
1000
0001
0101
0100
1010
0010
0110
0100
,
1001
0001
1100
1000
0011
0010
0110
0100
,
1000
0000
0100
0000
0010
0000
0100
0000
1000
0000
0100
M000
0100
0000
0001
0000
,
0100
0000
0010
0000
0100
0000
0001
0000
1000
0000
0100
M000
0100
0000
0001
0000
,
1000
0000
1100
0100
0011
0010
1001
0001
,
0110
0100
0101
0001
1010
1000
0101
0001
,
1000
0100
0010
0001
1000
0001
0010
0100
1000
0001
0100
0010
0100
0001
1000
0001
,
1000
0100
0010
0001
1000
0001
0010
0100
1000
0010
0100
0001
1000
0001
0100
0001
,
1000
0000
0010
0000
0100
0000
0001
1000
0001
0100
0001
1000
0001
0100
0001
1000
,
0010
0000
0100
0000
0001
0000
0000
0000
1000
0100
1000
0100
0010
0000
0001
0000
,
1000
0000
0010
0000
0100
0000
0001
1000
0001
0100
0001
1000
0001
0100
0001
1000
,
0010
0100
0001
0000
1000
0100
0010
0000
,
0200
0000
4300
0100
0000
0010
0000
0100
,
0000
0001
0000
0010
0000
0100
0000
0001
,
0000
0100
0000
0010
0000
0100
0000
0001
,
0000
0000
0010
0000
0000
0000
3001
0000
1000
0100
1000
0001
0100
0010
1000
0001
,
1000
0000
0101
0000
0001
1000
0100
0020
,
0000
0000
0130
0000
1000
0000
0000
0000
0001
0100
0001
0100
0010
0000
0000
0000
,
0100
0001
1001
0000
1000
0010
0100
0002
,
0000
0000
0013
0000
0100
0000
0000
0000
1000
0001
1000
0001
0100
0000
0000
0000
,
0010
0100
0101
0000
0001
1000
0100
2000
,
0000
3100
0010
0000
0001
1000
1001
0000
,
0001
0100
0001
1000
0010
1000
0001
0010
0100
1000
0001
1000
0100
0010
0001
1000
,
0010
0100
0001
0100
0010
1000
0001
1000
0100
0010
0100
1000
0001
0100
0010
0100
,
0001
0000
1001
0000
1000
0100
1000
0020
,
0000
0000
0130
0000
0001
0000
0000
0000
1000
0100
1000
0100
0010
0000
0000
0000
,
0100
0000
1000
0000
1001
0000
0000
0000
0001
0100
0010
0100
0001
0000
0000
0000
,
1000
0100
0010
0100
1000
0000
0000
0000
0002
0003
0000
0000
0002
0003
0000
0000
,
1000
0000
0000
0000
1010
0000
0000
0000
0010
0100
0001
1000
0001
0000
0020
0000
,
0000
0000
0130
0000
1000
0000
0000
0000
0001
0100
0001
1000
0100
0010
0001
1000
,
0002
0000
0000
0000
0000
0000
0000
0000
0000
1003
0100
1000
,
0002
0000
0000
0000
1003
0010
1000
0001
0010
0100
1000
0001
1000
0010
0100
0001
,
2000
0000
0000
0000
0000
0000
0000
0000
0000
0000
3000
0000
0010
0100
0001
1000
,
0001
0000
0000
0001
0000
0000
0001
0000
,
2002
0000
0000
0000
0000
0000
0000
0000
0000
0000
3003
0000
1000
0100
1000
0001
,
0200
0000
0301
0100
0010
1000
0100
0010
0100
1000
0001
0100
,
0010
0000
0100
0000
0001
0000
1000
0000
0001
0000
1000
0000
0100
1000
0100
1000
,
0001
0000
0000
0001
0000
0000
0001
0000
,
0100
0000
0010
0000
0100
0000
0001
0000
0010
0000
0100
0000
1000
0001
0100
0010
,
0100
0000
0001
0100
0010
0100
0001
0010
0100
1000
0001
0100
,
0001
0100
0001
1000
0010
0100
0001
1000
0100
0010
0001
1000
0001
1000
0010
0100
,
0001
0000
0000
0000
0100
0001
0100
0001
0100
0000
0000
0000
0001
1000
0001
1000
,
0002
0000
0000
2003
0000
0000
3200
0000
,
0320
0000
0031
0010
0001
1000
0100
1000
0010
0100
0001
1000
,
0001
0100
0001
1000
0010
1000
0001
0010
0100
1000
0001
1000
0100
0010
0001
1000
,
0002
0003
0000
0000
0000
0000
0000
0000
0002
0003
0000
0000
0000
0000
0000
0000
0002
0003
0000
0000
0000
0000
0000
0000
1000
0000
0100
0000
1000
0000
0100
0000
,
0020
0000
0000
0001
0000
0000
0001
0000
,
0130
0000
1000
0100
1000
0001
0100
0010
0100
0001
1000
0010
,
0100
0001
0100
0010
1000
0001
1000
0100
0010
0001
1000
0001
0010
0100
1000
0001
,
2000
3000
0000
0000
0000
0000
0000
0000
2000
3000
0000
0000
0000
0000
0000
0000
2000
3000
0000
0000
0000
0000
0000
0000
0001
0000
0100
0000
0010
0000
0100
0000
,
0002
0000
0000
0100
0000
0000
1000
0000
,
1003
0000
0001
0010
0100
0010
0001
1000
0100
1000
0010
0100
,
0001
0100
0001
1000
0010
0100
0001
1000
0100
0010
0001
1000
0100
1000
0001
0100
,
0001
0000
0000
0000
0001
0000
0000
0000
0001
0000
0000
0000
1000
0001
0100
0010
,
0200
0000
0000
0302
0000
0000
0023
0000
,
0230
0000
0000
2300
0000
0000
3020
0000
,
0230
0000
0001
0000
0000
0000
0000
0000
0301
0100
0001
1000
0100
0010
0001
1000
,
0001
0010
0100
1000
0010
0100
0001
1000
0010
1000
0001
0100
0010
0100
0001
1000
,
0100
1000
0001
0100
0010
0100
0001
1000
0001
0100
0010
0100
0001
1000
0100
0010
,
0001
1000
0100
1000
0001
0100
0010
0100
0001
1000
0100
0010
0100
1000
0001
1000
,
0001
0000
0100
0000
0001
0010
0001
0000
1000
0000
0100
0000
1000
0001
1000
0000
,
0010
0000
0100
0000
0001
0010
0001
0000
1000
0000
0010
0000
0100
0001
0100
0000
,
0010
1000
0010
0100
0001
1000
0100
0010
0001
1000
0001
1000
0100
1000
0001
0100
,
0010
0100
0001
1000
0001
0010
0100
1000
0001
1000
0010
0100
0001
0100
0010
1000
,
0001
1000
0100
0010
0100
1000
0001
0100
0010
0100
0001
1000
0001
0010
0100
1000
,
0001
1000
0100
0010
0001
1000
0010
0100
0001
1000
0001
0010
0001
1000
0100
1000
,
0001
0100
0010
0100
0001
1000
0010
0100
0001
1000
0100
1000
0001
0010
0100
0010
,
0100
1000
0001
1000
0010
0100
0001
0010
0001
1000
0100
0010
0100
1000
0001
1000
,
0010
0100
0001
1000
0001
0100
0010
1000
0001
1000
0100
0010
0100
1000
0001
0100
,
0010
0100
0001
1000
0001
1000
0001
0010
0100
1000
0001
1000
0100
0010
0001
1000
,
0001
0100
0001
0100
0001
0010
0100
1000
,
1010
0010
0101
0001
1001
1000
1100
0100
,
0010
0001
1000
0001
1000
0010
0100
0001
0100
0010
1000
0001
0010
0100
1000
0001
,
1000
0000
0000
0000
0001
0100
0001
0100
0010
1000
0001
1000
0100
0010
0001
1000
,
0001
0000
0100
0000
0001
0000
0000
0000
0100
0010
0100
0001
1000
0100
0010
0001
,
1000
0001
0100
0000
0100
0000
0100
0000
,
0002
0003
0000
0000
0000
0000
0000
0000
0000
0000
0000
0000
0000
0000
0000
0000
2000
0000
3000
0000
0000
0000
0000
0000
0000
0000
0000
0000
0000
0000
0000
0000
,
0MM2
0003
0000
0000
0002
0003
0000
0000
0000
0000
0000
0000
0000
0000
0000
0000
1001
0000
0000
0000
0000
0000
0000
0000
1000
0000
0100
0000
0010
0000
0100
0000
,
1000
0001
0100
0010
0100
0000
0000
0000
1001
0000
0000
0000
0000
0000
0000
0000
,
0002
0003
0000
0000
0002
0003
0000
0000
0000
0000
0000
0000
0000
0000
0000
0000
1010
0000
0000
0000
0000
0000
0000
0000
1000
0000
0001
0000
0010
0000
0100
0000
,
0010
0001
1000
0010
0100
0000
0000
0000
0001
0000
0010
0000
0000
0000
0010
0000
,
0200
0300
0000
0000
0200
0300
0000
0000
0000
0000
0000
0000
0000
0000
0000
0000
1100
0000
0000
0000
0000
0000
0000
0000
1000
0000
0001
0000
0100
0000
0001
0000
,
0010
0100
0010
0001
1000
0000
0000
0000
0110
0000
0000
0000
0010
0000
0000
0000
,
1000
1000
0002
0013
0010
0200
1300
0002
,
0203
0300
0000
0000
0200
0300
0000
0000
0000
0000
0000
0000
0000
0000
0000
0000
0101
0000
0000
0000
0000
0000
0000
0000
0001
0000
1000
0000
0100
0000
0010
0000
,
0100
1000
0001
1000
0010
0000
0000
0000
0110
0000
0000
0000
0000
0000
0000
0000
,
2000
3000
0000
0000
2000
3000
0000
0000
0000
0000
0000
0000
0000
0000
0000
0000
0011
0000
0000
0000
0000
0000
0000
0000
0001
0000
1000
0000
0100
0000
0010
0000
,
0100
1000
0001
0100
0001
0000
0000
0000
0100
0000
0010
0000
0000
0000
0010
0000
,
1000
0010
1000
0001
0100
0010
1000
0001
1000
0100
0010
0100
1000
0001
0010
0100
,
0010
0001
1000
0001
1000
0010
0100
0001
1000
0010
0100
0001
1000
0001
0010
0100
,
1000
1000
0002
0103
0100
0020
0130
0002
,
1003
0100
0010
0100
1000
0001
0100
0010
1000
0010
0100
0001
1000
0100
0010
0001
,
1000
1000
0020
0130
0100
0002
1003
0200
,
1300
0010
0100
0001
1000
0100
0010
0100
1000
0001
0100
0010
1000
0001
0100
0001
,
1000
1000
0020
0130
0100
0002
0013
0200
,
1300
0001
1000
0010
0100
0001
0010
0100
1000
0001
1000
0100
1000
0010
0100
0001
,
1000
0100
1000
0100
0010
0001
0010
0001
1000
0010
1000
0010
0100
0001
0100
0001
,
1000
0100
1000
0001
0100
0001
1000
0010
0100
0010
1000
0001
0100
0001
1000
0100
,
1000
0010
1000
0001
1000
0100
1000
0001
0100
0001
1000
0001
0010
0001
1000
0001
,
1000
0100
0010
0001
0010
0100
1000
0010
1000
0010
0100
0001
0100
0001
1000
0010
,
1000
0010
0100
0001
0100
0001
1000
0001
1000
0100
0010
0100
0010
0001
0010
0001
,
1000
0100
1000
0100
0010
0001
0010
0001
1000
0010
0100
0010
1000
0001
0100
0001
,
1000
0010
0100
0001
0010
0100
0010
0001
1000
0001
1000
0100
0010
0100
1000
0001
,
1000
0010
0100
0010
0100
0001
1000
0100
1000
0001
0010
0001
1000
0100
1000
0010
,
0100
0001
0010
0100
1000
0001
1000
0100
1000
0010
0100
0001
0010
0100
0010
0001
,
1000
0010
0100
0010
1000
0001
0010
0100
0010
0001
1000
0001
0100
0010
0100
0001
,
1000
0100
0010
0100
1000
0001
1000
0010
0100
0001
0100
0010
1000
0001
1000
0100
,
0010
0001
1000
0001
0010
0100
1000
0001
1000
0010
0100
0001
0010
0001
0100
0010
,
1000
0100
1000
0010
0100
0001
0010
0001
1000
0100
0010
0100
1000
0001
1000
0010
,
0100
0010
1000
0001
0010
0001
0010
0100
1000
0001
0010
0100
0010
0100
1000
0001
,
1000
0100
0010
0100
1000
0100
0010
0001
1000
0000
0000
1000
0000
0000
1000
0000
,
0001
0010
0100
0010
0001
0010
0100
1000
0001
0000
0000
0001
0000
0000
0001
0000
,
1000
0100
0010
0100
1000
0010
0100
0010
1000
0001
0010
0100
1000
0010
0100
0001
,
0010
0100
1000
0010
1000
0010
0100
0001
0010
0100
1000
0001
0100
0010
0100
0001
,
0010
0100
1000
0100
0010
0100
1000
0010
0100
0001
1000
0100
0010
0001
1000
0001
,
0010
0100
1000
0010
0100
0010
0100
0001
0010
0100
1000
0010
0100
0001
0010
0100
,
1000
0001
1000
0100
0010
0100
1000
0010
0100
0001
0100
0001
0010
0100
0010
0100
,
1000
0010
0100
0001
1000
0100
0010
0100
1000
0010
0100
0001
1000
0100
1000
0010
,
0100
0001
0010
0100
1000
0001
0010
0100
1000
0000
0000
1000
0000
0000
1000
0000
,
0010
1000
0001
0100
0010
1000
0001
0100
0004
0000
0000
0000
0000
0000
0000
0000
,
1003
0000
0100
1000
0000
0001
1000
0000
0001
0000
0100
0001
0100
0010
1000
0001
,
1000
0000
0010
1000
0000
0010
0100
0000
0001
0000
1000
0100
0010
0100
1000
0001
,
0100
0000
0010
0100
0000
0001
1000
0000
0100
0000
0010
0100
1000
0001
1000
0010
,
0100
0000
0001
0010
0000
0001
1000
0000
0100
0000
1000
0001
1000
0001
1000
0001
,
0100
0000
0010
0100
0000
0001
1000
0000
0001
0000
1000
0100
1000
0100
0010
0100
,
1000
0000
0001
0100
0000
0010
0100
0000
0001
0000
1000
0100
0010
0000
0001
0100
,
0010
0000
0000
0000
0000
0000
0100
0000
0000
0001
0000
0000
0000
0000
0000
0100
0000
0000
0010
0000
0000
0000
0000
0000
1000
0000
0100
0000
1000
0000
0001
0000
0100
0000
0010
0000
0100
0000
0001
0000
1000
0000
0001
0000
1000
0000
0100
0000
,
0010
0000
0000
0000
0000
0000
0001
0000
0000
0100
0000
0000
0000
0000
0000
0001
0000
0000
1000
0000
0000
0000
0000
0000
0001
0000
0100
0000
0001
0000
1000
0000
0010
0000
0100
0000
0001
0000
1000
0000
0001
0000
1000
0000
0100
0000
0010
0000
,
0001
0000
1000
0001
0000
0100
0001
0000
0010
0000
0100
1000
0001
0100
0010
0100
,
0001
0000
1000
0100
0000
1000
0001
0000
0100
0000
0010
0100
0001
0000
1000
0000
,
0100
0000
0000
1000
0000
0000
0001
0000
0000
0100
0000
0000
0010
0000
0000
0100
0000
0000
0001
0000
0000
1000
0000
0000
0001
0000
1000
0000
0100
0000
1000
0000
0001
0000
0100
0000
0001
0000
1000
0000
0010
0000
0100
0000
0001
0000
1000
0000
,
0001
0010
0001
0100
0010
1000
0100
1000
0010
0100
0001
0010
0001
1000
0010
0100
,
0002
0003
0000
0000
;
