#TITLE:Rusty Ruin Zone;
#SUBTITLE:- Sonic 3D Blast (Saturn) - Act 1;
#ARTIST:Richard Jaques;
#TITLETRANSLIT:;
#SUBTITLETRANSLIT:;
#ARTISTTRANSLIT:;
#CREDIT:;
#BANNER:Rusty Ruin - Banner.PNG;
#BACKGROUND:Rusty Ruin - Background.PNG;
#LYRICSPATH:;
#CDTITLE:;
#MUSIC:Rusty Ruin - Act 1.mp3;
#OFFSET:-0.080;
#SAMPLESTART:58.582;
#SAMPLELENGTH:12.000;
#SELECTABLE:YES;
#BPMS:0.000=102.420;
#STOPS:232.000=1.780
;
#BGCHANGES:;
// cache tags:
#FIRSTBEAT:8.000;
#LASTBEAT:236.000;
#SONGFILENAME:Songs/dragon force/Sonic 3D Blast (Saturn) - Rusty Ruin - Act 1 (Crazylegz Edit)/Rusty Ruin.sm;
#HASMUSIC:1;
#HASBANNER:1;
#MUSICLENGTH:150.055;
// end cache tags

//---------------dance-single - ----------------
#NOTES:
     dance-single:
     :
     Easy:
     4:
     0.208,0.194,0.087,0.120,0.000,187.000,13.000,18.000,0.000,0.000:
0000
0000
0000
0000
,
0000
0000
0000
0000
,
2002
3003
1000
0001
,
1000
0000
0001
0010
,
0100
0000
1000
0010
,
0100
0000
1000
0001
,
1000
0001
0010
0001
,
1000
0100
1000
0001
,
0001
1001
0000
1001
,
1000
0010
1000
0100
,
2000
3000
0001
0010
,
0100
1000
0100
0010
,
0001
0000
0000
1001
,
1000
0010
1000
0001
,
0100
0000
0001
0001
,
1000
0100
0001
0100
,
1000
0000
1000
1000
,
0010
0100
0001
0100
,
0020
0030
1000
1000
,
1000
0000
0001
0001
,
0001
0000
0010
0100
,
1000
0010
0100
0001
,
1001
0000
1000
0010
,
1000
0000
0001
0100
,
0001
0010
0001
1000
,
0010
1000
0001
0010
,
0110
0000
0001
0001
,
0002
0003
1000
1000
,
2000
3000
0010
0010
,
0020
0030
0100
0100
,
0200
0301
0100
0010
,
1000
0010
0100
0001
,
1000
0001
0000
1001
,
0001
1000
0001
1000
,
0200
0300
1000
0010
,
0100
0001
0010
0100
,
0200
0300
0010
0001
,
0011
0000
1000
0010
,
1010
0000
0001
0010
,
0100
1000
0100
0010
,
0001
1000
0010
0100
,
0010
1000
0001
1000
,
2002
0000
3003
0001
,
0001
0000
1000
1000
,
2000
0000
3010
0100
,
0010
1000
1000
0000
,
2002
0000
3003
1000
,
1000
0000
0001
0100
,
0001
0010
0001
1000
,
0020
0000
0130
0100
,
0100
0000
0001
0001
,
0001
0000
1000
1000
,
1000
0000
0001
0001
,
0001
0010
0100
0010
,
0001
0000
1000
1000
,
1000
0000
0100
0010
,
0100
0000
0100
1000
,
1000
0001
0100
0001
,
0202
0303
1001
0000
0000
0000
0000
0000
;

//---------------dance-single - ----------------
#NOTES:
     dance-single:
     :
     Medium:
     7:
     0.340,0.352,0.213,0.133,0.007,305.000,32.000,20.000,0.000,0.000:
0000
0000
0000
0000
,
0000
0000
0000
0000
,
2002
0000
0000
0000
3003
0000
0000
0100
,
0001
0010
0000
0100
1000
0010
1000
0100
,
0010
0001
0000
0000
0000
0000
0000
0100
,
0010
1000
0000
0001
0010
0001
1000
0001
,
1000
0001
0000
0000
0000
0000
0000
1000
,
0001
1000
0000
1000
0100
1000
0100
1000
,
0100
1000
0000
0000
0000
0000
0000
0001
,
0010
0001
0000
1000
0010
0100
0001
1000
,
0020
0000
0000
0000
1000
1030
1000
0001
,
1000
0001
0000
0010
0100
1000
0100
0010
,
0001
0100
0000
0000
0000
0000
0000
0010
,
0010
0010
0000
1000
0010
1000
0001
0100
,
0001
2000
0000
0000
0001
0000
3001
1000
,
0010
1000
0000
0001
0010
0001
0100
0001
,
0010
0002
0000
0000
1000
0000
1003
0001
,
1000
0010
0000
0100
0001
0100
0010
1000
,
1010
0000
1000
0000
0001
0001
0001
0000
,
1000
1000
1000
0010
0100
0010
1000
0000
,
1001
0101
0011
0101
,
1001
1100
1010
1100
,
1001
0000
2000
0000
3001
0100
0001
1000
,
0002
0000
1003
0000
0010
0100
0010
1000
,
0020
0000
0130
0000
0001
0100
0010
0100
,
0002
1000
0010
1003
,
1001
0001
0000
0000
0000
0000
0000
0100
,
0010
0001
0000
1000
0010
1000
0001
0100
,
0001
0200
0000
0000
0001
0000
0301
1000
,
0010
1000
0000
0001
0010
0001
1000
0010
,
1000
2000
0000
0000
0001
0000
3001
0100
,
0001
0100
0000
0010
1000
0010
0100
0001
,
0100
0020
0000
0000
1000
0000
1030
0001
,
1000
0001
0000
0100
0010
0100
0001
1000
,
1001
0000
0001
0000
0001
0010
0001
0010
,
0001
0000
1000
0000
0010
0100
0010
1000
,
1001
0101
0011
0101
,
1001
1100
1010
1100
,
1001
1000
1000
0000
0001
0000
0001
0000
,
1000
0010
1000
0100
1000
0001
0100
0001
,
0101
0000
1001
0000
0010
0100
0010
1000
,
0010
0000
2000
0000
0001
0001
0001
0001
,
3001
0000
1000
0000
0001
0010
0001
1000
,
0001
0000
1000
0000
0010
0100
0010
1000
,
0001
2000
0000
0000
0010
0000
3010
0100
,
0010
0000
1010
0000
1001
0000
1000
0100
,
0010
0001
0000
0000
1000
0000
1000
0001
,
0100
0001
0000
0000
1000
0000
0001
0100
,
0001
2000
0000
0000
0001
0000
3001
0010
,
0100
0000
0010
0001
0100
0010
0100
0001
,
0100
0010
0000
0000
0010
0100
0001
1000
,
0001
0000
0010
0100
0010
0100
0001
0100
,
0010
2000
0000
0000
0000
0000
0000
3001
,
0100
0000
0000
0010
0000
0000
0100
0000
0000
0001
0000
0000
1000
0000
0000
0000
,
1001
1001
0000
0000
0010
0001
1000
0001
,
0100
0000
0010
0000
1000
0000
0001
0100
,
0002
1000
1003
1010
,
2001
0000
0100
0000
0010
0000
3100
1000
,
1100
2200
0000
3300
;

//---------------dance-single - ----------------
#NOTES:
     dance-single:
     :
     Hard:
     9:
     0.506,0.472,0.360,0.173,0.320,451.000,54.000,26.000,0.000,0.000:
0000
0000
0000
0000
,
0000
0000
0000
0000
,
1001
0000
2002
0000
3003
0000
0001
0000
1000
0000
0001
0000
0100
0000
0001
0100
,
0001
0000
0100
0000
0000
0000
0001
1000
0001
0000
1000
0000
0100
0000
1000
0100
,
1000
0000
0001
0000
0000
0000
0010
0000
0100
0000
1000
0000
0100
0000
0010
0001
,
0010
0100
0000
1000
0001
0100
0001
1000
,
1100
0000
2002
0000
0000
0000
0000
0000
3003
0000
0000
0000
0000
0000
0001
1000
,
0001
0000
0100
0000
0000
0000
0100
0000
0010
0000
1000
0000
0010
0000
0100
0010
,
0100
0001
0000
0000
2000
0001
3001
0001
,
0101
0000
2002
0000
0000
0000
3003
0000
1000
0001
1000
0000
0001
0000
0100
0000
,
0101
0000
0000
0000
0001
0000
0001
0000
1000
0000
0010
0000
0100
0000
0010
1000
,
0010
0000
1000
0000
0000
0000
0001
0010
0001
0000
1000
0000
0010
0000
1000
0010
,
1000
0000
0010
0000
0000
0000
1000
0001
1000
0001
1000
0001
1000
0000
0010
0100
,
0001
0000
0100
0000
0000
0000
0001
0010
0001
0000
1000
0000
0100
0000
1000
0000
,
0001
0000
0101
0000
0000
0000
0001
1000
0001
0010
0001
0000
1000
0000
0010
0100
,
0010
0000
0100
0000
0000
0000
1000
0010
1000
0000
0010
0000
0100
0000
0001
0010
,
0001
0000
0200
0000
0000
0000
0001
0000
0001
0000
0001
0000
0301
0000
0010
0100
,
1000
0000
0001
0000
0000
0000
0100
0001
1000
0000
0001
0000
1000
0000
0001
0000
,
1001
0000
0000
0000
0101
0000
0000
0000
0001
1000
0001
1000
0001
0000
1000
0000
,
1010
0000
0000
0000
0101
0000
0000
0000
0001
0010
0001
0000
0010
0000
0100
0000
,
1100
0000
0000
0000
1010
0000
0000
0000
0100
0001
0100
0010
0100
0001
0100
0010
,
0100
0000
0002
0000
1000
1000
1000
1000
,
1003
0000
0000
0000
0010
0000
0000
0000
1000
0001
1000
0000
0010
0000
0100
0000
,
0110
0000
0000
0000
0101
0000
0000
0000
0001
0010
0001
0010
0001
1000
0100
1000
,
0100
0000
0000
0000
1000
0000
0000
0000
0010
1000
0010
0000
0100
0000
0001
0000
,
0101
1001
1010
1001
,
1002
0000
1000
0000
0003
0000
0000
0000
0001
0010
0001
0000
0010
0000
0100
0000
,
1000
0000
1000
0000
0000
0000
0001
0100
0001
0000
0100
0000
0010
0000
1000
0000
,
0100
0000
1000
0000
0000
0000
0000
0000
0001
1000
0001
0000
0100
0000
0010
0000
,
0100
0000
0001
0000
0000
0000
0010
0100
0010
0000
0001
0000
1000
0000
0010
0000
,
1000
0000
1001
0000
0000
0000
0001
0100
0001
0100
0001
0000
0100
0000
0010
0000
,
1000
0000
0001
0000
0000
0000
0010
0000
0100
0000
1000
0000
0100
0000
0010
0001
,
0010
0002
0000
1000
1000
1000
1003
0010
,
0100
0000
0101
0000
0000
0000
1000
0001
1000
0000
0100
0000
0010
0000
0100
0000
,
0010
0000
0011
0000
0011
0000
0001
0000
0000
0000
0010
0000
0000
0001
0000
0000
,
0010
0000
0000
0001
0000
0000
1000
0000
0010
0000
1000
0000
0100
0000
1000
0000
,
1100
0000
0000
1100
0000
0000
2200
0000
3300
0000
1000
0000
1100
0000
0000
0000
,
0101
0000
0000
0101
0000
0000
0202
0000
0303
0000
0001
0000
0101
0000
0001
0000
,
1000
0000
1000
0001
2000
0000
0001
0000
3000
0000
0001
0000
0001
0000
0000
0000
,
1000
0000
0000
0010
0000
0000
1000
0000
0000
0000
0010
0000
1010
0000
0000
0000
,
0001
0000
0000
0100
0000
0000
0001
0000
0000
0000
0010
0000
0011
0000
0000
0000
,
1100
0110
0011
0110
,
1001
0000
1000
0001
1000
0000
0010
0100
0000
0010
0100
0000
0001
0000
1000
0000
,
1000
0000
0001
0100
0001
0000
0010
0001
0000
1000
0100
0000
0010
0000
0001
0000
,
0001
0000
1000
0001
1000
0000
0001
0010
0000
0100
1000
0000
1001
0000
0100
0001
,
0200
0000
0010
0000
0301
0000
1000
0001
0000
1000
0001
0000
1000
0000
0001
0000
,
0100
0000
0010
0100
0010
0000
1000
0010
0000
0100
0001
0000
0020
0000
0001
0000
,
0031
0000
0010
0100
1000
0000
0001
1000
0000
0001
1000
0000
1001
0000
0001
0000
,
0101
0000
1001
0000
0001
0000
0010
0100
0000
1000
0100
0000
1001
0000
0010
0100
,
0002
0000
0100
0000
0103
0000
0010
1000
0000
0001
0100
0000
0010
0000
1000
0000
,
0001
0000
1000
0000
0010
0000
1000
0001
0000
0100
0001
0000
0101
0000
0010
0001
,
0010
0000
0100
0000
1000
0000
0001
0010
0000
0100
1000
0000
1100
0000
0001
0100
,
0002
0000
1000
0000
0103
0000
1000
0100
0000
1000
0010
0000
1010
0000
0001
1000
,
0002
0000
0000
2003
0000
0000
3020
0000
0000
0130
0000
0001
0010
0000
0001
0000
,
1000
0000
0001
0000
1000
0000
0100
1000
0000
0001
1000
0000
1001
0000
0001
1000
,
0200
0000
0010
0000
0310
0000
0001
1000
0000
0001
0010
0000
0011
0000
1100
0000
,
0001
0000
1000
0100
1000
0000
0001
1000
0000
0010
1000
0000
1001
0000
1000
0000
,
0100
0000
1000
0100
1000
0000
0010
1000
0000
0100
1000
0000
1100
0000
0010
0000
,
2001
0002
0000
0000
,
3003
0000
0000
0000
;

//---------------dance-single - ----------------
#NOTES:
     dance-single:
     :
     Challenge:
     10:
     0.662,0.590,0.400,0.200,0.743,603.000,60.000,30.000,160.000,1.000:
0000
0000
0000
0000
,
0000
0000
0000
0000
,
1001
0000
0001
0100
0001
0000
1000
0010
0000
1000
0100
0000
1002
0000
0100
0000
,
0103
0000
0010
1000
0010
0000
0100
0010
0000
0100
0001
0000
0101
0000
0001
0010
,
0001
0000
1000
0000
1001
0000
0001
0010
0000
0001
0010
0000
0011
0000
1000
0100
,
1000
0000
0001
0000
M101
0000
0010
0001
0000
0010
0001
0000
1000
0000
0020
0000
,
013M
0000
0010
1000
0001
0000
0010
0001
0000
0100
0001
0000
1001
0000
1000
0000
,
1000
0000
0M01
1000
00M1
0000
1000
0010
0000
1000
0100
0000
1000
0000
0001
M000
,
M001
0000
0010
0100
0010
0000
00M1
1M00
0000
0001
0010
0000
M011
0000
1M00
0000
,
101M
0000
1000
0010
1000
0000
0001
0000
100M
0100
0010
M001
0010
0100
100M
0100
,
0020
0000
0031
0000
1000
0000
0010
0100
0000
0001
1000
0000
0010
0000
1010
0000
,
0001
0000
0100
0000
0101
0000
0010
0001
0000
0010
0001
0000
1001
0000
100M
0010
,
1000
0000
0100
0000
1100
0000
0001
1000
00M0
0M01
1000
0000
M001
0000
1000
0001
,
1000
0000
0020
0000
0130
0000
0001
0010
000M
0100
10M0
0000
10M1
0000
0100
0001
,
0100
0000
0M01
0000
0100
0000
0010
100M
0000
M001
0100
0000
01M1
0000
0010
0M00
,
00M1
1000
0001
0100
M001
0000
1000
0010
0000
0100
0001
0000
1001
0000
100M
0000
,
0010
0000
0100
0010
1M0M
0000
0001
1000
0000
0001
1000
0000
1001
0000
1000
0000
,
0010
0100
0010
1M00
0010
0000
1M0M
0000
0001
0010
0001
1000
0010
1000
0001
1000
,
0002
0000
10M0
0000
1M03
0000
0010
0100
0000
0001
1000
0000
1001
0000
0M01
00M0
,
1000
0001
1000
0010
100M
0000
001M
0100
0000
0001
0100
0000
M101
0000
0010
0000
,
MM1M
0000
1000
0000
0010
0000
M100
00M1
0000
M100
00M1
0000
1001
0000
100M
0000
,
0010
0100
0001
0010
0100
0000
1000
0010
0000
1000
0100
0000
11MM
0000
0M01
00M0
,
1000
0001
1000
0001
M100
0000
0001
0010
0000
0100
1000
0000
1M10
0000
1001
0000
,
0100
0010
0100
0001
1000
0000
0010
0100
0000
0001
1000
0000
11MM
0000
11MM
0000
,
0001
0010
0001
0010
0001
0000
1000
0100
0000
1000
0100
0000
11M0
0000
1M01
0000
,
0001
0100
0001
0100
0001
0000
1000
0010
0000
1000
0010
0000
1010
0000
1M01
0000
,
20M1
0000
310M
0000
1000
0000
0001
1000
0000
0001
1000
0000
1MM1
0000
0001
M100
,
0001
0000
1000
0000
0010
0000
1000
0100
0000
1000
0010
0000
1M10
0000
1000
0100
,
1000
0000
0M01
0000
01M1
0000
0010
0001
0000
0100
0001
0000
10M1
0000
0M10
1000
,
0001
0000
1000
0000
0001
0000
1000
0001
0000
1000
0001
0000
1MM1
0000
1000
0010
,
1000
0000
0100
0000
0010
0000
0001
0010
0000
0001
0010
0000
MM11
0000
0001
1000
,
02M0
0000
0010
0000
0310
0000
0001
1000
0000
0001
0100
0000
01M1
0000
1000
0000
,
0001
0100
0001
1000
0001
0000
1000
0010
0000
1000
0001
0000
10M1
0000
0M10
0000
,
0100
1000
0001
1000
0001
0000
0010
0000
1000
0010
0001
1000
0001
0100
0001
1000
,
0002
0000
1MM3
0000
0001
0000
0100
0001
0000
0100
0001
0000
0101
0000
1000
0010
,
1000
0000
0100
0000
11MM
0000
1000
0100
00MM
1000
0100
00M0
1M01
00M0
0100
0010
,
0100
0000
0000
0001
0000
0000
1000
0000
0000
0010
0000
0000
0100
0000
0000
0010
0000
0000
1000
0000
0000
0001
0000
0000
0000
0000
000M
1000
0000
0000
0001
0000
0000
0000
0000
0000
1001
0000
0000
0000
0000
0000
0100
0000
0000
0000
0000
0000
,
0001
0100
0001
0100
0001
0000
1000
0100
0000
1000
0100
0000
20M1
0000
3M20
0000
,
023M
0000
M302
0000
2MM3
0000
3100
0010
0000
0100
0010
0000
0110
0000
0001
M010
,
0001
0100
0001
1000
0001
0000
1000
0010
0000
1000
0001
0000
1001
0000
20M0
0000
,
3020
0M00
203M
0000
30M2
0000
1003
0010
0000
1000
0010
0000
101M
0000
00M1
0000
,
1000
0100
1000
0100
1000
0001
1000
0001
1000
0010
0100
0001
0010
0100
1000
0100
,
002M
0000
0M01
0000
M031
0000
1000
0010
0000
0100
0001
0000
MM11
0000
0100
0010
,
1000
0001
0100
0010
1000
0000
0001
0010
0000
0100
1000
0000
1M1M
0000
0010
0100
,
0001
1000
0010
0100
0001
0000
0010
0001
0000
0100
0001
0000
1MM1
0000
1000
0001
,
1000
0100
1000
0001
1000
0001
1000
0010
0100
0001
0100
0001
0100
0001
1000
0001
,
20M0
0M00
3001
0000
0010
0000
01M0
1000
0000
0001
1000
00M0
1001
0M00
0001
1000
,
0001
1000
0001
0010
0001
0000
1000
0010
0000
0100
0001
0000
MM11
0000
11MM
0000
,
0001
0100
0001
1000
0001
0000
1000
0001
0000
1000
0001
0000
1001
0000
1000
0001
,
0100
0001
0100
0001
0100
0000
0001
0010
0000
0001
0100
0010
1000
0010
1000
0001
,
20M0
0000
0010
0000
3010
0000
1000
0100
0000
1000
0100
0000
11MM
0000
0001
1000
,
0001
0100
0001
1000
0001
0000
0010
0001
0000
0100
0001
0000
1MM2
0000
1M03
0000
,
0010
0100
0001
1000
0001
0000
0010
0100
0000
0010
0100
0000
M11M
0000
1000
0001
,
0100
0000
0100
0010
0000
0010
1000
0000
1000
0001
0000
0001
2M00
00M0
3001
0000
,
0010
0100
1000
0001
1000
0000
0001
0100
0000
0001
0100
0000
0011
0000
0001
1000
,
0200
0000
0310
0000
0001
0000
0010
0001
0000
0010
0001
0000
MM11
0000
20M0
0000
,
0MM2
0000
3003
0000
0110
0000
0010
0100
M00M
0100
0010
0000
M0M2
0000
MM00
0000
,
2MM0
0000
3MM3
0000
M1M0
0000
0001
1000
0000
0001
0100
0000
0100
0001
1000
0100
,
20MM
0000
0M00
0000
0000
0000
3000
0000
0000
0000
0000
0000
2112
0000
0000
0000
0000
0000
00M0
0000
0000
0M00
0000
0000
00M0
0000
0000
0M00
0000
0000
00M0
0000
0000
0000
0000
0000
0M00
0000
0000
0000
0000
0000
00M0
0000
0000
0000
0000
0000
,
3MM3
0000
0000
0000
;
