#TITLE:Vertex β;
#SUBTITLE:;
#ARTIST:Silvia;
#TITLETRANSLIT:Vertex Beta;
#SUBTITLETRANSLIT:;
#ARTISTTRANSLIT:;
#CREDIT:;
#BANNER:bn.png;
#BACKGROUND:bg.png;
#LYRICSPATH:;
#CDTITLE:cdtitle.png;
#MUSIC:vertex_beta.mp3;
#OFFSET:-1.440;
#SAMPLESTART:84.000;
#SAMPLELENGTH:15.000;
#SELECTABLE:YES;
#BPMS:0.000=200.000,256.000=200.500,324.000=200.000;
#STOPS:;
#BGCHANGES:;
// cache tags:
#FIRSTBEAT:0.000;
#LASTBEAT:587.000;
#SONGFILENAME:Songs/toune 3/Vertex_beta/vertex_beta.sm;
#HASMUSIC:1;
#HASBANNER:1;
#MUSICLENGTH:184.404;
// end cache tags

//---------------dance-single - ----------------
#NOTES:
     dance-single:
     :
     Challenge:
     9:
     0.631,0.676,0.298,0.217,0.000,719.000,55.000,40.000,0.000,0.000:
0002
0000
0000
0000
,
0000
0000
0023
0000
,
0230
0000
0000
0000
,
0000
0000
2300
0000
,
3020
0000
0000
0000
,
0000
0000
2030
0000
,
3002
0000
0000
0000
,
2000
0000
0000
3003
,
0100
0100
0001
0001
,
0010
0010
1000
1000
,
0100
0100
1000
1000
,
0010
0010
0001
0001
,
0100
0001
0010
0001
,
0100
1000
0010
1000
,
0001
0010
1000
1001
,
1000
0010
0001
1001
,
1001
0010
0000
0100
0000
1000
0000
0010
,
0000
0001
0000
0100
0000
0010
1000
0100
,
0000
0001
0000
0010
0000
0001
0000
1000
,
0000
0010
0000
0100
0000
1000
0001
0010
,
0000
0100
0000
0001
0000
1000
0000
0100
,
0000
1000
0000
0010
0000
0001
0000
1000
,
0000
0100
0000
0001
0000
0010
0000
1000
,
0000
0010
0000
1000
0000
0001
0000
0110
,
0001
0010
0001
1000
0000
1000
0001
0100
,
0001
0010
0001
1000
0001
0100
0010
0100
,
0001
1000
0001
0010
0000
0010
0100
1000
,
0001
0100
0001
0010
0100
1000
0010
1000
,
1000
0100
0010
0001
0000
0001
0100
0010
,
0100
0001
0010
0001
1000
0010
1000
0100
,
1000
0010
0100
0001
1000
0100
0010
0001
,
1000
1000
0010
0010
0100
0100
1001
0000
,
0010
0100
1000
0010
1000
0100
0010
0000
,
0010
0100
0001
0010
0001
0100
0010
0000
,
1000
0100
0010
1000
0010
0100
1000
0000
,
0001
0100
0010
0001
0010
0100
0001
0000
,
1000
0001
0010
0100
0010
0001
1000
0000
,
0001
1000
0100
0010
0100
1000
0001
0000
,
0100
0010
0010
0000
0100
0010
0010
0000
,
0001
0010
0100
1000
0001
0001
0001
0001
,
0100
0010
0001
0100
0001
0010
0100
0000
,
0100
0010
1000
0100
1000
0010
0100
0000
,
0001
0010
0100
0001
0100
0010
0001
0000
,
1000
0010
0100
1000
0100
0010
1000
0000
,
0001
1000
0100
0010
0100
1000
0001
0000
,
1000
0001
0010
0100
0010
0001
1000
0000
,
0010
0100
0100
0000
0010
0100
0100
0000
,
1000
0100
0010
0001
1000
1000
1000
1000
,
0001
0010
0100
1000
0010
0001
1000
0000
,
0010
1000
0100
0010
1000
0001
0100
0000
,
1000
0010
0100
0001
0010
1000
0001
0000
,
0010
0001
0100
0010
0001
1000
0100
0000
,
0010
0100
0001
1000
0100
0001
0010
0000
,
0001
1000
0010
0100
1000
0001
0010
0000
,
0100
0001
1000
0100
0010
1000
1000
0000
,
0001
0010
1000
0000
0100
0100
0100
0100
,
1000
0100
0010
0001
0100
1000
0001
0000
,
0100
0001
0010
0100
0001
1000
0010
0000
,
0001
0100
0010
1000
0100
0001
1000
0000
,
0100
1000
0010
0100
1000
0001
0010
0000
,
0100
0010
1000
0001
0010
1000
0100
0000
,
1000
0001
0100
0010
0001
1000
0100
0000
,
0010
1000
0001
0010
0100
0001
0001
0000
,
1000
0100
0001
0000
0010
0010
0010
0010
,
0001
0011
0100
1100
,
1000
0110
0011
1001
,
1000
1010
0100
0101
,
0001
0110
1010
1001
,
0010
1010
0100
1100
,
0010
0011
1000
0101
,
1001
0011
1100
1001
,
0110
0000
1001
0000
0010
1000
1001
0000
,
1000
1010
0100
0101
,
0001
0110
1010
1001
,
0001
0011
0100
1100
,
1000
0110
0011
1001
,
0010
0011
0100
0101
,
0010
1010
0001
1100
,
1001
1010
0101
1001
,
0110
0000
1001
0000
0010
0001
1001
0000
,
1000
1000
0001
0001
0010
0010
0100
0100
,
0010
0000
0000
1000
0000
0000
0100
0000
,
1000
0000
0000
0001
0000
0000
0010
0000
,
0001
0000
0000
0100
0000
0000
0001
0000
,
2000
0000
3002
0000
,
1003
0000
0000
0010
0000
0000
1000
0000
,
0100
0000
0000
0010
0000
0000
0100
0000
,
0010
0000
0000
0001
0000
0000
1000
0000
,
0002
0000
0203
0000
,
0310
0000
0000
0001
0000
0000
0100
0000
,
0001
0000
0000
1000
0000
0000
0100
0000
,
0100
0000
0000
0001
0000
0000
0010
0000
,
0002
0000
2003
0000
,
3001
0000
0000
0010
0000
0000
0001
0000
,
0100
0000
0000
0010
0000
0000
0100
0000
,
0010
0000
0000
1000
0000
0000
0001
0000
,
2002
0000
0000
0000
0000
0000
0000
3003
,
0001
0100
0001
0010
0000
0100
0001
0010
,
0000
0001
1000
0010
0000
0001
1000
0010
,
0000
0100
1000
0010
0000
0100
1000
0010
,
0000
1000
0001
0010
0000
1000
0001
0010
,
0000
0001
0100
0010
0000
0001
0100
0010
,
0000
0100
0001
1000
0000
0100
0001
1000
,
0000
0010
0100
0001
0000
0010
0100
0001
,
0000
1000
0100
0010
1000
0000
1001
0000
,
1000
0100
1000
0010
0000
0100
1000
0010
,
0000
1000
0001
0010
0000
1000
0001
0010
,
0000
0100
0001
0010
0000
0100
0001
0010
,
0000
0001
1000
0010
0000
0001
1000
0010
,
0000
1000
0100
0010
0000
1000
0100
0010
,
0000
0100
1000
0001
0000
0100
1000
0001
,
0000
0010
0100
1000
0000
0010
0100
1000
,
0000
0001
0100
0010
0001
0000
1001
0000
,
0100
0001
0010
0001
0100
1000
0100
1000
,
0100
0001
0010
0001
1000
0100
1000
0100
,
0001
0010
0100
1000
0010
1000
0100
1000
,
0010
0001
0100
0010
0100
0100
1001
0000
,
0100
1000
0010
1000
0100
0001
0100
0001
,
0100
1000
0010
1000
0001
0100
0001
0100
,
1000
0010
0100
0001
0010
0001
0100
0001
,
0010
1000
0100
0010
0100
0100
1001
0000
,
0010
1000
0100
1000
0010
0001
0010
0001
,
0010
1000
0100
1000
0001
0010
0001
0010
,
1000
0100
0010
0001
0100
0001
0010
0001
,
0100
1000
0010
0100
0010
0010
1001
0000
,
0010
0001
0100
0001
0010
1000
0010
1000
,
0010
0001
0100
0001
1000
0010
1000
0010
,
0001
0100
0010
1000
0100
1000
0010
1000
,
0100
0001
0010
0100
0010
0010
1001
0000
,
0002
0000
0000
0000
,
2000
3000
0203
0000
,
0320
0000
0000
0000
,
0002
0003
2030
0000
,
3200
0000
0000
0000
,
0020
0030
2300
0000
,
3020
0000
0000
0000
,
0200
0000
0030
0000
,
2300
0000
0000
0000
,
0002
0003
3020
0000
,
0230
0000
0000
0000
,
2000
3000
0302
0000
,
0023
0000
0000
0000
,
0200
0300
0032
0000
,
0203
0000
0000
0000
,
0020
0000
0000
0330
,
2002
0000
0000
0000
,
0000
0000
0000
3003
;
