#TITLE:Breath;
#SUBTITLE:;
#ARTIST:Sparker;
#TITLETRANSLIT:;
#SUBTITLETRANSLIT:;
#ARTISTTRANSLIT:;
#CREDIT:;
#BANNER:bn.bmp;
#BACKGROUND:bg.bmp;
#LYRICSPATH:;
#CDTITLE:Beatmania IIDX.png;
#MUSIC:BREATH.mp3;
#OFFSET:-6.380;
#SAMPLESTART:18.300;
#SAMPLELENGTH:12.000;
#SELECTABLE:YES;
#BPMS:0.000=160.000;
#STOPS:148.000=0.760
;
#BGCHANGES:;
// cache tags:
#FIRSTBEAT:0.000;
#LASTBEAT:247.000;
#SONGFILENAME:Songs/dragon force/Breath/Breath.sm;
#HASMUSIC:1;
#HASBANNER:1;
#MUSICLENGTH:106.770;
// end cache tags

//---------------dance-single - ----------------
#NOTES:
     dance-single:
     :
     Hard:
     8:
     0.558,0.607,0.393,0.103,0.070,364.000,42.000,11.000,0.000,0.000:
0010
0100
0110
0000
0001
1000
1001
0000
,
0010
1000
1010
0000
0001
0100
0101
0000
,
0000
0000
0010
0100
0010
1000
0001
0100
,
0010
1000
0010
0100
0001
0100
0010
0010
,
0000
0000
0010
1000
0001
0100
0010
0100
,
0010
1000
0100
0010
0001
0010
0100
1000
,
0000
0000
0010
0100
0001
1000
0010
0100
,
0010
1000
0001
0100
0010
0100
0010
1000
,
1000
0100
1100
0000
0010
0100
0011
0000
,
0010
0100
1001
0000
0010
1000
0101
0000
,
0000
0000
0010
0100
0010
1000
0001
0100
,
0010
0100
0001
0100
0010
1000
0010
0100
,
0000
0000
1000
0100
0010
0001
0010
0100
,
0010
1000
0001
0100
0010
0100
0010
1000
,
0000
0000
1000
0100
0010
0001
0010
0100
,
1000
0100
0010
0100
0010
0100
0001
0100
,
0010
1000
0011
1100
,
0010
0001
0010
0000
1000
0100
1000
0000
0100
0010
0100
0000
0010
0001
0010
0000
,
1000
1100
0010
0100
,
0010
0100
0010
1000
0001
0100
0010
0100
,
0001
0001
0100
0100
0010
0010
1000
1000
,
0010
0100
0010
1000
0001
0100
0010
0100
,
0010
1000
1010
0000
0001
0100
0101
0000
,
0000
0110
1001
0110
,
0000
1010
0000
0101
,
0000
1100
0011
0110
,
0010
1000
0001
0100
0010
0100
0001
1000
,
0020
0000
0130
0000
1000
1000
1000
1000
,
0100
0010
0001
0010
1000
0010
0100
0010
,
0100
0000
0010
0000
0010
0010
0100
0100
,
0010
1000
0001
0100
0010
1000
0001
0100
,
0010
0000
0000
0000
1000
0100
1000
0100
,
0010
0100
0001
1000
0010
0100
0010
0100
,
2002
0000
0000
3003
,
0220
0000
0000
0330
,
2002
0000
0000
3003
,
0220
0000
0000
0300
,
1030
0100
1100
0010
,
0011
0000
0010
0100
0110
0000
0010
1000
,
1010
0000
0001
0100
0101
0000
0010
0100
,
0110
0000
0010
1000
1010
0000
0001
0010
,
0011
0000
0010
0100
1001
0000
0010
1000
,
0011
0000
0100
0001
1010
0000
1000
0100
,
0011
0000
0001
0100
1010
0000
0100
0010
,
1001
0000
0010
0100
1010
0000
0001
0100
,
0011
0000
0001
0000
0010
0100
0010
0100
,
0010
1000
0001
0100
0010
1000
0010
0100
,
0001
0100
0010
1000
0001
0100
0010
0100
,
1000
0100
0010
0001
0010
0100
0010
1000
,
0010
0100
0001
1000
0010
0100
0001
0100
,
0010
1000
0001
0100
0010
0100
0001
0100
,
0010
1000
0001
0100
0010
1000
0010
0100
,
0001
1000
0010
1000
0010
0100
0001
0100
,
0010
0000
0100
0000
0001
0000
1000
0000
0001
0010
0001
0000
0010
0100
0010
0000
,
1000
0100
1000
0000
0100
0010
0100
0000
0010
0001
0010
0000
0010
0100
0010
0000
,
1000
0100
1000
0000
0010
0001
0010
0000
1000
0000
0000
0000
0001
0000
0000
0000
,
1000
0000
0000
0000
0100
0000
0000
0000
0000
0010
0000
0000
0000
0000
0000
0000
,
0000
0000
0000
0000
0000
0000
0000
0100
0000
0000
0000
0000
0000
0000
0000
0000
0000
0000
0000
0000
0000
0000
0000
0000
0000
0000
1000
0000
0000
0000
0000
0000
,
0000
0000
0001
0000
,
0000
2002
0000
0000
,
0000
0000
0000
0000
,
0000
0000
0000
0000
0000
0000
0000
0000
0000
0000
0000
3003
0000
0000
0000
0000
;

//---------------dance-single - ----------------
#NOTES:
     dance-single:
     :
     Medium:
     6:
     0.448,0.491,0.421,0.047,0.000,285.000,45.000,5.000,0.000,0.000:
0010
1000
0010
0000
0010
0100
0010
0000
,
0001
0100
0001
0000
0001
0010
0001
0000
,
0000
0010
0100
1000
,
0001
0000
0100
0000
0010
0000
1000
0100
,
0000
0010
0100
0001
,
1000
0000
0100
0000
0010
0000
1000
0100
,
0000
0010
0100
0001
,
1000
0000
0001
0000
0100
0001
0100
0000
,
0010
1010
0001
0011
,
0001
0101
1000
1100
,
0000
0010
1000
0100
,
0010
0000
0100
0000
0001
0000
1000
0100
,
0000
0010
0100
0001
,
1000
0000
0100
0000
0010
0000
0001
0001
,
0000
0010
0100
1000
,
0100
0010
1000
0010
,
0110
1001
0110
1001
,
1000
1000
0001
0001
0100
0100
0010
0010
,
1000
1100
0010
0100
,
0001
0100
0010
0000
1000
0100
0010
0000
,
0010
0110
0010
0110
,
0001
1000
0100
1000
,
0100
1100
0001
0101
,
0010
0011
1010
1001
,
0010
1010
1000
1100
,
0001
0101
0011
1001
,
0020
1000
0100
0031
,
0200
0000
1300
0000
1000
0100
1000
0100
,
0010
0100
0001
1000
,
0010
0000
0110
0000
0001
0010
0100
1000
,
0100
0010
0100
0010
,
0100
0000
0001
0000
0010
1000
0010
0100
,
0001
0100
0010
0001
,
1000
0100
0010
0001
1000
0100
0010
0001
,
1000
0100
0010
0001
1000
0100
0010
0000
,
1000
0100
0010
0001
1000
0100
0010
0000
,
1000
0100
0010
0001
1000
0100
0010
0001
,
0100
1000
1100
0010
,
0011
0001
0101
0010
,
1010
0000
0010
0100
0010
0000
1000
0100
,
1000
0000
0010
0001
0010
0000
0010
0100
,
0010
0000
1000
0100
0011
0000
0001
0000
,
0101
0010
1010
1000
,
1100
0010
0110
0001
,
0011
0010
0110
1000
,
1001
0000
0010
0000
1000
0010
1010
0000
,
0001
0100
0101
0000
0010
0100
0110
0000
,
0001
1000
1001
0000
0001
1000
1001
0000
,
0001
1000
1001
0000
0001
1000
1001
0000
,
0001
1000
1001
0000
0001
1000
0001
0000
,
0010
0100
0010
0000
0010
1000
0001
0000
,
0010
0100
0010
0000
0010
0000
0100
0000
,
1000
0001
0001
1001
,
1001
0000
1001
0000
0010
0100
0010
0100
,
0001
1000
0010
0100
0001
1000
0010
0100
,
0001
0100
0010
0100
2000
0000
0001
0000
,
0001
0000
0001
0000
0001
3000
0000
0000
,
0000
0001
0000
0000
0000
0000
0002
0000
,
0000
0000
1000
0000
,
0000
2000
0000
0000
,
0000
0000
0000
0000
,
0000
0000
0000
0000
0000
0000
0000
0000
0000
0000
0000
0000
0000
0000
0000
0000
0000
0000
0000
0000
0000
0000
0000
0000
0000
0000
0000
0000
0000
0000
0000
0000
0000
0000
0000
0000
0000
0000
0000
0000
0000
0000
0000
0000
0000
0000
0000
0000
0000
0000
0000
0000
0000
0000
0000
0000
0000
0000
0000
0000
0000
0000
0000
0000
0000
0000
0000
0000
0000
0000
0000
0000
0000
0000
0000
0000
0000
0000
0000
0000
0000
0000
0000
0000
0000
0000
0000
0000
0000
0000
0000
0000
0000
0000
0000
0000
0000
0000
0000
0000
0000
0000
0000
0000
0000
0000
0000
0000
0000
0000
0000
0000
0000
0000
0000
0000
0000
0000
0000
0000
0000
0000
0000
0000
0000
0000
0000
0000
0000
0000
0000
0000
0003
3000
0000
0000
0000
0000
0000
0000
0000
0000
0000
0000
0000
0000
0000
0000
0000
0000
0000
0000
0000
0000
0000
0000
0000
0000
0000
0000
0000
0000
0000
0000
0000
0000
0000
0000
0000
0000
0000
0000
0000
0000
0000
0000
0000
0000
0000
0000
0000
0000
0000
0000
0000
0000
0000
0000
0000
0000
0000
0000
;

//---------------dance-single - ----------------
#NOTES:
     dance-single:
     :
     Easy:
     4:
     0.387,0.521,0.543,0.290,0.000,200.000,58.000,31.000,0.000,0.000:
0010
1010
0001
0011
,
0010
0110
1000
1001
,
0000
1000
0100
0010
,
0001
0100
1000
0010
,
0000
0001
0100
0001
,
1000
0010
0100
0001
,
0000
1000
0010
0100
,
1000
0001
0100
0010
,
0010
1001
0100
1100
,
0010
0011
0001
0101
,
0000
0010
0100
1000
,
0001
0100
0010
1000
,
0000
0001
0100
0010
,
1000
0001
0100
0010
,
0000
1000
0100
0001
,
1000
0010
0100
0010
,
2000
3200
0320
0031
,
0101
0110
1001
0110
,
1020
0130
1000
0000
,
0100
0010
0100
0010
,
1000
0100
0001
0010
,
0100
0010
1000
0010
,
0000
1100
0000
0011
,
0000
0110
1001
0110
,
0000
0110
0000
1001
,
0000
1001
1001
1001
,
0010
1000
0100
0010
,
0002
0000
1000
1003
,
0100
0010
1000
0001
,
0020
0000
0100
1030
,
0100
1000
0100
0010
,
0002
0000
1000
1003
,
1000
0100
0010
0001
,
2002
0000
0000
3003
,
0220
0000
0000
0330
,
2020
0000
0000
3030
,
0022
0000
0000
0030
,
1003
0000
1000
1100
,
0010
0011
0001
0101
,
0010
1010
0010
0110
,
0010
0110
0010
0110
,
0010
0110
0001
1001
,
0001
1001
0001
1001
,
0001
1001
0001
0101
,
0001
0101
0001
0101
,
0001
0101
2000
3100
,
0020
0130
0002
1003
,
0020
1030
0200
0310
,
2000
3100
0020
0130
,
0002
0013
0020
0130
,
2000
3100
0020
0100
,
0100
0130
0110
1010
,
0101
1100
0012
0103
,
1020
0130
1001
0110
,
1001
1010
0101
1100
,
0011
0110
0001
0000
,
1000
0000
1001
0000
,
0000
0020
0000
0100
,
0000
0000
2030
0000
,
0000
0002
0000
0000
,
0000
0000
0000
0000
,
0000
0000
0000
3003
;
