#TITLE:CIA Rave;
#SUBTITLE:;
#ARTIST:DJ Acsent (Steps-T.K.B.M.);
#TITLETRANSLIT:;
#SUBTITLETRANSLIT:;
#ARTISTTRANSLIT:;
#CREDIT:;
#BANNER:;
#BACKGROUND:;
#LYRICSPATH:;
#CDTITLE:;
#MUSIC:cia_rave.mp3;
#OFFSET:-0.050;
#SAMPLESTART:37.500;
#SAMPLELENGTH:12.000;
#SELECTABLE:YES;
#BPMS:0.000=160.000;
#STOPS:;
#BGCHANGES:;
// cache tags:
#FIRSTBEAT:8.000;
#LASTBEAT:316.000;
#SONGFILENAME:Songs/Essential Sim Collection/(Unknown) cia rave/ciarave.sm;
#HASMUSIC:1;
#HASBANNER:0;
#MUSICLENGTH:120.058;
// end cache tags

//---------------dance-single - ----------------
#NOTES:
     dance-single:
     :
     Hard:
     9:
     1.000,1.000,0.433,0.000,1.000,1008.000,52.000,0.000,0.000,0.000:  // measure 1
0000
0000
0000
0000
,  // measure 2
0000
0000
0000
0000
,  // measure 3
0011
1100
0101
1010
,  // measure 4
0011
1100
0101
1010
,  // measure 5
0001
0010
0100
1000
0001
0010
0100
1000
0001
0010
0100
1000
0001
0010
0100
1000
,  // measure 6
0100
0010
0001
0010
0100
1000
0100
0010
0100
1000
0010
0100
0001
1000
0100
0010
,  // measure 7
0001
0010
0100
1000
0100
0010
0001
0010
0001
0100
0010
1000
0010
0100
0001
0010
,  // measure 8
0100
1000
0010
0100
0010
1000
0100
0010
0100
1000
0010
0100
0010
1000
0100
0010
,  // measure 9
0001
0010
0100
1000
0001
0100
0010
1000
0001
0010
0100
0010
0001
0010
0100
1000
,  // measure 10
0100
0010
0001
0010
0100
1000
0100
0010
0001
0100
0010
1000
0010
0100
0001
1000
,  // measure 11
0010
0100
0010
1000
0100
0010
0001
0010
0100
1000
0100
1000
0001
0010
0001
0010
,  // measure 12
0100
1000
0100
1000
0010
1000
0010
0100
0001
0100
0010
1000
0001
0010
0100
0010
,  // measure 13
0001
0010
0100
1000
0100
1000
0001
0100
0010
0100
0010
0100
0010
1000
0001
0010
,  // measure 14
0100
0010
0001
0010
0100
1000
0100
0010
0001
0010
0100
1000
0100
0010
0001
0010
,  // measure 15
0100
1000
0001
0010
0100
1000
0001
0010
0100
1000
0001
0100
0010
1000
0010
0100
,  // measure 16
0001
1000
0010
0100
0001
0010
0100
0010
0100
0010
0001
0010
0100
0010
0100
0010
,  // measure 17
0100
1000
0010
1000
0010
0100
0001
0100
0010
1000
0100
0010
0001
0010
0100
1000
,  // measure 18
0100
1000
0001
0010
0100
1000
0010
0100
0001
0000
0000
0000
1001
0000
0000
0000
,  // measure 19
0001
0010
0100
1000
0001
0010
0100
1000
0001
0010
0100
1000
0001
0010
0100
1000
,  // measure 20
0001
0100
0010
1000
0001
0100
0010
1000
0001
0100
0010
1000
0001
0100
0010
1000
,  // measure 21
0001
0010
0100
1000
0100
0010
0001
0010
0001
0010
0100
1000
0100
0010
0001
0010
,  // measure 22
0001
0010
0100
1000
0001
0010
0100
1000
0001
0100
0010
1000
0001
0100
0010
1000
,  // measure 23
0001
0010
0100
1000
0001
0010
0100
1000
0010
0100
0001
1000
0010
0100
0001
1000
,  // measure 24
0001
0010
0100
0010
0001
0010
0100
1000
0100
0010
0100
0010
0001
0010
0100
0010
,  // measure 25
0100
1000
0100
0010
0100
0010
0001
0010
0100
0010
0100
1000
0100
0010
0100
0010
,  // measure 26
1001
0000
0000
0000
,  // measure 27
0001
1000
1000
0010
0100
0100
0010
1000
,  // measure 28
0100
0010
0010
0001
0100
0100
0001
0010
,  // measure 29
0001
0100
0100
0010
1000
1000
0001
1000
,  // measure 30
0001
0010
0100
1000
0100
0010
0001
0010
0100
1000
0100
0010
0001
0010
0100
1000
,  // measure 31
0100
0010
0010
0001
1000
1000
0010
0100
,  // measure 32
0010
1000
1000
0100
0010
0010
0100
0010
,  // measure 33
0001
0010
0010
0100
1000
1000
0010
0100
,  // measure 34
0001
1000
0001
1000
0100
0010
0001
0010
0100
1000
0100
0010
0001
0010
0001
0010
,  // measure 35
0100
1000
0010
0000
0100
0000
0100
0000
0001
1000
0100
0000
0010
0000
0010
0000
,  // measure 36
0001
0010
0100
0000
1000
0000
1000
0000
1100
0000
0011
0000
0101
0000
1010
0000
,  // measure 37
0001
1000
0001
0000
0010
0000
0010
0000
0100
1000
0010
0000
0100
0000
0100
0000
,  // measure 38
0001
0100
0010
0000
1000
0000
1000
0000
1001
0000
1010
0000
0101
0000
0110
0000
,  // measure 39
0001
1000
0001
0000
0010
0000
0010
0000
0100
0001
0010
0000
0100
0000
0100
0000
,  // measure 40
1000
0010
0100
0000
1000
0000
1000
0000
0011
0000
0011
0000
1010
0000
1100
0000
,  // measure 41
0010
0100
0010
0000
0001
0000
0001
0000
1000
0010
0100
0000
0010
0000
0010
0000
,  // measure 42
1000
0100
1000
0000
0001
0000
0001
0000
0101
0000
1001
0000
0110
0000
0110
0000
,  // measure 43
0010
1000
0010
0000
0100
0000
0100
0000
0001
1000
0100
0000
0010
0000
0010
0000
,  // measure 44
0001
0010
0001
0000
1000
0000
1000
0000
0101
0000
1010
0000
1100
0000
1001
0000
,  // measure 45
0010
0100
0010
0000
1001
0000
1001
0000
1000
0001
1000
0000
0110
0000
0110
0000
,  // measure 46
0010
0100
0001
0000
1100
0000
1100
0000
0011
0000
0110
0000
0101
0000
1010
0000
,  // measure 47
0001
0010
0001
0000
0001
0000
0001
0000
0100
1000
0100
0000
0100
0000
0100
0000
,  // measure 48
0010
1000
0010
0000
0010
0000
0010
0000
1001
0000
0110
0000
1001
0000
0110
0000
,  // measure 49
0001
0100
0001
0000
0001
0000
0001
0000
0100
0010
0100
0000
0100
0000
0100
0000
,  // measure 50
0001
1000
0001
0000
0001
0000
0001
0000
0011
0000
1100
0000
1100
0000
0011
0000
,  // measure 51
0001
1000
0001
1000
0010
0100
0010
0100
0001
0010
0001
0010
0100
1000
0100
1000
,  // measure 52
0010
0100
0001
1000
0100
0010
0100
0010
0001
0010
0100
1000
0100
1000
0010
0100
,  // measure 53
0010
0100
0001
1000
0010
0100
0001
0010
0100
0010
0100
1000
0100
0010
0001
0010
,  // measure 54
0100
1000
0100
0010
0001
0100
0010
1000
0010
0100
0001
1000
0010
0100
0010
1000
,  // measure 55
0010
0100
0001
1000
0010
0100
0001
0010
0100
0010
0100
1000
0100
1000
0100
0010
,  // measure 56
0001
0100
0010
1000
0010
0100
0001
0010
0100
1000
0010
0100
0001
0010
0100
1000
,  // measure 57
0010
0100
0001
0010
0100
1000
0010
0100
0001
1000
0100
0010
0100
0001
0100
0010
,  // measure 58
0100
1000
0010
0100
0010
1000
0010
0100
0010
1000
0001
0010
0100
0010
0100
1000
,  // measure 59
0010
0100
0001
0100
0001
0010
0100
1000
0010
0100
0001
0010
0001
0010
0100
0010
,  // measure 60
0100
1000
0100
1000
0010
0100
0001
0010
0100
1000
0100
0010
0001
0010
0001
0010
,  // measure 61
0100
1000
0100
0010
0001
0010
0100
1000
0100
0010
0001
0010
0001
0010
0100
1000
,  // measure 62
0001
0010
0100
1000
0100
1000
0100
0010
0001
0010
0100
1000
0100
0010
0001
1000
,  // measure 63
0100
0010
0001
1000
0100
0010
0001
0010
0100
1000
0100
0010
0001
0010
0100
1000
,  // measure 64
0100
0010
0001
1000
0100
0010
0001
0010
0100
1000
0010
0100
0010
1000
0010
0100
,  // measure 65
0001
0010
0100
1000
0100
0010
0001
0010
0100
1000
0100
0010
0001
0100
0010
1000
,  // measure 66
0010
0100
0001
0100
0010
1000
0010
0100
0001
1000
0001
1000
0010
1000
0010
1000
,  // measure 67
0100
0010
0001
0010
0100
1000
0001
0010
0100
1000
0001
0100
0010
1000
0001
0100
,  // measure 68
0010
1000
0001
0010
0100
1000
0100
0010
0001
0010
0100
1000
0100
0010
0001
0010
,  // measure 69
0100
0010
0001
0010
0100
1000
0010
0100
0001
1000
0010
0100
0010
1000
0010
1000
,  // measure 70
0010
0100
0001
0010
0100
0010
0100
0010
0001
0010
0100
1000
0010
0100
0010
1000
,  // measure 71
0001
0100
0010
1000
0010
0100
0010
1000
0100
0010
0001
0010
0001
0010
0100
1000
,  // measure 72
0100
0010
0100
1000
0100
0010
0100
0010
0001
0010
0100
1000
0100
1000
0100
0010
,  // measure 73
0001
0010
0001
0010
0001
0010
0001
0010
0100
1000
0100
1000
0100
1000
0100
0010
,  // measure 74
1001
0000
1001
0000
,  // measure 75
0100
1000
0100
1000
0010
1000
0010
1000
0001
1000
0001
1000
0010
1000
0010
1000
,  // measure 76
0100
1000
0100
1000
0010
1000
0010
1000
0001
1000
0001
1000
0010
1000
0010
1000
,  // measure 77
0100
0010
0001
0010
0100
1000
0100
0010
0001
0010
0100
1000
0100
0010
0001
0010
,  // measure 78
0001
0010
0100
1000
0010
0100
0001
1000
0010
0100
0001
0010
0100
0010
0001
0010
,  // measure 79
0001
0000
0110
0000
,  // measure 80
1001
0000
0000
0000
;
