#TITLE:Inside the Winter Storm;
#SUBTITLE:;
#ARTIST:Dragonforce;
#TITLETRANSLIT:;
#SUBTITLETRANSLIT:;
#ARTISTTRANSLIT:;
#CREDIT:B. Abear;
#BANNER:Bn-Winter.png;
#BACKGROUND:Bg-Winter.png;
#LYRICSPATH:;
#CDTITLE:;
#MUSIC:Inside the Winter Storm.ogg;
#OFFSET:-0.113;
#SAMPLESTART:45.465;
#SAMPLELENGTH:28.600;
#SELECTABLE:YES;
#BPMS:0.000=200.000,494.000=100.000,554.000=200.000,698.000=140.000,890.000=200.000;
#STOPS:145.000=1.800
,354.000=0.900
,355.000=0.900
,416.000=0.900
,425.000=3.300
,691.000=0.600
,692.000=0.900
,697.000=2.100
,1258.000=0.900
,1267.000=3.300
,1393.000=0.600
,1394.000=0.900
;
#BGCHANGES:;
// cache tags:
#FIRSTBEAT:15.000;
#LASTBEAT:1428.250;
#SONGFILENAME:Songs/Dragonforce/Inside the Winter Storm/Inside the Winter Storm.sm;
#HASMUSIC:1;
#HASBANNER:1;
#MUSICLENGTH:491.624;
// end cache tags

//---------------dance-single - B. Abear----------------
#NOTES:
     dance-single:
     B. Abear:
     Challenge:
     15:
     1.000,1.000,0.352,0.655,1.000,3535.000,173.000,322.000,199.000,2.000:



0000
0000
0000
0000
,
0000
0000
0000
0000
,
0000
0000
0000
0000
,
0000
0000
0000
0000
0000
0000
0001
1000
,
1100
0000
1000
M000
0001
000M
0220
0000
,
0000
0000
0000
0000
0000
0330
0202
0300
,
2203
0000
0000
0000
0000
0000
0000
3300
,
2020
0000
0000
0000
0000
0030
0001
3001
,
M2M2
M0M0
M0M0
M0M0
M0M0
M0M0
M0M0
M3M0
,
0103
0010
1000
0001
0010
0001
1000
0100
1000
0010
0100
0001
1000
0001
0010
0100
,
1000
0000
0100
0000
0010
0100
0010
0000
0001
0000
1000
0000
0001
0100
0001
0000
,
0100
0000
0010
0000
1000
0010
1000
0000
0001
0000
0010
0000
0100
1000
0100
0000
,
1000
0000
0001
0000
0100
0001
0100
0000
0001
0000
1000
0000
0100
1000
0100
0000
,
0010
0001
2000
3020
0230
0302
2003
3200
,
0310
0000
0001
0000
1000
0001
1000
0000
0010
0000
0100
0000
0001
0100
0001
0000
,
1000
0000
0100
0000
0010
0001
0010
0000
0100
0000
0010
0000
0001
1000
0001
0000
,
1MM2
0000
2003
0000
3200
0000
0310
0001
1000
0010
1000
0010
0100
0001
0100
0001
,
4000
0000
0000
0000
3400
0000
0000
0000
0340
0000
0000
0000
0031
1000
0001
0000
,
1000
0100
0010
0001
1000
0001
0100
0010
1000
0010
0100
0001
1000
0100
1000
0001
,
0010
0001
1000
0010
1000
0001
0010
0100
2000
0000
3002
0000
0203
0000
0320
0000
,
1030
0000
0001
0100
0001
0100
0001
0100
0010
0000
1000
0100
1000
0100
1000
0100
,
0020
0032
4003
3400
0320
0032
4003
3040
,
0130
0001
1000
0010
0100
0010
1000
0001
0010
0001
1000
0100
1000
0001
1000
0001
,
0200
0000
0310
1000
0001
1000
0100
0010
0001
1000
0001
0100
0010
1000
0010
0100
,
0004
0100
0000
0100
0003
0100
0040
1000
0000
1000
0030
1000
0100
0000
0010
0000
,
M220
0330
0M22
0033
20M2
3003
202M
3030
,
2MM2
0003
3001
0100
0010
0100
0001
1000
,
1000
0100
0010
0010
0001
1000
0001
0100
,
0010
0100
0100
0001
0010
0010
0100
1000
,
0100
0010
0010
0001
0100
0100
0010
1000
,
2002
0000
0000
0000
,
0000
0000
0000
0000
,
0000
0000
0000
3003
0110
1001
0110
1010
,
1001
0011
0110
1100
1001
0101
0110
1010
,
1000
0010
0100
0001
1000
0001
1000
0100
0010
0001
1000
0100
0010
0001
0010
0001
,
1000
0010
0100
0001
0100
0001
1000
0100
1000
0001
0010
0001
1000
0100
0010
0000
,
0011
0000
0000
0000
2MM2
0000
3000
0000
1003
0000
0100
0000
1000
0001
1000
0000
,
0001
0000
0100
0000
0010
1000
0010
0000
2000
0000
3100
0010
0001
1000
0002
0000
,
1003
0000
0001
0000
1000
0100
1000
0000
0002
0000
0103
0010
0100
0001
1000
0000
,
0001
1000
0001
0000
1000
0100
1000
0000
0020
0000
0030
0000
2000
0000
3000
0000
,
0200
0000
0300
0000
1000
0010
0100
0001
1000
0000
0100
0000
0010
0001
0010
0000
,
0001
0000
1000
0000
0010
0100
0010
0000
0100
0000
0001
0000
1000
0001
1000
0000
,
0100
0000
0010
0000
0001
0010
0001
0000
1000
0010
0100
0001
0100
0001
1000
0010
,
0100
0001
0100
0001
1000
0100
1000
0000
1100
0000
0001
0000
1100
0000
0001
0000
,
0110
0000
1000
0000
0010
0100
0001
0000
0100
0010
1000
0001
1000
0001
0010
0100
,
1000
0100
1000
0001
0100
0010
0100
0001
2000
0000
3001
0100
0010
1000
0200
0000
,
0310
0001
1000
0001
0200
0000
0320
0000
1030
0100
1000
0001
1000
0100
0010
0001
,
1000
0001
0100
0010
1000
0001
0010
0100
2000
0000
3001
0100
0002
0000
1003
0100
,
0020
0000
0032
0000
2003
0000
3200
0000
0310
0000
0001
0000
1000
0001
1000
0000
,
0001
0000
0100
0000
0010
1000
0010
0000
0100
0000
0001
0000
1000
0100
1000
0000
,
0001
0000
0010
0000
0100
0010
0100
0000
0010
0001
0000
1000
0010
0100
0001
0000
,
1000
0100
1000
0000
0001
0100
0001
0000
0101
0000
1000
0000
0010
0000
0101
0000
,
1000
0000
0010
0000
1001
0000
0110
0000
M02M
0000
M03M
0000
M02M
0030
M02M
0000
,
M03M
0000
M02M
0030
M02M
0000
M03M
0000
M02M
0000
M03M
0000
M02M
0030
M02M
0000
,
M03M
0000
M02M
0030
M02M
0000
M03M
0000
20MM
0000
30MM
0000
20MM
3000
20MM
0000
,
30MM
0000
20MM
3000
20MM
0000
30MM
0000
0001
0000
0001
0100
0001
0100
0001
0000
,
0001
0100
0001
1000
0100
1000
0010
1000
02MM
0000
03MM
0000
02MM
0300
02MM
0000
,
03MM
0000
02MM
0300
01MM
1000
01MM
1000
02MM
0000
03MM
0000
02MM
0300
02MM
0000
,
03MM
0000
02MM
0300
0010
0001
1000
0001
0100
0010
1000
0001
0010
0001
1000
0100
,
1000
0001
0100
0010
1000
0100
1000
0001
0100
0010
0100
0010
1000
0001
1000
0001
,
0100
0010
0100
0010
1000
0001
1000
0001
0010
0000
0100
0000
1000
0100
1000
0000
,
0001
0000
0100
0000
0010
1000
0010
0000
0200
0000
0301
1000
0001
0000
2000
0000
,
3100
0000
0010
0000
0001
1000
0001
0000
0200
0000
0310
0000
1000
0001
1000
0000
,
0010
0000
0100
0000
0001
0100
0001
0000
2000
0000
3200
0000
0320
0000
0032
0000
,
4003
0000
3040
0000
0230
0000
0302
0000
1003
0000
0100
0000
1000
0010
1000
0000
,
0001
0000
0100
0000
0010
0100
0010
0000
0100
0000
0001
0000
0010
0001
0010
0000
,
0100
0000
1000
0000
0001
1000
0001
0000
1000
0100
1000
0100
0010
0001
0010
0001
,
1000
0100
1000
0100
0010
0001
0010
0001
1000
0010
0100
0001
0100
0010
0100
0001
,
0010
0100
1000
0100
0010
0100
1000
0000
0001
0100
0010
1000
0001
0010
0001
1000
,
0100
0010
0001
1000
0001
1000
0010
0100
0020
0000
0130
0001
1000
0100
0020
0000
,
0031
1000
0001
0100
0010
1000
0001
0010
0002
0000
1003
0100
1000
0010
0100
0010
,
0100
0001
1000
0100
1000
0001
0100
0010
0200
0000
0301
0000
2000
0000
3200
0000
,
0320
0000
0032
0000
2003
0000
3020
0000
0130
0000
0001
0000
1000
0100
1000
0000
,
0001
0000
0010
0000
0001
1000
0001
0000
0100
0000
0010
0000
0100
0001
0100
0000
,
0010
0000
1000
0000
0010
0100
0010
0000
1000
0100
0010
0000
0011
0000
0011
0000
,
0001
0101
0101
0100
1010
0100
0001
1000
,
0011
0000
0001
0000
1000
0000
0100
0000
0010
0001
1000
0001
0100
0010
1000
0001
,
0010
0001
1000
0100
0010
0001
0010
0001
1000
0010
0100
0001
0100
0010
0100
0001
,
1000
0100
0010
0001
0010
0100
1000
0001
0100
0001
1000
0100
1000
0001
0010
0100
,
1000
0001
0010
0100
1000
0001
0100
0001
0010
0100
0010
0100
1000
0001
1000
0001
,
0010
0100
0010
0100
1000
0001
1000
0001
0200
0000
0000
0000
0000
0000
0302
0000
,
0000
0000
2003
0000
3200
0000
0000
0320
,
0000
0000
0032
0000
2003
0000
0000
3020
,
0000
0000
0000
0000
0230
0000
0000
0000
0301
0010
0001
0010
0100
1000
0001
0010
,
0001
0010
0100
1000
0004
0000
0000
0003
2001
0000
3001
0000
0100
0000
0120
0000
,
1030
0001
0021
0130
1200
0310
0001
2001
,
3001
0100
0102
0013
2002
0000
0000
0000
,
0000
0000
0000
0000
0000
0000
3003
0000
1000
0010
1000
0010
0100
0001
1000
0010
,
1000
0010
0100
0001
1000
0100
1000
0000
22MM
0000
3300
0000
M22M
0000
0330
0000
,
0011
1010
0011
1010
,
0011
1010
0011
2000
,
3001
0100
0010
1000
0001
1000
0100
0010
0001
1000
0001
0100
0010
1000
0001
1000
,
0100
0010
0001
1000
0100
1000
0001
0100
0001
0100
0010
0100
0001
1000
0100
0010
,
0001
0010
0001
1000
0100
0010
0001
1000
0001
0100
0010
1000
0100
1000
0001
0010
,
0001
1000
0001
1000
0010
0100
0001
1000
0001
1000
0010
0100
0001
0010
0001
1000
,
0200
1300
1000
0200
1300
1000
0002
0013
,
0200
0000
0310
0000
0010
0000
0002
0000
1003
0000
1000
0000
0010
0100
0001
0100
,
0002
0000
0013
0000
0010
0000
0002
0000
0013
0000
0010
0000
0100
1000
0001
0010
,
0200
0000
1300
0000
0100
0010
0001
0000
1001
0000
1000
0001
0100
0010
0100
0000
,
0001
0100
0010
1000
0001
1000
0100
0010
0001
1000
0001
0100
0010
1000
0100
0010
,
0100
1000
0001
0010
0100
1000
0001
0100
0010
0100
0001
1000
0100
1000
0001
0010
,
0001
0010
0100
1000
0100
1000
0001
0100
0010
1000
0001
1000
0001
0010
0001
1000
,
0001
0000
1000
0000
0100
0010
0001
0000
1000
0000
0010
0000
0100
0001
0100
0000
,
0101
M11M
0000
0000
0000
0000
0000
0000
,
MMMM
22MM
0000
0000
,
0000
0000
0000
0000
,
0000
3300
M11M
0000
4M04
00M0
0M00
00M0
,
0M00
0000
00M0
0000
0M00
0000
30M3
0000
0001
0100
0010
1000
0001
1000
0100
0010
,
0100
1000
0001
0010
0001
0010
0100
1000
0001
0100
0001
1000
0100
1000
0001
0010
,
0100
1000
0001
0100
0001
1000
0010
1000
0010
0100
0001
1000
0001
0010
0100
1000
,
0100
0010
0100
0010
0001
1000
0010
0100
0001
1000
0100
1000
0001
0010
0001
1000
,
0010
0100
0001
1000
0001
1000
0100
0010
0100
1000
0001
0100
0010
0100
0001
1000
,
0001
1000
0100
1000
0001
0010
0001
0100
0010
0100
0010
1000
0001
1000
0100
0010
,
0001
0010
0100
1000
0001
0100
0001
0000
1000
0010
0000
0100
0001
1000
0100
0000
,
0010
0001
0010
0001
1000
0010
1000
0010
0100
0001
0100
0000
0101
0000
0001
0100
,
0001
0000
1001
0000
1000
0001
0100
0000
0010
0000
1000
0000
0001
1000
0001
0000
,
1000
0000
0100
0000
0010
0001
0010
0000
0100
0000
1000
0000
0001
0100
0001
0000
,
1000
0000
0010
0000
0100
0010
0100
0000
0001
0000
1000
0000
0001
0010
0001
0000
,
1000
0000
0100
0000
1000
0100
1000
0000
0001
0000
0100
0000
0010
0100
0010
0000
,
1000
0000
0001
0000
0010
0001
0010
0000
0100
0000
1000
0000
0001
1000
0001
0000
,
0100
0000
0010
0000
1000
0010
1000
0000
0001
0000
0010
0000
0001
1000
0001
0000
,
0100
0000
0010
0000
1000
0010
1000
0000
0001
0100
0001
0100
0010
1000
0001
0100
,
0001
0100
0010
1000
0001
0010
0001
0010
0100
1000
0100
1000
0001
0100
0001
0100
,
0010
1000
0010
1000
0001
0010
0001
0000
1MM1
0000
0000
0000
0000
0000
0000
0000
,
0000
0000
0000
0001
1000
0100
0010
0001
,
0000
1000
0000
0000
0001
0100
0010
0100
,
0000
0000
0001
0000
1000
0100
0010
0100
1000
0000
0010
0000
0100
0000
0001
0000
,
0000
1000
0000
0000
0000
0100
0010
0001
,
0010
0100
1000
0001
0100
0000
0010
0000
1000
0000
0001
0000
0010
0000
0100
0000
,
0000
0000
1000
0000
0000
0000
0001
0000
1000
0000
0100
0010
0001
1000
0001
0010
,
0001
0100
1000
0100
0001
0010
1000
0010
0002
0000
2003
0000
3200
0000
0320
0000
,
0030
0001
1000
0200
0320
0230
2300
3001
,
0100
1000
0100
0001
0010
1000
0010
0001
1000
0000
0010
0000
0100
0000
0001
0000
,
0000
1000
0000
0100
0010
0001
1000
0001
,
0000
0100
0000
0010
1000
0001
1000
0100
,
0010
0001
1000
0010
0100
0001
0100
0010
1000
0100
0001
0100
0010
0001
1000
0001
,
0100
1000
0100
0010
1000
0001
1000
0100
0010
0000
0001
0000
1000
0000
0001
0000
,
0000
0100
0000
0010
0100
0001
1000
0100
,
0010
0000
0000
0001
0000
0000
1000
0000
1001
0000
0000
0000
0001
0000
0001
0000
,
0010
0010
0100
0100
1000
1000
0010
0010
,
0100
0100
0001
0001
2MM2
0000
0000
0000
,
0000
0000
0000
0000
0000
0000
3MM3
M00M
2MM2
0000
0000
0000
0000
0000
0000
0000
,
0000
0000
0000
0000
0000
0000
3003
0000
0001
0100
0001
0000
0100
0010
0100
0000
,
0010
1000
0010
0000
1000
0001
1000
0000
0001
0010
0001
0000
1000
0100
1000
0000
,
0001
0100
0001
0000
0100
0010
0100
0000
0010
0100
0010
0000
1000
0001
1000
0000
,
0001
0010
0001
0000
1000
0100
1000
0000
0001
0010
0001
0000
1000
0100
1000
0000
,
0001
0100
0001
0000
0010
0100
0010
0000
0100
1000
0100
0000
0010
0001
0010
0000
,
0001
1000
0001
0000
0100
0001
0100
0000
0010
1000
0010
0000
0100
0001
0100
0000
,
0001
0010
0001
0000
1000
0100
1000
0000
M1M1
0000
0000
0000
M1M1
0000
0110
0000
,
0000
0000
0110
0000
M1M1
0000
0000
0000
0001
0100
0001
0100
0010
1000
0010
1000
,
0001
0010
0001
0010
0100
1000
0100
1000
0001
0000
1000
0000
0100
1000
0100
0000
,
0010
0000
0001
0000
1000
0001
1000
0000
0001
0000
0100
0000
0010
0100
0010
0000
,
0100
0000
0001
0000
1000
0100
1000
0000
0001
0000
0010
0000
0100
1000
0100
0000
,
0010
0000
0001
0000
1000
0001
1000
0000
0001
0000
0100
0000
0010
1000
0010
0000
,
0100
0000
0001
0000
1000
0100
1000
0000
0001
0000
0010
0000
0100
0010
0100
0000
,
0010
0000
0001
0000
1000
0001
1000
0000
0001
0000
0100
0000
0010
1000
0010
0000
,
1000
0000
0100
0000
0010
0001
0010
0000
0100
1000
0001
0010
0001
0010
0100
1000
,
0001
0010
0001
0010
0100
1000
0100
1000
0001
1000
0001
1000
0010
0100
0010
0100
,
0001
0010
0001
0010
0100
1000
0100
1000
0001
0000
0100
0000
0010
1000
0010
0000
,
0100
0000
0001
0000
1000
0001
1000
0000
0001
0000
0010
0000
0001
1000
0001
0000
,
0100
0000
0010
0000
0100
0001
0100
0000
0001
0000
0010
0000
0100
1000
0100
0000
,
1000
0000
0001
0000
0100
0001
0100
0000
0010
0000
1000
0000
0001
1000
0001
0000
,
1000
0000
0100
0000
0010
0001
0010
0000
0100
0000
1000
0000
0001
0100
0001
0000
,
0100
0000
0010
0000
1000
0010
1000
0000
0001
0000
0010
0000
0100
1000
0100
0000
,
0010
0000
0001
0000
1000
0001
1000
0000
0001
0010
0001
0010
0001
1000
0001
1000
,
0001
0100
0001
0100
0010
0100
0010
0000
1010
0000
1000
0000
0002
0000
1003
0000
,
1100
0000
0100
0000
0040
0000
0000
0000
0031
1000
0001
1000
0100
0010
0001
1000
,
0010
1000
0001
0010
0001
1000
0100
0010
0001
1000
0001
0100
0010
1000
0001
0100
,
0001
1000
0100
1000
0100
0010
0001
1000
0001
0100
0001
1000
0010
0100
0001
1000
,
0010
0100
0001
1000
0001
0010
0100
1000
0001
0100
0010
1000
0001
1000
0001
0010
,
0100
1000
0100
1000
0001
0100
0010
0100
0002
0000
1003
0100
1000
0001
0100
0001
,
1000
0010
1000
0001
0010
0001
1000
0010
1000
0100
1000
0100
0010
0001
0010
0001
,
1000
0010
1000
0010
0100
0001
1000
0000
1001
0000
0000
0000
2MM2
0000
3003
0000
,
2MM2
0000
3000
0000
1003
0100
1000
0100
0020
0000
0030
0000
0011
0000
1001
0000
,
0000
1010
2MM2
0003
3002
0000
0000
0203
,
0000
0320
2030
0000
,
0000
0000
0000
0000
3100
0000
0010
0001
2000
0000
0000
0000
0000
0000
3020
0000
,
0000
0000
0000
0000
0230
0000
0000
0000
0301
1000
0002
0000
0000
0000
0000
0000
,
0000
0000
0003
0000
0201
0000
0000
0320
,
0000
0000
0000
2030
0000
0000
3100
0000
0010
0000
0001
0000
,
2000
0000
0000
0000
0000
0000
3001
0100
0020
0000
0000
0000
0000
0000
0230
0000
,
0000
0000
0000
0000
0302
0000
0000
0000
1103
0100
0020
0000
0000
0000
0000
0000
,
0000
0000
0000
0000
0000
0000
0000
0000
0031
0000
0001
0000
0001
0000
0100
0010
,
1000
0001
0010
0100
1000
0000
0001
0010
0001
0010
1000
0010
0001
0000
0100
0010
,
0100
1000
0100
0001
1000
0100
0010
0001
1000
0000
1000
0000
1000
0000
0010
0100
,
0001
0100
0001
1000
0100
0000
0010
0001
1000
0100
0001
0100
1000
0000
0001
0100
,
0001
0010
1000
0010
0001
1000
0100
0010
0100
0000
0100
0000
0011
0000
0010
0100
,
1000
0001
0100
0001
1001
0000
1000
0100
0010
0100
0010
0001
0011
0000
0010
0001
,
0100
0010
0100
0001
1000
0100
0010
0001
1001
0000
0100
0000
1010
0000
0010
0100
,
0001
0100
1000
0100
0001
0100
1000
0100
0101
0000
1001
0000
1100
0000
1001
0000
,
0011
1001
1010
1001
14MM
0000
1000
1000
,
0000
0000
0000
0000
1000
0000
1000
1000
,
0000
0000
0000
0000
1000
0000
1000
1000
,
0000
0000
0000
0000
1000
0000
1000
1000
,
0300
0000
0000
1000
0001
1000
0001
0000
0000
0001
0000
0000
M4M1
0000
0000
0000
0000
0000
0001
0000
0000
0001
0000
0000
,
0000
0000
0000
0000
0001
0000
0001
0001
,
0000
0000
0301
0010
M14M
0000
0100
0100
,
0000
0000
0000
0000
0000
0000
0000
0000
0000
0000
0000
0000
0000
0000
0000
0000
0000
0000
0000
0000
0000
0000
0000
0000
0130
0000
0000
0000
0000
0000
1000
0000
0000
0001
0000
0000
0100
0000
0000
0001
0000
0000
1000
0000
0100
0000
0010
0000
,
0001
0100
0001
0100
0010
1000
0010
1000
0001
0100
0001
0100
0001
0100
0010
0100
,
0010
0100
0010
0100
1000
0100
1000
0100
0001
0100
0001
0100
0001
0100
0010
0100
,
0010
0100
0010
0100
1000
0100
1000
0100
0010
1000
0010
1000
0010
1000
0010
0100
,
0010
0100
0010
0100
0010
0001
0010
0001
0010
1000
0010
1000
0010
1000
0010
1000
,
0010
0000
0100
0001
0011
0000
0010
0000
0100
1000
0100
1000
0100
1000
0100
0010
,
0100
0010
0100
0010
0100
0001
0100
0001
0100
0010
0100
0010
0100
0010
0100
1000
,
0100
1000
0100
1000
0100
0010
0100
0010
0001
1000
0001
1000
0001
1000
0001
0100
,
0001
0100
0001
0100
0001
0000
1000
0000
0001
0100
0010
0100
0001
1000
0100
0000
,
0100
1000
0001
0100
0001
0100
0010
1000
2MM4
0000
3000
0000
0000
0000
0200
0000
,
0300
0000
0020
0030
2000
3000
0000
0200
,
0300
0000
0020
0033
42MM
0300
0000
0002
,
0003
0000
0020
0030
0000
0000
0000
3000
,
0001
0000
0001
0100
0010
0000
1000
0000
2040
0000
3000
0000
0000
0000
0200
0000
,
0300
0000
0002
0003
0200
0300
0000
0002
,
0003
0000
0200
0300
2000
3000
0000
0200
,
0300
0000
0000
0000
0000
0000
0000
0000
0000
0000
0000
0000
2000
0000
0000
0000
0000
0000
3000
0000
0000
0000
0000
0000
1030
0000
0000
0000
0000
0000
0001
0000
1000
0000
0001
0000
1000
0000
0000
0100
0000
0000
1000
0000
0000
0010
0000
0000
,
0100
0000
0010
0000
0110
0100
0001
0000
4MM2
0000
0003
0000
0000
0000
0200
0000
,
0300
0000
0020
0030
0200
0300
0000
0002
,
0003
0000
3010
0100
M2M4
0300
0000
0020
,
0030
0000
2000
3000
0200
0300
0000
0020
,
1033
0000
0000
1000
0100
0000
0010
0000
MM42
0000
0003
0000
0000
0000
2000
0000
,
3000
0000
0200
0300
0000
2000
3000
0000
,
0200
0300
0002
0033
2MM4
3000
0000
0200
,
0300
0000
0000
0000
0020
0000
0033
0000
0100
1000
0001
0010
0001
0010
0100
1000
,
0100
0000
1000
0000
0001
0000
1000
0001
1000
0000
0000
0000
0001
0000
0000
0000
0101
0000
0000
0000
0100
0000
0000
0000
0010
0000
0000
0000
1000
0000
0000
0000
,
1100
0100
0010
0011
0001
1000
1001
0001
,
0101
0000
0110
0000
2020
0000
0000
3030
0201
0000
0302
0000
2003
0000
3200
0000
,
0310
0001
0010
0001
1000
0001
1000
0001
0100
0010
0100
0010
1000
0001
1000
0000
,
1001
0000
0011
0000
0220
0000
0000
0330
0100
1000
0100
1000
0001
1000
0001
1000
,
0010
0100
0010
0100
0001
0100
0001
0100
0010
1000
0001
0010
0001
0010
0100
1000
,
0001
0010
0001
0010
0001
0100
0001
0100
0010
0000
1000
0000
0001
0100
0001
0000
,
1000
0000
0100
0000
0010
0100
0010
0000
0001
0000
1000
0000
0001
0100
0001
0000
,
1000
0000
0100
0000
1000
0001
1000
0000
0001
0000
0100
0000
0010
1000
0010
0000
,
0100
0000
0001
0000
1000
0100
1000
0000
1100
0000
0000
0000
0101
0000
0000
0000
,
0110
0000
0000
0000
1001
0000
0000
0000
0001
0010
0001
0010
0100
1000
0100
1000
,
0100
1000
0100
1000
0001
0100
0010
1000
0002
0000
0000
0000
0000
0000
2003
0000
,
3200
0000
0000
0000
0000
0000
0320
0000
0031
0100
0010
1000
0002
0000
2003
0000
,
3400
0000
0000
0000
0000
0000
0320
0000
0032
0000
1003
0100
2000
0000
3002
0000
,
0103
0010
0100
0010
2000
0000
3002
0000
2003
0000
3200
0000
0302
0000
0203
0000
,
0320
0000
2030
0000
3020
0000
0032
0000
1003
0100
1000
0001
0100
0010
0100
0001
,
1000
0100
1000
0001
0100
0010
0100
0001
1000
0100
1000
0100
0010
0001
1000
0001
,
1000
0100
1000
0100
0040
0000
0000
0000
0031
0100
0001
0100
0001
0100
0010
1000
,
0010
1000
0010
1000
0010
1000
0010
0000
1M10
0000
0000
0000
0010
0000
M101
0000
,
0200
2300
3200
0302
4003
0000
0000
0000
,
3100
0010
0001
1000
0001
0100
0001
1000
0100
1000
0010
0100
0001
1000
0100
1000
,
0001
0100
0010
0000
0400
0000
0000
0000
0301
1000
0001
1000
0010
1000
0010
1000
,
0001
0010
0001
0010
0100
0010
0100
0010
0002
0000
2003
0000
3020
0000
0230
0000
,
0302
0000
0003
0000
0010
0100
1000
0001
0020
0000
0031
1000
0001
0100
0010
0100
,
0001
1000
0001
0100
0010
0100
0001
1000
0001
0100
0010
0100
0001
1000
0001
0010
,
0100
1000
0001
1000
0010
0100
0001
0000
1000
0100
1000
0100
1000
0100
0010
0001
,
0010
0001
0010
0001
1000
0001
1000
0001
0100
0010
0100
0010
0100
0010
1000
0010
,
1000
0010
1000
0010
1000
0001
1000
0001
0010
0000
0020
0000
0000
0000
0130
0000
,
1000
0000
0001
0000
0100
0000
0010
0000
0100
0001
1000
0100
1000
0000
0001
0000
,
1000
0000
0100
0000
0010
0000
0100
0000
1000
0100
1000
0100
1000
0001
1000
0001
,
0100
0001
0100
0001
1000
0001
1000
0001
0200
0320
0230
0302
2003
0000
0000
0000
,
3200
0320
0230
2300
3002
0000
0000
0000
0103
0010
0100
0010
1000
0001
1000
0001
,
0100
0010
0100
0010
1000
0001
1000
0001
0100
0010
0100
0010
1000
0010
1000
0010
,
1000
0001
1000
0001
0010
0001
0010
0001
2000
0000
0000
0000
3001
0100
0002
0000
,
0000
0000
1003
0100
2000
0000
0000
0000
3001
0100
0001
0100
0010
1000
0010
0000
,
1010
0000
1000
0000
1001
0000
0001
0000
1000
0100
0010
0100
1000
0001
0100
0001
,
1000
0100
0010
0100
1000
0001
0100
0001
1000
0100
1000
0100
0010
0001
0010
0001
,
1000
0010
1000
0010
0100
0001
0100
0001
1000
0000
2000
0000
0000
0000
3010
0000
,
0100
0001
1000
0100
0010
0020
0000
0031
,
1000
0001
0010
0100
2100
0000
3001
0200
,
0000
0310
0100
0001
2000
0000
3200
0000
,
0310
0000
0001
0000
2000
0000
0000
0000
3010
0100
0001
1000
0001
1000
0010
0100
,
0001
1000
0001
1000
0010
0100
0001
1000
0001
0010
0100
1000
0001
0010
0100
1000
,
0001
0010
0100
1000
0001
0010
0100
1000
0001
0000
0001
0000
0001
0000
0100
0000
,
0100
0100
0010
0010
4000
0000
0000
0000
,
3200
0000
0320
0000
0032
0003
000M
2000
,
3000
M000
0020
0030
04M0
0000
0000
0000
,
0000
0000
0301
1000
0200
0000
0000
0320
,
0000
0000
0032
0000
2003
0000
0000
3020
,
0000
0000
0000
0000
2030
0000
0000
0000
3001
0010
0001
0010
0001
1000
0001
1000
,
0100
0010
0100
0010
0001
0010
0001
0000
0011
0000
0000
0000
1001
0000
0000
0000
,
1010
0000
0000
0000
0110
0000
0000
0000
0010
0100
0001
1000
0001
1000
0001
1000
,
0010
0100
0010
0100
0010
0100
0010
0100
0001
0010
0100
1000
0100
0010
0001
1000
,
0100
0010
0100
0010
0100
0010
0100
0010
0001
1000
0001
1000
0001
0000
0100
0000
,
0010
0000
0100
0000
0001
0000
1000
0000
0100
0000
0000
0010
0000
0000
0001
0000
,
4000
0000
0000
0000
0000
0000
0000
0000
3001
0100
0010
0100
0001
1000
0001
0010
,
0100
1000
0100
0010
0001
1000
0001
1000
0010
0000
0100
0000
0001
0100
0001
0000
,
1000
0000
0100
0000
0010
0001
0010
0000
0021
0000
0032
0000
2003
0000
3020
0000
,
0230
0000
0000
0000
0000
0000
0302
0000
0000
0000
0000
0000
2003
0000
0000
0000
0000
0000
0000
0000
0000
3000
0000
0000
1001
0000
0000
0000
0000
0000
0000
0000
0002
0000
0000
0000
0000
0000
0000
0003
0200
0000
0000
0000
0000
0000
0300
0000
,
0020
0000
0230
0000
0302
0003
2MM2
0000
0000
0000
0000
0000
,
0000
0003
3002
0003
0200
0000
0000
0320
,
0000
2030
3002
0000
,
0000
0000
0013
0100
0040
0000
0000
0000
,
0000
0000
0031
1000
0010
0100
0100
0010
,
0100
0000
0100
0000
0001
0000
1000
0000
0100
0010
0100
0010
0001
1000
0001
1000
,
0100
0010
0100
0010
0001
1000
0001
1000
0010
0000
0100
0000
0100
0000
0002
0000
,
2003
0000
3200
0000
0320
0000
0032
0000
1003
0010
1000
0010
0100
0010
0100
0010
,
1000
0010
1000
0010
0100
0010
0100
0010
1000
0100
0010
0001
1000
0001
0100
0010
,
1000
0100
1000
0001
0100
0010
0100
0001
1000
0100
1000
0001
0010
0001
0010
0100
,
1000
0001
0100
0010
0100
0001
1000
0100
1000
0001
0010
0001
0100
0010
1000
0010
,
0100
0001
1000
0100
0010
0100
1000
0001
1000
0001
0100
0010
1000
0001
0010
0100
,
1000
0001
0010
0001
1000
0010
0100
0001
1000
0100
1000
0100
1000
0001
1000
0001
,
1000
0100
1000
0100
1000
0001
1000
0001
0100
0010
1000
0001
0100
0010
1000
0001
,
1000
0100
0010
0100
1000
0100
0010
0100
1000
0010
1000
0010
0100
0001
0100
0001
,
1000
0100
1000
0100
0010
0001
0010
0001
1000
0010
1000
0010
0100
0001
0100
0001
,
1000
0100
1000
0100
0010
0001
0010
0001
2000
0000
0000
0000
3000
0000
2000
0000
,
0000
0000
3000
0000
2000
0000
0000
0000
3001
0000
0000
0100
0000
0000
0010
0000
,
1000
0000
0000
0100
0000
0000
0010
0000
0100
1000
0100
1000
0100
1000
0100
1000
,
0100
1000
0100
1000
0100
1000
0100
0000
2200
0000
3300
0000
MM22
0000
0033
0000
,
22MM
0000
3300
0000
MM22
0000
0033
0000
10MM
0100
1000
0000
0001
0100
0001
0000
,
0100
0010
0100
0000
0010
1000
0010
0000
0100
0001
0100
0000
0001
1000
0001
0000
,
1000
0100
1000
0000
0001
0010
0001
0000
1000
0100
1000
0000
0001
0100
0001
0000
,
0100
0010
0100
0000
0010
1000
0010
0000
0100
0001
0100
0001
1000
0010
1000
0010
,
0100
0001
0100
0001
1000
0010
1000
0010
0200
0000
0001
0000
0301
0000
2000
0000
,
0100
3100
0020
0031
2000
0100
3100
2000
,
0010
0000
3010
0000
0200
0000
0301
0000
1000
0100
1000
0001
0100
0001
1000
0010
,
1000
0001
0010
0001
1000
0100
1000
0001
0010
0001
1000
0100
1000
0001
0100
0001
,
1000
0100
1000
0010
0100
0001
1000
0000
0001
0100
0001
0000
1000
0010
1000
0000
,
0100
0010
0100
0000
0010
0001
0010
0000
0001
0100
0001
0000
1000
0010
1000
0000
,
0001
0100
0001
0000
1000
0100
1000
0000
0100
0010
0100
0000
0010
0001
0010
0000
,
0001
1000
0001
0000
0100
0001
0100
0000
0010
0000
1000
0000
0001
1000
0001
0000
,
1000
0000
0100
0000
0010
0001
0010
0000
0011
0000
1001
0000
0000
0000
0000
0000
,
0000
0000
MMMM
0202
,
0000
0000
0000
0000
,
0000
0000
0000
0000
0000
0303
M11M
0000
,
0404
0000
0000
0000
0000
0000
0000
0303
,
0001
1000
0010
0100
0001
1000
0001
1000
0100
0010
0001
0010
0001
1000
0010
0100
,
0001
1000
0100
1000
0001
0010
0100
1000
0001
1000
0010
0100
0001
1000
0001
1000
,
0100
0010
0001
1000
0001
0100
0010
0100
0001
1000
0100
0010
0001
1000
0100
1000
,
0001
0010
0100
1000
0001
0010
0001
0100
0010
1000
0001
1000
0001
0010
0100
1000
,
0100
1000
0001
0100
0010
0100
0001
1000
0100
1000
0001
0010
0001
1000
0010
0100
,
0001
0100
0010
1000
0001
0100
0010
1000
0100
0010
0001
1000
0100
0010
0100
1000
,
0001
0100
0001
0100
0010
0100
0010
0100
0001
0100
0001
0100
0010
0100
0010
0100
,
0001
1000
0100
1000
0010
0100
0001
0010
0100
1000
0100
1000
0100
1000
0100
1000
,
0001
0000
0100
0000
0010
1000
0010
0000
0100
0000
0001
0000
1000
0100
1000
0000
,
0001
0000
0010
0000
0100
1000
0100
0000
0010
0000
0001
0000
1000
0001
1000
0000
,
0001
0000
0100
0000
0010
1000
0010
0000
0100
0000
0001
0000
1000
0100
1000
0000
,
0001
0000
0010
0000
0100
0010
0100
0000
0010
0000
0001
0000
0100
0001
0100
0000
,
0010
0000
1000
0000
0001
1000
0001
0000
0010
0000
0100
0000
1000
0100
1000
0000
,
0001
0000
0100
0000
0010
0100
0010
0000
0100
0000
0001
0000
0100
0001
0100
0000
,
0001
0010
0100
1000
0100
1000
0001
0010
0100
1000
0100
1000
0001
0100
0001
0100
,
0010
1000
0010
1000
0001
1000
0001
1000
0001
0100
0001
0100
0010
0100
0010
0100
,
0001
0000
1000
0000
0100
1000
0100
0000
0010
0000
0001
0000
1000
0100
1000
0000
,
0001
0000
0100
0000
0010
0100
0010
0000
0100
0000
0001
0000
1000
0100
1000
0000
,
0001
0000
0010
0000
0100
1000
0100
0000
0010
0000
0001
0000
1000
0001
1000
0000
,
0010
0000
0100
0000
0001
0100
0001
0000
1000
0000
0100
0000
0010
0001
0010
0000
,
0100
0000
1000
0000
0001
1000
0001
0000
0100
0000
0010
0000
1000
0001
1000
0000
,
0001
0000
0010
0000
0100
1000
0100
0000
0010
0000
0001
0000
0100
0001
0100
0000
,
0010
1000
0001
0100
0001
0100
0010
1000
0001
0100
0001
0100
0010
1000
0010
1000
,
0001
0010
0100
1000
0100
1000
0001
0010
0100
1000
0100
1000
0004
0000
4003
0000
,
3001
0100
0010
1000
0001
1000
0100
0010
0001
1000
0001
0100
0010
1000
0001
0010
,
0100
1000
0100
1000
0001
0100
0010
0100
0001
1000
0100
1000
0001
0010
0100
1000
,
0001
0100
0001
0100
0010
1000
0001
0010
0100
1000
0100
1000
0010
0100
0001
0100
,
0001
1000
0100
1000
0001
0010
0001
1000
0010
0100
0001
1000
0010
0100
0001
1000
,
0200
0000
0310
0001
1000
0100
1000
0001
0010
0100
1000
0001
0100
0010
0100
0001
,
1000
0100
1000
0100
0010
0001
0010
0001
1000
0010
1000
0010
0100
0001
0100
0000
,
0101
0000
0000
0000
11MM
0000
0000
0000
1MM1
0000
0000
0000
0001
0100
0010
1000
,
0001
1000
0100
0010
0001
0010
0100
1000
0001
0100
0010
0100
0001
1000
0100
0010
,
0100
1000
0001
1000
0001
0010
0100
1000
0001
0100
0001
0000
0101
0000
0110
0000
,
1010
0000
1000
0001
1000
0001
0100
0010
1000
0001
1000
0001
4M00
0004
00M0
0000
,
0M00
0000
00M0
0000
0M00
0000
00M0
0000
0M00
0000
30M3
0000
0100
0010
0100
0010
,
0100
0000
0000
0000
0001
1000
0001
1000
0001
0000
0000
0000
1000
0100
1000
0000
,
0100
0000
0000
1100
0000
0000
0000
0000
0000
1001
0000
0000
0000
0000
0000
0000
0000
0000
0101
0000
0000
0000
0110
0000
,
0000
0000
0000
0000
1010
0000
0000
0000
0000
0000
0000
0000
1001
0000
0000
0000
0000
0000
0000
0000
1100
0000
0000
0000
0000
0000
0000
0000
1001
0000
0000
0000
0000
0000
0000
0000
4000
0000
0000
0004
0000
0000
0000
0000
0000
0000
0000
0000
,
0000
3003
0000
0000
1001
0000
0110
0000
2002
0000
0000
0000
0000
0000
0000
0000
,
0000
3003
0000
0000
0000
0000
0000
0000
0000
0000
0000
0000
0000
0000
0000
0000
;
