#TITLE:Symbolic;
#SUBTITLE:(Cryptex Mix);
#ARTIST:TaQ Remixed By DM Ashura;
#TITLETRANSLIT:;
#SUBTITLETRANSLIT:;
#ARTISTTRANSLIT:;
#CREDIT:;
#BANNER:symcrypt-banner.PNG;
#BACKGROUND:symcrypt-bg.PNG;
#LYRICSPATH:;
#CDTITLE:CMGCDTITLE.PNG;
#MUSIC:Symbolic (Cryptex Mix).mp3;
#OFFSET:0.000;
#SAMPLESTART:55.880;
#SAMPLELENGTH:12.000;
#SELECTABLE:YES;
#BPMS:0.000=155.000;
#STOPS:;
#BGCHANGES:;
// cache tags:
#FIRSTBEAT:8.000;
#LASTBEAT:340.250;
#SONGFILENAME:Songs/keyboard/Symbolic (Cryptex Mix)/Symbolic (Cryptex Mix).sm;
#HASMUSIC:1;
#HASBANNER:1;
#MUSICLENGTH:133.468;
// end cache tags

//---------------dance-single - ----------------
#NOTES:
     dance-single:
     :
     Beginner:
     2:
     0.203,0.252,0.307,0.060,0.000,141.000,41.000,8.000,0.000,0.000:
0000
0000
0000
0000
,
0000
0000
0000
0000
,
0000
0000
0000
0000
,
0000
0000
0000
0000
,
1000
0000
1000
0000
,
1000
0000
1001
0000
,
0001
0000
0001
0000
,
0001
0000
1001
0000
,
0100
0000
0100
0000
,
0100
0000
0110
0000
,
0010
0000
0010
0000
,
0010
0000
0110
0000
,
1000
0000
0100
0000
,
1000
0000
0100
0000
,
0001
0000
0100
0000
,
0001
0000
0100
0000
,
1000
0000
0010
0000
,
1000
0000
0010
0000
,
0001
0000
0010
0000
,
0001
0000
0010
0000
,
0000
1001
0000
1001
,
0000
0000
1001
0000
,
0000
0110
0000
0110
,
0000
0000
0110
0000
,
0000
1001
0000
0110
,
0000
0000
1001
0000
,
0000
0110
0000
1001
,
0000
0000
0110
0000
,
0000
1000
0000
0001
,
0000
0000
1001
0000
,
0000
0100
0000
0010
,
0000
0000
0110
0000
,
0000
0001
0000
1000
,
0000
0000
0110
0000
,
0000
0010
0000
0100
,
0000
0000
1001
0000
,
0000
1000
0000
1000
,
0000
1000
0000
1000
,
0000
0001
0000
0001
,
0000
0001
0000
0001
,
0000
0100
0000
0100
,
0000
0100
0000
0100
,
0000
0010
0000
0010
,
0000
0010
0000
0010
,
0000
0001
0000
1001
,
0000
1000
0000
1001
,
0000
0100
0000
0110
,
0000
0010
0000
0110
,
0000
0001
0000
0110
,
0000
1000
0000
0110
,
0000
0010
0000
1001
,
0000
0100
0000
1001
,
1001
0000
1000
0000
,
1000
1000
1000
0000
,
1001
0000
0001
0000
,
0001
0001
0001
0000
,
0110
0000
0100
0000
,
0100
0100
0100
0000
,
0110
0000
0010
0000
,
0010
0010
0010
0000
,
1000
0000
0001
0000
,
0100
0000
0010
0000
,
0001
0000
1000
0000
,
0010
0000
0100
0000
,
1000
0000
0010
0000
,
0001
0000
0100
0000
,
0001
0000
0010
0000
,
1000
0000
0100
0000
,
0002
0000
0000
0003
,
0000
0000
1001
0000
,
2000
0000
0000
3000
,
0000
0000
1001
0000
,
0200
0000
0000
0300
,
0000
0000
0110
0000
,
0020
0000
0000
0030
,
0000
0000
0110
0000
,
2000
0000
0000
3000
,
0000
0000
0110
0000
,
0002
0000
0000
0003
,
0000
0000
0110
0000
,
0020
0000
0000
0030
,
0000
0000
1001
0000
,
0200
0000
0000
0300
,
0000
0000
1001
0000
,
1001
0000
0000
0000
;

//---------------dance-single - ----------------
#NOTES:
     dance-single:
     :
     Easy:
     5:
     0.488,0.503,0.427,0.315,0.000,357.000,57.000,42.000,0.000,0.000:
0000
0000
0000
0000
,
0000
0000
0000
0000
,
1000
1000
1000
1000
,
1000
1000
1000
2002
,
3003
0100
0001
0100
,
1000
0100
0001
0100
,
1000
0010
0001
0010
,
1000
0010
0001
2002
,
3003
1000
0010
1000
,
0100
1000
0010
1000
,
0100
0001
0010
0001
,
0100
0001
0010
2002
,
3003
1001
1000
0001
,
1001
0000
0110
0000
0100
0010
0110
0000
,
1000
1100
0001
0101
,
1100
0000
0101
0000
0001
1000
2002
0000
,
3003
1001
0001
1000
,
1001
0000
0010
0000
0100
0010
0110
0000
,
0001
0011
1000
1010
,
0011
0000
1010
0000
1000
0001
2002
0000
,
3003
0000
1001
0000
1000
0001
1000
0000
,
2002
0000
3003
0000
0001
1000
0001
0000
,
0220
0000
0330
0000
0100
0010
0100
0000
,
0220
0000
0330
0000
0010
0100
0010
0000
,
1000
0100
0010
0001
,
0100
1000
0010
0001
,
0010
0100
1000
0010
,
0001
0100
2000
3002
,
1003
0100
1000
0000
1000
0010
1000
0000
,
1000
0001
1000
0000
1001
0000
1001
0000
,
0001
0010
0001
0000
0001
0100
0001
0000
,
0001
1000
0001
0000
1001
0000
1001
0000
,
0100
1000
0100
0000
0100
0001
0100
0000
,
0100
0010
0100
0000
0110
0000
0110
0000
,
0010
0001
0010
0000
0010
1000
0010
0000
,
0010
0100
0010
0000
0110
0000
0110
0000
,
1000
0100
0010
0001
,
1000
0001
0100
0010
,
0001
0010
0100
1000
,
0001
1000
0010
0100
,
1000
0010
1000
0100
,
0001
0010
0001
0100
,
1000
0010
0001
0100
,
0001
0010
1000
0100
,
0002
0013
2000
3010
,
0002
0103
2000
3100
,
0020
0031
0200
0301
,
0020
1030
0200
1300
,
1000
1100
0001
0101
,
1000
1010
0001
0011
,
0100
1100
0010
0011
,
0100
0101
0010
1010
,
2000
0100
0010
3001
,
0200
1000
0001
0310
,
0002
0010
0100
1003
,
0020
0001
1000
0130
,
2000
0100
0001
3010
,
0200
1000
0010
0301
,
0020
0001
0100
1030
,
0002
0010
1000
0103
,
2000
0001
0010
3100
,
0020
0100
1000
0031
,
0200
0010
0001
1300
,
0002
1000
0100
0013
,
2000
0010
0001
3100
,
0020
1000
0100
0031
,
0200
0001
0010
1300
,
0002
0100
1000
0013
,
0011
0000
1010
0000
1000
0001
1000
0000
,
1100
0000
0101
0000
0001
1000
0001
0000
,
0011
0000
1100
0000
0010
0100
0010
0000
,
0101
0000
1010
0000
0100
0010
0100
0000
,
1000
0100
0010
0001
,
1000
0100
0010
0000
0100
0010
0001
0000
,
1000
0001
0100
0010
,
1000
0001
0100
0000
0001
0100
0010
0000
,
1010
0000
0101
0000
0100
0010
0100
0000
,
1100
0000
0011
0000
0010
0100
0010
0000
,
0101
0000
1100
0000
1000
0001
1000
0000
,
1010
0000
0011
0000
0001
1000
0001
0000
,
0001
0010
0100
1000
,
0001
0010
0100
0000
0010
0100
1000
0000
,
0001
1000
0010
0100
,
0001
1000
0010
0000
1000
0010
0100
0000
,
1001
0000
0000
0000
;

//---------------dance-single - ----------------
#NOTES:
     dance-single:
     :
     Medium:
     9:
     0.581,0.828,0.704,0.255,0.030,415.000,94.000,34.000,0.000,0.000:
0000
0000
0000
0000
,
0000
0000
0000
0000
,
1000
0100
0001
0010
,
1000
0100
0001
0010
,
2100
0010
0100
3010
,
0102
0010
0100
0013
,
1200
0001
1000
0301
,
1020
0001
1000
0031
,
1100
1001
0101
1001
,
1010
1001
0011
1001
,
1100
0110
0011
0110
,
1010
0110
0101
0110
,
1000
0100
0001
0100
,
1000
0000
0100
0000
0001
0100
1000
0000
,
0001
0010
1000
0010
,
0001
0000
0010
0000
1000
0010
0001
0000
,
0100
1000
0010
1000
,
0100
0000
1000
0000
0010
1000
0100
0000
,
0010
0001
0100
0001
,
0010
0000
0001
0000
0100
0001
0010
0000
,
1000
0100
0010
0000
0001
0010
0100
0000
,
1000
0001
0100
0000
0001
1000
0100
0000
,
0010
0100
1000
0000
0100
0010
0001
0000
,
1000
0001
0010
0000
0001
1000
0010
0000
,
1000
0010
0100
0000
0010
0100
0001
0000
,
0100
0010
1000
0000
0001
0100
0010
0000
,
1000
0100
0001
0000
0100
0001
0010
0000
,
0001
0010
1000
0000
0010
1000
0100
0000
,
0001
0100
1000
0000
0100
1000
0010
0000
,
1000
0010
0001
0000
0010
0001
0100
0000
,
0001
0010
0100
1000
0001
0100
0010
1000
,
0100
0010
0001
1000
0010
0100
0001
0010
,
0001
0100
1000
0010
1000
0100
0001
0010
,
1000
0100
1000
0010
0001
0100
1000
0010
,
0001
0100
0001
0000
1000
0100
1000
0000
0001
0010
0001
0000
1000
0010
1000
0000
,
0100
0001
0100
0000
0010
0001
0010
0000
0100
1000
0100
0000
0010
1000
0010
0000
,
2001
0010
0100
0010
,
3001
1100
0101
1001
,
0210
0001
1000
0001
,
0310
1100
0011
0110
,
1002
0100
0010
0100
,
1003
0011
1010
1001
,
0120
1000
0001
1000
,
0130
0101
1010
0110
,
1000
1000
1100
0000
1000
1000
1001
0000
,
1000
1000
1010
0000
1010
1001
1100
0000
,
0001
0001
0011
0000
0001
0001
1001
0000
,
0001
0001
0101
0000
0101
1001
0011
0000
,
0100
0100
1100
0000
0100
0100
0110
0000
,
0100
0100
0101
0000
0101
0110
1100
0000
,
0010
0010
0011
0000
0010
0010
0110
0000
,
0010
0010
1010
0000
1010
0110
0011
0000
,
2000
0100
0001
3010
,
0200
0001
0010
1300
,
0002
0010
1000
0103
,
0020
1000
0100
0031
,
2000
0010
0001
3100
,
0020
0001
0100
1030
,
0002
0100
1000
0013
,
0200
1000
0010
0301
,
2000
0001
3001
0000
2000
0010
3010
0000
,
2000
0100
3100
0000
1100
1010
1001
0000
,
0002
1000
1003
0000
0002
0100
0103
0000
,
0002
0010
0013
0000
0011
0101
1001
0000
,
0200
0010
0310
0000
0200
0001
0301
0000
,
0200
1000
1300
0000
1100
0101
0110
0000
,
0020
0100
0130
0000
0020
1000
1030
0000
,
0020
0001
0031
0000
0011
1010
0110
0000
,
1000
1100
0001
0101
,
1000
1010
0001
0011
,
1100
0101
1010
0011
,
1001
0110
2002
3003
,
0100
1100
0010
0011
,
0100
0101
0010
1010
,
1100
0011
0101
1010
,
0110
1001
0220
0330
,
1000
0100
0010
0001
,
1000
0001
0100
0010
,
0001
0010
0100
1000
,
0001
1000
0010
0100
,
1000
0010
1000
0100
,
0001
0010
0001
0100
,
1000
0010
0001
0100
,
0001
0010
2000
0100
,
0002
0000
0000
0000
,
3003
0000
0000
0000
;

//---------------dance-single - ----------------
#NOTES:
     dance-single:
     :
     Hard:
     11:
     0.909,1.000,0.772,0.524,0.315,676.000,103.000,70.000,24.000,2.000:
0000
0000
0000
0000
,
0000
0000
0000
0000
,
0000
0000
0000
0000
,
0000
0000
0000
0000
,
1100
0010
0101
0000
0011
0100
1010
0000
,
1001
0100
0010
0000
0110
1000
0001
0000
,
0101
0010
1100
0000
1010
0100
0011
0000
,
1001
0010
0100
0000
0110
0001
1000
0000
,
1000
0100
0000
1100
0000
0000
0000
0000
0001
0010
0000
0011
0000
0000
0000
0000
,
1000
0010
0000
1010
0000
0000
0000
0000
0001
0100
0000
0101
0000
0000
0000
0000
,
0100
1000
0000
1100
0000
0000
0000
0000
0010
0001
0000
0011
0000
0000
0000
0000
,
0100
0001
0000
0101
0000
0000
0000
0000
0010
1000
0000
1010
0100
0001
0010
0100
,
1000
0010
0101
1000
0100
0001
1010
0001
,
0100
1000
0011
0100
1000
0010
1100
0100
,
1000
0010
0100
0001
0010
1000
0100
0001
,
0100
0000
0010
0000
1000
0000
0001
0000
2002
0000
3113
0000
0001
1000
0010
0100
,
0001
0100
0011
1000
0100
0001
1010
0100
,
0001
0010
1100
0001
0010
1000
0101
1000
,
0010
0100
0001
0010
0100
1000
0001
0100
,
0010
0000
1000
0000
0100
0000
0010
0000
0220
0000
1331
0000
1000
0001
0100
0010
,
1000
0000
0110
0000
0011
0000
0001
0000
1000
0000
1010
0000
0101
0000
0001
0100
,
0010
0000
0100
0000
1000
0000
0001
0000
0110
0000
1010
0000
1000
0010
0100
0001
,
1000
0000
0011
0000
0101
0000
0100
0000
0001
0000
0110
0000
1100
0000
0100
0010
,
0001
0000
0010
0000
0001
0000
0100
0000
1010
0000
0011
0000
0001
1000
0100
0010
,
1000
0010
0100
0001
0100
0010
10MM
MM00
,
0MM1
0100
0010
1000
0010
0100
MM01
00MM
,
1MM0
0001
0100
0010
0100
0001
1MM0
0M0M
,
M0M1
1000
0010
0100
0010
1000
0MM1
MM00
,
10MM
0100
0010
0001
0010
0100
1000
0000
0001
0010
0100
1000
0100
0010
0001
0000
,
1000
0001
0100
0010
0100
0001
1000
0000
1001
0000
1100
0000
0101
0000
1001
0000
,
0001
0100
0010
1000
0010
0100
0001
0000
1000
0010
0100
0001
0100
0010
1000
0000
,
0001
1000
0010
0100
0010
1000
0001
0000
1001
0000
0011
0000
1010
0000
1001
0000
,
1000
0001
1000
0001
1000
0010
1000
0010
1000
0100
1000
0100
1000
0010
1000
0001
,
0100
0001
0100
0001
0100
0010
0100
0010
0100
1000
0100
1000
0100
0010
0100
0001
,
0010
0001
0010
0001
0010
0100
0010
0100
0010
1000
0010
1000
0010
0100
0010
0001
,
1000
0100
0010
0001
1000
0010
0100
0001
0010
0100
1000
0001
0100
0010
0100
0001
,
2000
0001
3200
1000
0320
0100
0032
0100
,
0023
1000
0032
0010
0203
1000
0302
0013
,
0002
0010
0203
1300
0200
0010
0302
1000
,
0203
0010
0302
0013
0002
1003
0002
1000
,
0203
1000
0320
0100
0032
0100
0023
1000
,
0032
0010
0203
1000
0302
0013
0002
0013
,
0002
1000
0203
1000
0302
1000
0203
0010
,
0302
1003
0002
0100
0023
0100
0032
1000
,
0203
1000
0320
1030
0020
0130
0020
1000
,
0032
0100
0023
1000
0230
1000
0302
0103
,
0002
1000
0023
0100
0032
1003
0002
1000
,
0203
1000
0320
0100
0032
1000
0203
1000
,
0320
1030
0020
0130
0020
1000
0032
0100
,
0023
1000
0230
1000
0302
0103
0002
1000
,
0023
0100
0032
1000
0203
1000
0302
1003
,
0002
0013
0002
1000
0023
1000
0032
0100
,
0013
0100
0001
1000
0001
0100
0001
1000
,
0010
0100
0010
1000
0001
0010
0100
1000
,
0001
0100
0010
1000
0010
1000
0001
0100
,
0001
1000
0100
1000
0001
0100
0010
1000
,
0001
0100
0010
1000
0100
0010
0001
0100
,
0010
1000
0100
1000
0001
0010
0100
1000
,
0001
0100
0010
1000
0100
0010
0001
0100
,
0010
1000
0001
0010
0001
0100
0010
1000
,
0010
1000
0001
0100
0010
1000
0010
0100
,
0001
0100
0010
1000
0001
0100
0010
1000
,
0100
0010
0001
0100
0001
0100
0010
1000
,
0100
0010
0001
1000
0100
1000
0100
1000
,
0001
0010
0001
1000
0001
0100
0010
1000
,
0100
1000
0010
1000
0100
1000
0001
0010
,
0001
0100
0010
1000
0010
0100
0001
1000
,
0010
0100
0010
0100
0001
0100
0010
1000
,
0001
0000
0101
0000
1001
0000
1000
0000
0001
0000
0101
0000
1001
0000
1000
0100
,
0010
0100
0010
1000
0011
0110
0100
1000
,
0001
0000
0110
0000
1010
0000
1000
0000
0010
0000
1001
0000
0101
0000
0100
0010
,
0001
1000
0100
1000
0101
0110
0010
1000
,
0001
0000
0110
0000
1010
0000
1000
0000
0100
0000
0011
0000
0101
0000
0100
0001
,
0010
1000
0100
1000
0011
0110
0100
1000
,
0001
0000
0110
0000
1010
0000
1000
0000
0100
0000
0011
0000
0101
0000
0100
1000
,
0010
1000
0001
0010
0101
0110
0010
1000
,
1010
1001
0101
0000
0011
1001
1100
0000
,
1000
0100
0010
0001
0010
0100
1000
0000
,
1100
1001
0101
0000
0011
1001
1010
0000
,
0001
0010
0100
1000
0100
0010
0001
0000
,
1100
0110
1010
0000
0011
0110
0101
0000
,
1000
0001
0100
0010
0100
0001
1000
0000
,
0101
0110
0011
0000
1010
0110
1100
0000
,
0000
0000
0000
0000
0000
0000
0000
0000
1001
0000
0110
0000
1000
0001
0100
0010
,
2002
0000
3003
0000
;

//---------------dance-single - ----------------
#NOTES:
     dance-single:
     :
     Challenge:
     13:
     1.000,1.000,0.584,0.090,1.000,1049.000,78.000,12.000,44.000,5.000:
0000
0000
0000
0000
,
0000
0000
0000
0000
,
0000
0000
0000
0000
,
0000
0000
0000
0000
,
1001
0000
1000
0001
0000
0001
1000
0000
0110
0000
0100
0010
0000
0010
0100
0000
,
1001
0000
0001
1000
0000
1000
0001
0000
0110
0000
0010
0100
0000
0100
0010
0000
,
1001
0000
0100
0010
0000
0010
0100
0000
0110
0000
1000
0001
0000
0001
1000
0000
,
1001
0000
0010
0100
0000
0100
0010
0000
0110
0000
0001
1000
0000
1000
0001
0000
,
1000
0100
0010
0001
0000
0001
1000
0000
0001
0010
0100
1000
0000
1000
0001
0000
,
1000
0001
0100
0010
0000
0010
0100
0000
0001
1000
0010
0100
0000
0100
0010
0000
,
1000
0010
0100
0001
0000
0001
1000
0000
0001
0100
0010
1000
0000
1000
0001
0000
,
1000
0100
0001
0010
0000
0001
1000
0000
0001
0100
1000
0010
0000
1000
0001
0000
,
1000
0100
1000
0000
0001
0100
0001
0000
1000
0010
1000
0000
0001
0010
0001
0000
,
1000
0100
1000
0100
0001
0100
0001
0100
1100
0000
0101
0000
2200
0000
3311
0000
,
0100
1000
0100
0000
0010
1000
0010
0000
0100
0001
0100
0000
0010
0001
0010
0000
,
0100
1000
0100
1000
0010
1000
0010
1000
1100
0000
1010
0000
2200
0000
3311
0000
,
0001
0010
0001
0000
1000
0010
1000
0000
0001
0100
0001
0000
1000
0100
1000
0000
,
0001
0010
0001
0010
1000
0010
1000
0010
0011
0000
1010
0000
0022
0000
1133
0000
,
0010
0001
0010
0000
0100
0001
0100
0000
0010
1000
0010
0000
0100
1000
0100
0000
,
0010
0001
0010
0001
0100
0001
0100
0001
0011
0000
0101
0000
0022
0000
1133
0000
,
1000
0100
0001
0000
0100
1000
0000
0100
0001
0000
0100
1000
0000
0100
0001
0000
,
0010
1000
0100
0000
0001
0100
0000
1000
0100
0000
0001
0100
0000
1000
0100
0000
,
0001
0010
1000
0000
0010
0001
0000
0010
1000
0000
0010
0001
0000
0010
1000
0000
,
0100
0001
0010
0000
1000
0010
0000
0001
0010
0000
1000
0010
0000
0001
0010
0000
,
1000
0100
0010
0000
0001
0010
0000
1000
0100
0000
0001
0010
0000
1000
0100
0000
,
0001
1000
0010
0000
0001
0100
0000
1000
0010
0000
0001
0100
0000
1000
0010
0000
,
0001
0010
0100
0000
1000
0100
0000
0001
0010
0000
1000
0100
0000
0001
0010
0000
,
1000
0001
0100
0000
1000
0010
0000
0001
0100
0000
1000
0010
0000
0001
0100
0000
,
1000
0100
0010
0000
1000
0100
0000
0100
0010
0000
0010
0001
0000
0010
0100
0000
,
1000
0010
0100
0000
1000
0010
0000
0010
0100
0000
0100
1000
0000
1000
0010
0000
,
0001
1000
0100
0000
0001
1000
0000
1000
0100
0000
0100
0001
0000
0001
1000
0000
,
0010
0100
0001
0000
0010
0100
0000
0100
0001
0000
0001
0010
0000
0010
0100
0000
,
1000
0001
1001
0000
0001
1000
0000
1000
0001
0000
0001
1000
0000
1000
0001
0000
,
0100
0010
0110
0000
0010
0100
0000
0100
0010
0000
0010
0100
0000
0100
0010
0000
,
1000
0001
1001
0000
1000
0100
0000
0100
0001
0000
0001
0010
0000
0010
1000
0000
,
1000
0001
1000
0001
1000
0001
1000
0001
1000
0001
1000
0001
1000
0001
1000
0001
1000
0001
1000
0001
1000
0001
1000
0001
1000
0001
1000
0001
1000
0001
1000
0001
,
1000
0001
1000
0010
1000
0001
1000
0100
1000
0001
0100
0001
1000
0001
0010
0001
,
1000
0100
0010
0001
1000
0100
0010
1000
0100
0010
0001
0010
0100
1000
0001
MMMM
,
0010
1000
0001
0100
0010
1000
0010
0100
0001
1000
0010
0100
0001
1000
0001
0010
,
0100
1000
0001
0100
0010
1000
0001
0100
0001
1000
0100
0010
0001
0100
0001
MMMM
,
0010
0100
0010
1000
0001
1000
0100
1000
0001
0100
0001
1000
0001
1000
0010
1000
,
0001
1000
0100
1000
0001
1000
0010
1000
0001
1000
0001
0010
0001
1000
0001
MMMM
,
0001
1000
0001
0010
0001
1000
0100
0010
0001
1000
0100
0010
0001
0010
0100
1000
,
0001
0010
0100
1000
0001
0100
0001
1000
0001
1000
0100
1000
0001
1000
0010
MMMM
,
0010
0100
0010
0100
0010
1000
0001
1000
0100
1000
0100
1000
0001
0100
0010
1000
,
0010
0100
0001
1000
0001
0100
0001
0100
0010
0100
0010
1000
0001
0100
0001
1000
,
0001
1000
0010
0100
0001
1000
0100
1000
0100
0010
0100
0010
0001
0010
0100
1000
,
0100
0010
0100
1000
0100
0010
0001
0010
0001
1000
0001
0100
0001
0100
0010
0100
,
0001
0100
0010
0100
0010
1000
0001
1000
0010
1000
0001
0010
0001
1000
0001
1000
,
0001
0100
0001
1000
0100
1000
0001
0100
0001
1000
0010
1000
0001
0010
0001
1000
,
0010
1000
0001
0010
0001
1000
0001
0100
0010
0100
0010
0100
0001
0100
0001
1000
,
0100
0010
0100
0010
0100
0010
0100
0010
0100
0010
0100
0010
0100
0010
0100
0010
0100
0010
0100
0010
0100
0010
0100
0010
0100
0010
0100
0010
0100
0010
0100
0010
,
0100
0010
0100
1000
0001
0100
0010
0100
0001
0100
0010
0100
0010
1000
0001
1000
,
0010
1000
0100
1000
0001
0100
0010
1000
0010
0100
0010
0100
0001
0010
0001
MMMM
,
0001
0010
0001
1000
0010
0100
0001
1000
0010
0100
0001
1000
0100
0010
0001
1000
,
0100
0010
0001
1000
0001
1000
0001
1000
0100
0010
0001
1000
0100
1000
0100
MMMM
,
0001
1000
0010
1000
0001
1000
0100
1000
0010
0100
0001
1000
0100
0010
0100
1000
,
0001
0100
0010
1000
0010
0100
0010
1000
0010
1000
0001
1000
0100
1000
0100
MMMM
,
0010
0100
1000
0100
0010
0001
0100
0001
0010
0001
0010
0001
1000
0001
0100
0010
,
1000
0010
0100
0001
1000
0010
0100
0001
1000
0010
1000
0001
0010
0001
0010
MMMM
,
1000
0010
0100
0001
0100
0010
1000
0100
0010
0001
0010
0100
1000
0010
0100
0010
,
0100
0001
0100
0001
0100
0001
1000
0100
1000
0001
0100
0010
1000
0001
1000
MMMM
,
0100
0001
1000
0100
1000
0010
0100
0001
1000
0100
0010
0001
1000
0001
0100
0010
,
1000
0001
0010
0100
1000
0010
0100
0001
1000
0001
0100
0010
1000
0001
1000
MMMM
,
0010
0001
1000
0100
1000
0001
0100
0001
1000
0010
1000
0001
0100
0001
1000
0001
,
1000
0001
1000
0010
0100
0010
1000
0100
1000
0001
1000
0001
0010
0100
1000
0001
,
0010
0001
1000
0010
0100
1000
0001
0010
0100
0010
1000
0010
0100
0010
0001
0010
,
1000
0001
1000
0001
1000
0001
1000
0001
1000
0001
1000
0001
1000
0001
1000
0001
0100
0010
0100
0010
0100
0010
0100
0010
0100
0010
0100
0010
0100
0010
0100
0010
,
0001
0000
0011
0000
1001
0000
1000
0000
0100
0000
0011
0000
1001
0000
1000
0100
,
0010
1000
0001
1000
1100
1001
0001
0010
,
0100
0000
1001
0000
0011
0000
0010
0000
0100
0000
1001
0000
0011
0000
0010
0100
,
0001
1000
0001
0100
1010
1100
0100
1000
,
0001
0000
0011
0000
0101
0000
0100
0000
0010
0000
1001
0000
0011
0000
0010
1000
,
0100
1000
0010
0100
0011
0110
0100
1000
,
0001
0000
0110
0000
1010
0000
1000
0000
0001
0000
1100
0000
0101
0000
1000
0010
,
0001
1000
0010
0100
0110
0101
0001
0100
,
0010
0000
1010
0000
1100
0000
1000
0000
0100
0000
0110
0000
1100
0000
1000
0100
,
0001
0100
0001
1000
0011
0110
0001
0100
,
0010
0000
0101
0000
1001
0000
1000
0000
0010
0000
1100
0000
0110
0000
0010
1000
,
0001
0010
0100
1000
0110
0011
0001
0010
,
0001
0000
1100
0000
0101
0000
1000
0000
0001
0000
0011
0000
1001
0000
1000
0100
,
0010
1000
0001
0100
1001
1010
0010
1000
,
0001
0000
0101
0000
1001
0000
1000
0000
0010
0000
1001
0000
0011
0000
0010
0100
,
1000
0000
0000
0000
1100
0101
0011
1010
,
2222
0000
0000
0000
,
3333
MMMM
0000
0000
0000
0000
0000
0000
0000
0000
0000
0000
0000
0000
0000
0000
;
