#TITLE:Painkiller;
#SUBTITLE:- Prison Music -;
#ARTIST:MediaStudio;
#TITLETRANSLIT:;
#SUBTITLETRANSLIT:;
#ARTISTTRANSLIT:;
#CREDIT:;
#BANNER:Painkiller - Prison.png;
#BACKGROUND:Painkiller - Prison BG.png;
#LYRICSPATH:;
#CDTITLE:discobiscuits.png;
#MUSIC:Painkiller - Prison.mp3;
#OFFSET:0.000;
#SAMPLESTART:30.000;
#SAMPLELENGTH:12.000;
#SELECTABLE:YES;
#BPMS:0.000=200.000;
#STOPS:;
#BGCHANGES:;
// cache tags:
#FIRSTBEAT:16.500;
#LASTBEAT:351.500;
#SONGFILENAME:Songs/mongol/pailkillerr/Painkiller - Prison.sm;
#HASMUSIC:1;
#HASBANNER:1;
#MUSICLENGTH:105.619;
// end cache tags

//---------------dance-single - ----------------
#NOTES:
     dance-single:
     :
     Hard:
     12:
     1.000,1.000,0.398,0.066,0.994,810.000,42.000,7.000,0.000,0.000:  // measure 1
0000
0000
0000
0000
,  // measure 2
0000
0000
0000
0000
,  // measure 3
0000
0000
0000
0000
,  // measure 4
0000
0000
0000
0000
,  // measure 5
0000
1001
1000
0100
0010
0001
0100
0010
,  // measure 6
1000
0100
0010
0001
0100
1010
1100
0110
,  // measure 7
1010
0001
0010
0001
0010
0100
1000
0100
,  // measure 8
1000
0100
0010
0001
0010
0100
0010
0001
,  // measure 9
0100
0000
1000
0000
0001
0010
0100
1000
0010
0100
0001
0010
0100
1000
0010
0100
,  // measure 10
0001
0010
0100
1000
0010
0100
0001
0010
0100
1000
0010
0100
0010
0100
0010
0100
,  // measure 11
0001
0010
0100
1000
0010
0100
0001
0010
0100
1000
0010
0100
0001
0010
0100
1000
,  // measure 12
0010
0100
0001
0010
0100
1000
0100
0010
0100
1000
0100
0010
0100
1000
0100
0010
,  // measure 13
0001
0100
0010
1000
0100
0010
0001
0100
0010
1000
0100
0010
0001
0100
0010
1000
,  // measure 14
0100
0010
0001
0100
0010
1000
0100
0010
0001
1000
0001
1000
0001
1000
0001
1000
,  // measure 15
0001
0010
0100
1000
0100
0001
0010
0100
1000
0010
0100
0001
0010
0100
1000
0010
,  // measure 16
0100
0001
0010
0100
1000
0010
0100
0001
0010
0100
1000
0010
0100
0001
0010
0100
,  // measure 17
1000
0010
0100
0001
0000
0000
1000
0000
0001
0000
0100
0000
0010
0000
1000
0000
,  // measure 18
0001
0000
0100
0000
0010
0000
1000
0000
0100
0000
0010
0001
0010
0001
0010
0001
,  // measure 19
0010
1000
0100
0010
0001
0100
0010
1000
,  // measure 20
0100
0010
0001
0100
0010
1000
0100
0010
,  // measure 21
0001
0100
0010
1000
0100
0010
0001
0100
,  // measure 22
0010
0000
1000
0000
0100
0000
0010
0000
0001
0010
0001
0010
0001
0010
0001
0000
,  // measure 23
0100
0010
1000
0100
0010
0001
0100
0010
,  // measure 24
1000
0100
0010
0001
0100
0010
1000
0100
,  // measure 25
0010
0001
0100
0010
1000
0100
0010
0001
,  // measure 26
0100
0000
0010
0000
1000
0000
0100
0000
0010
0000
0001
1000
0001
1000
0001
1000
,  // measure 27
0001
1000
0100
0100
1000
0001
0001
1000
,  // measure 28
0010
0010
1000
0100
0100
1000
0100
0010
,  // measure 29
0001
0010
0010
0001
1000
1000
0001
0100
,  // measure 30
0100
0000
0001
0000
0010
0000
0010
0000
0001
0000
1000
0100
1000
0100
1000
0100
,  // measure 31
0010
0001
0010
0100
1000
0001
0010
0100
,  // measure 32
1000
0001
0100
0010
1000
0001
0100
0010
,  // measure 33
1000
0100
0010
0001
0100
0010
1000
0100
0010
0100
1000
0010
0100
0001
0010
0100
,  // measure 34
1000
0010
0100
0001
0010
0100
1000
0010
0100
0001
0010
0100
1000
0100
1000
0100
,  // measure 35
1000
0001
0010
0100
1000
0010
0100
0001
0010
0001
0100
0010
1000
0001
0100
0010
,  // measure 36
1000
0100
0010
0001
0100
0010
1000
0100
0010
0001
0100
0010
1000
0100
0010
0001
,  // measure 37
0100
0010
1000
0100
1000
0010
0001
0100
1000
0010
0001
0100
1000
0010
0100
0001
,  // measure 38
1000
0010
0001
1000
0100
1000
0010
0001
0100
1000
0010
1000
0010
1000
0010
1000
,  // measure 39
0100
0010
0001
0100
0010
1000
0100
0010
0001
0100
0010
1000
0100
0010
0100
1000
,  // measure 40
0010
0100
0001
0010
0100
0010
0001
0010
0100
1000
0010
0100
0001
0010
0100
1000
,  // measure 41
0120
0000
0000
0000
0001
0000
0000
0031
,  // measure 42
0000
0000
0110
0000
0011
0110
1010
0010
,  // measure 43
0000
1100
0110
0000
0101
0000
0010
0000
,  // measure 44
0000
0000
0110
1100
1010
1001
1010
1001
,  // measure 45
0000
0000
0000
2000
0000
0000
0000
0000
0100
0000
0000
0000
0000
3001
0000
0000
,  // measure 46
0000
0000
1001
0000
0110
0011
0101
0000
,  // measure 47
0000
0000
0000
2000
0000
0000
0000
0000
0001
0000
0000
0000
0000
3100
0000
0000
,  // measure 48
0000
0000
1100
0000
0011
1100
0110
0011
,  // measure 49
0000
0000
2000
0000
0000
0000
0000
0100
0000
0000
0000
0000
3001
0000
0000
0000
,  // measure 50
0010
0000
1001
0110
1100
0000
0000
1000
,  // measure 51
0002
0000
0000
0000
0000
0000
0000
0010
0000
0000
0003
0000
1000
0000
0000
0000
,  // measure 52
1001
0000
0001
0010
0100
1000
0010
0100
,  // measure 53
0000
0000
2001
0000
0000
0000
0000
0000
0010
0000
0000
0000
0000
3100
0000
0000
,  // measure 54
0000
0000
1001
0000
0001
0010
0100
1000
,  // measure 55
0010
0000
0201
0000
0000
0000
0000
0010
0000
0000
0000
0000
0000
0301
0000
0000
,  // measure 56
0000
0000
1000
0000
0100
0010
0001
0010
,  // measure 57
0000
0010
0001
1000
0100
0010
0001
0100
,  // measure 58
0010
1000
0100
0010
0001
0110
1001
0110
,  // measure 59
0001
0010
0100
1000
0100
0010
0100
1000
,  // measure 60
0010
0100
0001
0010
1000
0100
0010
0100
,  // measure 61
1000
0010
0100
0001
0010
0100
1000
0010
,  // measure 62
0100
0001
0010
0100
0010
0101
0110
1010
,  // measure 63
1000
0100
0010
0001
0100
0010
1000
0100
,  // measure 64
0010
0001
0100
0010
1000
0100
0010
0001
,  // measure 65
0100
0010
1000
0100
1000
0100
1000
0100
,  // measure 66
1000
0100
1000
0100
1000
0100
1000
0100
,  // measure 67
0010
0001
0010
0001
0010
0001
0010
0001
,  // measure 68
0010
0001
0010
0001
0010
0100
1000
0010
,  // measure 69
1000
0010
1000
0010
1000
0010
1000
0010
,  // measure 70
1000
0010
1000
0010
1000
0010
0100
0010
,  // measure 71
0001
0100
0001
0100
0001
0100
0001
0100
,  // measure 72
0001
0100
0001
0100
0001
0100
0001
0100
,  // measure 73
0010
0100
0010
0100
0010
0100
0010
0100
,  // measure 74
0010
0100
0010
0100
0010
0100
0001
0100
,  // measure 75
1000
0001
1000
0001
1000
0001
1000
0001
,  // measure 76
1000
0001
1000
0001
1000
0001
1000
0010
,  // measure 77
0100
1000
0100
1000
0100
1000
0100
1000
,  // measure 78
0100
1000
0100
1000
0100
1000
0100
0010
,  // measure 79
0001
0010
0001
0010
0001
0010
0001
0010
,  // measure 80
0001
0010
0001
0010
0001
0010
0001
0010
,  // measure 81
0100
0000
1000
0000
0001
0010
0100
1000
0100
0010
0100
1000
0010
0100
0001
0010
,  // measure 82
0100
1000
0010
0100
0001
0010
0100
1000
0001
0010
0100
0010
0100
0010
0100
0010
,  // measure 83
0001
1000
0100
0010
0001
0010
0100
0010
0001
0100
0010
1000
0100
0010
0001
0100
,  // measure 84
0010
1000
0100
0010
0100
1000
0010
0100
0001
0010
0100
1000
0010
0100
0001
0010
,  // measure 85
0100
0010
0001
0010
0100
1000
0010
0100
0001
0010
0100
0010
0001
0100
1000
0100
,  // measure 86
0001
0010
0100
1000
0010
0100
0001
0010
0100
1000
0010
1000
0001
1000
0001
1000
,  // measure 87
0001
1000
0010
0100
1000
0100
0010
0001
0100
0010
1000
0100
0010
0001
0100
0010
,  // measure 88
1000
0100
1000
0010
0100
0001
0010
0100
1000
0010
0100
0001
0010
0001
0101
0000
;
