#TITLE:WhotheFuckisJamesBrownisStillDeadorAlive!!???;
#SUBTITLE:;
#ARTIST:DJ Sharpnel;
#TITLETRANSLIT:;
#SUBTITLETRANSLIT:;
#ARTISTTRANSLIT:;
#CREDIT:Prolix;
#BANNER:james brown bn.png;
#BACKGROUND:james brown bg.png;
#LYRICSPATH:;
#CDTITLE:;
#MUSIC:wtfijbisdoa.ogg;
#OFFSET:-0.195;
#SAMPLESTART:63.117;
#SAMPLELENGTH:18.639;
#SELECTABLE:YES;
#BPMS:0.000=206.000;
#STOPS:;
#BGCHANGES:;
// cache tags:
#FIRSTBEAT:24.000;
#LASTBEAT:795.750;
#SONGFILENAME:Songs/SHARPNELSTREAMZ v2/WtFiJBiSDoA/wtfijbisdoa.sm;
#HASMUSIC:1;
#HASBANNER:1;
#MUSICLENGTH:233.560;
// end cache tags

//---------------dance-single - 16+ (Prolix)----------------
#NOTES:
     dance-single:
     16+ (Prolix):
     Challenge:
     16:
     1.000,1.000,0.321,0.184,1.000,2119.000,75.000,43.000,69.000,0.000:

0000
0000
0000
0000
,
0000
0000
0000
0000
,
0000
0000
0000
0000
,
0000
0000
0000
0000
,
0000
0000
0000
0000
,
0000
0000
0000
0000
,
0MM1
1000
0001
0000
0010
0000
0100
0000
1000
0000
0000
0001
0000
0000
1000
0000
,
0001
0100
0001
0000
1000
0000
0100
0000
2000
0000
0000
3001
0000
0000
0010
0000
,
0001
1000
0001
0000
0100
0000
0010
0000
1000
0000
0000
0001
0000
0000
1000
0000
,
0001
0010
0001
0000
1000
0000
0010
0000
2000
0000
0000
3001
0000
0000
0100
0000
,
0001
1000
0001
0000
0010
0000
0100
0000
1000
0000
0000
0001
0000
0000
1000
0000
,
0001
0100
0001
0000
1000
0000
0100
0000
2000
0000
0000
3001
0000
0000
0010
0000
,
0001
1000
0001
0000
0100
0000
0010
0000
1000
0000
0000
0001
0000
0000
1000
0000
,
0001
0010
0000
0000
0100
0000
1000
0000
0040
0000
0000
0000
0000
0000
0030
0000
,
1000
0001
1000
0000
0100
0000
0010
0000
0001
0000
0000
1000
0100
0000
1000
0000
,
0001
0100
0001
0000
0010
0000
0100
0000
0020
0000
0000
0130
1000
0000
0001
0000
,
1000
0001
1000
0000
0010
0000
0100
0000
0001
0000
0000
1000
0010
0000
1000
0000
,
0001
0010
0001
0000
0100
0000
0010
0000
0200
0000
0000
0310
1000
0000
0001
0000
,
1000
0001
1000
0000
0100
0000
0010
0000
0001
0000
0000
1000
0100
0000
1000
0000
,
0001
0100
0001
0000
0010
0000
0100
0000
0020
0000
0000
0130
1000
0000
0001
0000
,
1000
0001
1000
0000
0010
0000
0100
0000
0001
0000
0000
1000
0010
0000
0100
0001
,
M010
0M10
M010
040M
,
13M0
0001
1000
0000
0010
0000
1000
0000
0001
0000
0100
0010
0100
0000
0001
0000
,
1000
0100
1000
0000
0001
0000
0100
0000
0001
0000
1000
0010
1000
0000
0001
0000
,
1000
0001
1000
0000
0100
0000
1000
0000
0001
0000
0010
0100
0010
0000
0001
0000
,
1000
0010
1000
0000
0001
0000
0010
0000
0001
0000
1000
0100
0010
0000
0010
0000
,
0001
1000
0001
0000
0100
0000
0001
0000
1000
0000
0010
0100
0010
0000
1000
0000
,
0001
0010
0001
0000
1000
0000
0010
0000
1000
0000
0001
0100
0001
0000
1000
0000
,
0001
1000
0001
0000
0010
0000
0100
0000
1000
0000
0001
0010
0001
0000
1000
0000
,
0010
0100
0010
0000
0100
0000
0001
0000
0040
0000
0000
0000
0130
1000
0100
1000
,
0001
0100
0001
0000
0010
0000
0001
0000
1000
0000
0010
0100
0010
0000
1000
0000
,
0001
0010
0001
0000
0100
0000
0010
0000
0100
0000
0001
1000
0001
0000
0010
0000
,
0001
0010
0001
0000
0100
0000
0001
0000
1000
0000
0100
0010
0100
0000
1000
0000
,
0001
0100
0001
0000
0010
0000
0100
0000
0010
0000
0001
1000
0010
0000
0010
0000
,
1000
0010
1000
0000
0100
0000
1000
0000
0001
0000
0100
0010
0100
0000
0001
0000
,
1000
0100
1000
0000
0010
0000
0100
0000
0010
0000
1000
0001
1000
0000
0100
0000
,
1000
0100
1000
0000
0010
0000
1000
0000
0001
0000
0010
0100
0010
0000
0001
0000
,
M100
0000
0000
0000
M100
0000
0000
0000
M100
0010
0000
0100
0004
0000
0000
0000
,
1003
0100
0010
0001
1000
0010
0100
0010
1000
0001
0100
0001
1000
0001
0010
0001
,
1000
0010
0100
0001
1000
0001
0100
0001
1000
0100
1000
0010
1000
0001
0010
0001
,
1000
0010
0100
0001
1000
0100
0010
0100
1000
0001
0010
0001
1000
0001
0100
0001
,
1000
0100
0010
0001
1000
0001
0010
0001
1000
0010
1000
0100
1000
0001
0100
0001
,
1000
0100
0010
0001
1000
0010
0100
0010
1000
0001
0100
0001
1000
0001
0010
0001
,
1000
0010
0100
0001
1000
0001
0100
0001
1000
0100
1000
0010
1000
0001
0010
0001
,
1000
0010
0100
0001
1000
0100
0010
0100
1000
0001
0010
0001
1000
0001
0100
0001
,
1000
0100
0010
0000
0100
0000
0010
0000
0004
0000
0203
0000
0320
0000
4030
3000
,
0001
0010
0100
1000
0001
0100
0010
0100
0001
1000
0010
1000
0001
1000
0100
1000
,
0001
0100
0010
1000
0001
1000
0010
1000
0001
0010
0001
0100
0001
1000
0100
1000
,
00M1
0100
0010
1000
0001
0010
0100
0010
0001
1000
0100
1000
0001
1000
0010
1000
,
0001
0010
0100
1000
0001
1000
0100
1000
0001
0100
0001
0010
0001
1000
0010
1000
,
0001
0010
0100
1000
0001
0100
0010
0100
0001
1000
0010
1000
0001
1000
0100
1000
,
0001
0100
0010
1000
0001
1000
0010
1000
0001
0010
0001
0100
0001
1000
0100
1000
,
0001
1000
0001
1000
0100
0010
0100
0010
0100
1000
0100
1000
0001
1000
0010
0100
,
0001
0000
0000
0000
M001
0000
00M0
M000
0001
0000
M010
0100
1000
0000
0004
0000
,
1003
0010
0100
0001
1000
0010
0100
0010
0100
0001
1000
0010
1000
0010
0100
0001
,
1000
0100
0010
0001
1000
0001
0010
0001
1000
0010
0100
0001
0100
0010
0100
0001
,
1000
0100
0010
0001
1000
0100
0010
0100
0010
0001
1000
0100
1000
0100
0010
0001
,
1000
0010
0100
0001
1000
0001
0100
0001
1000
0100
0010
0001
0010
0000
0001
0000
,
1000
0010
0100
0001
1000
0010
0100
0010
1000
0001
0010
0001
0010
0100
0010
0001
,
1000
0010
0100
0001
1000
0001
0100
0001
1000
0100
0010
0001
1000
0001
0010
0001
,
1000
0010
0100
0001
1000
0010
0100
0010
1000
0001
0010
0001
0010
0100
0010
0001
,
1000
0010
0100
0001
1000
0010
0100
0001
0040
0000
0000
0000
0031
1000
0001
1000
,
0001
1000
0100
1000
0010
0100
0001
1000
0001
0010
0001
1000
0100
1000
0001
0100
,
0001
1000
0010
1000
0010
0100
0001
1000
0001
0010
0001
1000
0100
1000
0001
0100
,
0001
1000
0010
1000
0100
0010
0001
1000
0001
0100
0001
1000
0010
1000
0001
0010
,
0001
1000
0100
1000
0100
0010
0001
1000
0001
0100
0010
0100
0001
0000
0010
0000
,
0001
0100
0010
1000
0100
0010
0001
1000
0001
0100
0001
1000
0010
1000
0001
0010
,
0001
1000
0100
1000
0100
0010
0001
1000
0001
0100
0001
1000
0010
1000
0001
0010
,
0001
1000
0100
1000
0010
0100
0001
1000
0001
0010
0001
1000
0100
1000
0001
1000
,
0001
0100
0010
1000
0001
0100
0010
1000
0400
0000
0000
0000
1300
0000
0040
0030
,
1000
0001
0010
0001
0100
0010
1000
0001
1000
0100
1000
0001
0010
0001
1000
0010
,
1000
0001
0010
0001
0010
0100
1000
0001
1000
0010
1000
0001
0100
0001
1000
0100
,
1000
0001
0010
0001
0100
0010
1000
0001
1000
0100
1000
0001
0010
0001
1000
0010
,
1000
0001
0100
0001
0100
0010
1000
0001
1000
0100
0010
0100
1000
0000
0010
0000
,
1000
0100
0010
0001
0100
0010
1000
0001
1000
0100
1000
0001
0010
0001
1000
0010
,
1000
0001
0100
0001
0100
0010
1000
0001
1000
0100
1000
0001
0010
0001
1000
0010
,
1000
0001
0100
0001
0010
0100
1000
0001
1000
0010
1000
0001
0100
0001
1000
0001
,
1000
0100
0010
0001
1000
0001
0100
0010
0400
0000
0000
0000
0310
1000
0010
1000
,
0001
1000
0100
1000
0010
0100
0001
1000
0001
0010
0001
0100
0010
1000
0001
0010
,
0001
1000
0100
1000
0100
0010
0001
1000
0001
0100
0001
0010
0100
1000
0010
1000
,
0001
1000
0100
1000
0010
0100
0001
1000
0001
0010
0001
0100
0010
1000
0001
0010
,
0001
1000
0100
1000
0100
0010
0001
1000
0001
0100
0001
0010
0100
1000
0010
0100
,
0001
1000
0100
1000
0010
0100
0001
1000
0001
0010
0001
0100
0010
1000
0001
0010
,
0001
1000
0100
1000
0100
0010
0001
1000
0001
0100
0001
0010
0001
1000
0010
1000
,
0001
1000
0100
1000
0010
0100
0001
1000
0001
0010
0001
0100
0010
1000
0001
0010
,
M100
0010
0001
1000
00M1
0000
0200
0000
M02M
0000
0300
0000
1030
0000
0004
0003
,
MM10
0000
0001
1000
0100
0010
0100
1000
0001
1000
0100
0010
0001
0000
1000
0000
,
0010
0100
0010
1000
0001
1000
0010
0100
0001
0000
1000
0000
0100
0000
1000
0000
,
0001
0000
0100
0010
1000
0001
1000
0010
0100
0010
1000
0001
0100
0000
0001
0000
,
1000
0100
1000
0001
0010
0001
1000
0100
0010
0000
0002
0003
0200
0300
0001
0000
,
2000
3000
0100
1000
0001
0010
0001
1000
0100
1000
0001
0010
0100
0000
1000
0000
,
0001
0100
0001
1000
0010
1000
0001
0100
0010
0000
1000
0000
0200
0300
2000
3002
,
0103
0000
0010
1000
0001
0100
0001
1000
0010
1000
0001
0100
0010
0000
1000
0000
,
0001
0010
0001
0200
0310
1000
0002
4003
,
31MM
0000
1000
0001
0010
0100
0010
0001
1000
0010
0100
0001
1000
0000
0001
0000
,
1000
0100
1000
0001
0010
0001
1000
0001
0100
0000
0001
0000
1000
0000
0001
0000
,
0010
0000
0001
1000
0100
0010
0100
1000
0001
0100
0010
1000
0001
0000
1000
0000
,
0001
0010
0001
1000
0100
1000
0001
1000
0010
0000
2000
3000
0200
0300
1000
0000
,
0002
0003
0100
0001
1000
0010
1000
0001
0100
0001
1000
0010
0100
0000
0001
0000
,
1000
0100
1000
0001
0010
0001
1000
0100
0010
0000
0001
0000
0200
0300
0002
2003
,
3100
0000
0010
0001
1000
0100
1000
0001
0010
0001
1000
0100
0010
0000
0001
1000
,
0001
0000
1000
0010
0100
0000
0001
0000
0040
0000
0000
0000
0130
1000
0100
1000
,
0001
1001
1010
1001
,
1100
1001
0101
1001
,
0011
1001
1010
1001
,
1100
0000
0000
0000
1001
0000
0000
0000
0101
0000
0200
0300
0002
0003
1000
0000
,
2100
3000
0000
0000
0110
0000
0000
0000
0011
0000
0M00
0000
1001
0000
0000
0000
,
1010
0000
0000
0000
0110
0000
0000
0000
0101
0000
0000
0000
0021
0000
0230
2300
,
3001
0101
1010
1001
,
0001
0000
0000
0000
0000
0000
0000
0000
0010
0000
0000
0000
0000
0000
0000
0000
0001
0000
0000
0000
0000
0000
0000
0000
0200
0000
0000
0000
0000
0000
0000
0000
0310
0000
0000
0000
0000
0000
0000
0000
0100
0000
0000
0000
0000
0000
0000
0000
0002
0000
0000
0000
0000
0000
0000
0000
4003
0000
0000
0000
0000
0000
0000
3000
,
1100
1100
1001
0011
,
0101
1010
1001
0101
,
0011
0011
1001
1100
,
1010
0000
0000
0000
0101
0000
0000
0000
0001
0000
0000
0001
0000
0000
4000
0000
,
3001
0000
0011
0000
1100
00M0
1001
0000
,
1010
0000
0000
0000
0110
0000
0000
0000
0101
0000
0000
0000
0021
0000
0230
2300
,
3001
1010
0101
1001
,
1000
0000
0100
0010
0001
0000
0200
0300
0040
0000
0000
0000
0130
0001
0100
0001
,
M020
MM00
0M0M
M000
,
0000
0000
0000
M000
0000
0000
0M3M
0000
M000
0000
0000
M000
0000
0000
M000
0000
,
0000
M000
0000
0000
M000
0000
0000
M000
0000
0000
M000
0000
0000
M000
0000
0000
,
M000
0000
0000
M000
00M0
0000
0000
0000
00M0
0000
0M00
0000
0000
0000
0000
M000
,
0000
M0M0
0000
0000
0000
0M0M
0000
0000
,
0000
0000
0000
0000
0000
0000
0000
0000
0000
M00M
0000
0000
0000
0000
0000
0000
0000
0000
0000
0000
0000
0000
0000
0000
0000
0000
0000
0000
0000
0000
000M
0000
0000
0000
0000
0000
0000
0000
M000
0000
0000
0000
0000
0000
0M00
0000
0000
0000
,
0000
0000
0000
0000
,
0000
0000
0000
0000
,
0002
0003
0000
0000
0100
0000
0000
0000
0100
0000
0000
0000
0100
0000
0000
0000
,
0010
0000
1000
0000
1000
0000
0001
0010
,
0100
1000
0010
1000
,
0001
0010
0100
0000
,
1000
0010
0010
0010
,
0100
0000
0001
0000
0001
0000
1000
0100
,
0010
0001
0100
0001
,
1000
0100
0010
0000
,
1001
0000
0001
0100
0010
0000
0010
0000
1000
0000
0001
0000
1000
0000
0100
0000
,
1000
0010
0100
0100
0001
1000
0001
0010
,
0110
0000
0100
1000
0010
0000
0010
0000
0100
0000
0001
0000
0010
0000
0001
0000
,
1000
0010
0100
0100
0010
1000
0100
1000
,
1001
0000
0001
0100
0010
0000
0010
0000
1000
0000
0001
0000
1000
0000
0100
0000
,
0110
0000
0010
0001
0100
0000
0100
0000
0010
0000
1000
0000
0100
0000
1000
0000
,
1001
0000
0001
0100
0010
0000
0010
0000
1000
0000
0001
0000
1000
0000
0100
0000
,
0110
0000
0010
0001
0100
0000
0100
0000
0010
0000
1000
0000
0100
0000
1000
0000
,
1001
0000
0001
0100
0010
0000
1000
0000
1001
0000
0001
0000
0010
0000
0001
0000
,
1001
0000
1000
0010
0100
0000
0001
0000
1001
0000
1000
0000
0100
0000
1000
0000
,
1001
0000
0001
0100
0010
0000
0100
0001
0010
0000
0100
1000
0001
0000
0100
0001
,
1000
0000
0001
0010
0100
0000
0010
0001
0100
0000
0010
1000
0001
0000
0010
0001
,
1000
0000
0001
0100
0001
0000
0010
0100
0010
0000
0001
1000
0001
0000
1000
0010
,
1000
0000
0001
0010
0001
0000
0100
0010
0100
0000
0001
1000
0001
0000
1000
0001
,
1000
0100
1000
0001
0100
0010
0100
0001
0010
0001
1000
0001
0100
0010
1000
0001
,
1000
0100
1000
0010
0100
0001
0010
0001
M100
0010
1000
0100
1000
0010
0100
0010
,
1000
0000
1000
0000
1000
0200
M320
0032
,
1003
0000
0001
0000
0100
0000
0010
0000
0100
0000
0001
0100
0010
0000
1000
0000
,
0001
0010
0100
0000
0010
0000
0001
0000
0100
0000
0010
1000
0001
0010
0100
0010
,
0001
0000
1000
0000
0010
0000
1000
0000
0100
0000
1000
0001
0010
0000
0001
0000
,
1000
0010
0100
0000
0010
0000
1000
0000
0100
0000
0010
0001
1000
0010
0100
0010
,
1000
0000
0001
0000
0010
0000
0100
0000
0010
0000
0001
0010
0100
1000
0001
1000
,
0001
0100
0010
0000
0100
0000
0001
0000
0010
0000
0100
1000
0001
0000
0100
0000
,
0001
0000
1000
0000
0100
0000
1000
0000
0010
0000
1000
0001
0100
0001
1000
0001
,
0010
0000
0100
0000
1000
0000
0001
0000
0400
0000
0000
0000
0310
1000
0010
1000
,
0001
0000
1000
0000
0100
0000
0010
0000
0100
0000
1000
0100
0010
0000
0001
0000
,
1000
0010
0100
0000
0010
0000
1000
0000
0100
0000
0010
0001
1000
0000
0010
0000
,
1000
0000
0001
0000
0010
0000
0001
0000
0100
0000
0001
1000
0010
0000
1000
0000
,
0001
0010
0100
0000
0010
0000
0001
0000
0100
0000
0010
1000
0001
0000
0001
0000
,
1MM0
0000
0001
0000
0010
0000
0100
0000
0010
0000
0001
0010
0100
0000
1000
0000
,
0001
0100
0010
0000
0100
0000
0001
0000
0010
0000
0100
1000
0001
0000
0100
0000
,
0001
0000
1000
0000
0100
0000
1000
0000
0010
0000
1000
0001
0100
0000
0001
0000
,
1000
0000
0001
0000
0100
0000
0002
0003
0020
0030
0100
1000
0001
0000
4000
3000
,
0001
0100
0010
0100
0001
1000
0010
1000
0001
0100
0010
0100
0001
1000
0010
1000
,
0001
0010
0100
1000
0001
1000
0100
1000
0010
0100
0001
0100
0010
1000
0001
1000
,
0001
0010
0100
0010
0001
1000
0100
1000
0001
0010
0100
0010
0001
1000
0100
1000
,
0001
0100
0010
1000
0001
1000
0010
1000
0100
0010
0001
0010
0100
1000
0001
1000
,
0001
0100
0010
0100
0001
1000
0010
1000
0010
0100
0001
0100
0010
1000
0001
1000
,
0001
0010
0100
1000
0001
1000
0100
0010
0001
0100
0010
0100
0001
1000
0010
1000
,
0001
0010
0100
0010
0001
1000
0100
1000
0100
0010
0001
0010
0100
1000
0001
1000
,
0001
0100
0001
1000
0010
0000
1000
0000
0400
0000
0000
0000
0310
0001
0010
0001
,
1000
0010
0100
0010
1000
0001
0100
0001
1000
0010
0100
0010
1000
0001
0010
0001
,
1000
0010
0100
0001
1000
0001
0100
0001
1000
0010
1000
0100
1000
0001
0100
0001
,
1000
0100
0010
0100
1000
0001
0010
0001
1000
0100
0010
0100
1000
0001
0100
0001
,
1000
0100
0010
0001
1000
0001
0010
0001
1000
0100
1000
0010
1000
0001
0010
0001
,
1000
0010
0100
0010
1000
0001
0100
0001
0100
0010
1000
0010
0100
0001
1000
0100
,
1000
0001
0010
0100
1000
0001
0010
0001
1000
0010
1000
0100
1000
0001
0100
0001
,
1000
0100
0010
0100
1000
0001
0010
0001
0010
0100
1000
0100
0010
0001
1000
0010
,
1M00
0001
1000
0010
010M
0000
0010
1000
040M
0000
0000
0000
0000
0000
43M0
3000
,
0001
1000
0010
1000
0100
0010
0001
1000
0001
0100
0001
0010
0001
1000
0010
1000
,
0001
1000
0100
1000
0010
0100
0001
1000
0001
0010
0001
0100
0001
1000
0100
1000
,
0001
1000
0010
1000
0100
0010
0001
1000
0001
0100
0001
0010
0001
1000
0010
1000
,
0001
1000
0100
1000
0010
0100
0001
1000
0001
0010
0100
1000
0010
0100
0001
0010
,
0001
1000
0010
1000
0100
0010
0001
1000
0001
0100
0001
0010
0001
1000
0010
1000
,
0001
1000
0100
1000
0010
0100
0001
1000
0001
0010
0001
0100
0001
1000
0100
1000
,
0001
1000
0010
1000
0100
0010
0001
1000
0001
0100
0001
0010
0001
1000
0010
1000
,
0001
0010
0100
1000
0001
0010
0100
1000
0040
0000
0000
0000
0130
0001
0100
0001
,
1000
0001
0010
0001
0100
0010
1000
0001
1000
0100
1000
0010
1000
0001
0010
0001
,
1000
0001
0100
0001
0010
0100
1000
0001
1000
0010
1000
0100
0010
0001
0100
0001
,
1000
0001
0010
0001
0100
0010
1000
0001
1000
0100
1000
0010
1000
0001
0010
0001
,
1000
0001
0100
0001
0010
0100
1000
0001
1000
0010
1000
0100
0010
0001
0100
0010
,
1000
0001
0010
0001
0100
0010
1000
0001
1000
0100
1000
0010
1000
0001
0010
0001
,
1000
0001
0100
0001
0010
0100
1000
0001
1000
0010
1000
0100
1000
0001
0100
0001
,
1000
0001
0010
0001
0100
0010
1000
0001
1000
0100
0010
0001
1000
0001
0100
0001
,
10M0
0000
0001
0100
M010
0000
1000
0000
040M
0000
0000
0000
0000
0000
43M0
3000
;

//---------------dance-single - 15 (Prolix)----------------
#NOTES:
     dance-single:
     15 (Prolix):
     Hard:
     15:
     1.000,1.000,0.321,0.184,1.000,1942.000,75.000,43.000,92.000,0.000:

0000
0000
0000
0000
,
0000
0000
0000
0000
,
0000
0000
0000
0000
,
0000
0000
0000
0000
,
0000
0000
0000
0000
,
0000
0000
0000
0000
,
0MM1
1000
0001
0000
0010
0000
0100
0000
1000
0000
0000
0001
0000
0000
1000
0000
,
0001
0100
0001
0000
1000
0000
0100
0000
2000
0000
0000
3001
0000
0000
0010
0000
,
0001
1000
0001
0000
0100
0000
0010
0000
1000
0000
0000
0001
0000
0000
1000
0000
,
0001
0010
0001
0000
1000
0000
0010
0000
2000
0000
0000
3001
0000
0000
0100
0000
,
0001
1000
0001
0000
0010
0000
0100
0000
1000
0000
0000
0001
0000
0000
1000
0000
,
0001
0100
0001
0000
1000
0000
0100
0000
2000
0000
0000
3001
0000
0000
0010
0000
,
0001
1000
0001
0000
0100
0000
0010
0000
1000
0000
0000
0001
0000
0000
1000
0000
,
0001
0010
0000
0000
0100
0000
1000
0000
0040
0000
0000
0000
0000
0000
0030
0000
,
1000
0001
1000
0000
0100
0000
0010
0000
0001
0000
0000
1000
0100
0000
1000
0000
,
0001
0100
0001
0000
0010
0000
0100
0000
0020
0000
0000
0130
1000
0000
0001
0000
,
1000
0001
1000
0000
0010
0000
0100
0000
0001
0000
0000
1000
0010
0000
1000
0000
,
0001
0010
0001
0000
0100
0000
0010
0000
0200
0000
0000
0310
1000
0000
0001
0000
,
1000
0001
1000
0000
0100
0000
0010
0000
0001
0000
0000
1000
0100
0000
1000
0000
,
0001
0100
0001
0000
0010
0000
0100
0000
0020
0000
0000
0130
1000
0000
0001
0000
,
1000
0001
1000
0000
0010
0000
0100
0000
0001
0000
0000
1000
0010
0000
0100
0001
,
M010
0M10
M010
040M
,
13M0
0001
1000
0000
0010
0000
1000
0000
0001
0000
0100
0010
0100
0000
0001
0000
,
1000
0100
1000
0000
0001
0000
0100
0000
0001
0000
1000
0010
1000
0000
0001
0000
,
1000
0001
1000
0000
0100
0000
1000
0000
0001
0000
0010
0100
0010
0000
0001
0000
,
1000
0010
1000
0000
0001
0000
0010
0000
0001
0000
1000
0100
0010
0000
0010
0000
,
0001
1000
0001
0000
0100
0000
0001
0000
1000
0000
0010
0100
0010
0000
1000
0000
,
0001
0010
0001
0000
1000
0000
0010
0000
1000
0000
0001
0100
0001
0000
1000
0000
,
0001
1000
0001
0000
0010
0000
0100
0000
1000
0000
0001
0010
0001
0000
1000
0000
,
0010
0100
0010
0000
0100
0000
0001
0000
0040
0000
0000
0000
0130
1000
0100
1000
,
0001
0100
0001
0000
0010
0000
0001
0000
1000
0000
0010
0100
0010
0000
1000
0000
,
0001
0010
0001
0000
0100
0000
0010
0000
0100
0000
0001
1000
0001
0000
0010
0000
,
0001
0010
0001
0000
0100
0000
0001
0000
1000
0000
0100
0010
0100
0000
1000
0000
,
0001
0100
0001
0000
0010
0000
0100
0000
0010
0000
0001
1000
0010
0000
0010
0000
,
1000
0010
1000
0000
0100
0000
1000
0000
0001
0000
0100
0010
0100
0000
0001
0000
,
1000
0100
1000
0000
0010
0000
0100
0000
0010
0000
1000
0001
1000
0000
0100
0000
,
1000
0100
1000
0000
0010
0000
1000
0000
0001
0000
0010
0100
0010
0000
0001
0000
,
M100
0000
0000
0000
M100
0000
0000
0000
M100
0010
0000
0100
0004
0000
0000
0000
,
1003
0100
0010
0001
1000
0010
0100
0010
1000
0001
0100
0001
1000
0001
0010
0001
,
1000
0010
0100
0001
1000
0001
0100
0001
1000
0100
1000
0010
1000
0001
0010
0001
,
1000
0010
0100
0001
1000
0100
0010
0100
1000
0001
0010
0001
1000
0001
0100
0001
,
1000
0100
0010
0001
1000
0001
0010
0001
1000
0010
1000
0100
1000
0001
0100
0001
,
1000
0100
0010
0001
1000
0010
0100
0010
1000
0001
0100
0001
1000
0001
0010
0001
,
1000
0010
0100
0001
1000
0001
0100
0001
1000
0100
1000
0010
1000
0001
0010
0001
,
1000
0010
0100
0001
1000
0100
0010
0100
1000
0001
0010
0001
1000
0001
0100
0001
,
1000
0100
0010
0000
0100
0000
0010
0000
0004
0000
0203
0000
0320
0000
4030
3000
,
0001
0010
0100
1000
0001
0100
0010
0100
0001
1000
0010
1000
0001
1000
0100
1000
,
0001
0100
0010
1000
0001
1000
0010
1000
0001
0010
0001
0100
0001
1000
0100
1000
,
00M1
0100
0010
1000
0001
0010
0100
0010
0001
1000
0100
1000
0001
1000
0010
1000
,
0001
0010
0100
1000
0001
1000
0100
1000
0001
0100
0001
0010
0001
1000
0010
1000
,
0001
0010
0100
1000
0001
0100
0010
0100
0001
1000
0010
1000
0001
1000
0100
1000
,
0001
0100
0010
1000
0001
1000
0010
1000
0001
0010
0001
0100
0001
1000
0100
1000
,
0001
1000
0001
1000
0100
0010
0100
0010
0100
1000
0100
1000
0001
1000
0010
0100
,
0001
0000
0000
0000
M001
0000
00M0
M000
0001
0000
M010
0100
1000
0000
0004
0000
,
1003
0010
0100
0010
1000
0010
0100
0010
,
1000
0001
0010
0000
0100
0000
1000
0000
0010
0000
0100
0000
0100
0000
0100
0000
,
0001
1000
0100
1000
0001
1000
0100
1000
,
0001
0100
0010
0000
0100
0000
0001
0000
0010
0000
0100
0000
0010
0000
0010
0000
,
0001
1000
0010
1000
0001
0100
0100
0100
,
0001
1000
0100
0000
0010
0000
0001
0000
0100
0000
0010
0000
1000
0000
0010
0000
,
1000
0001
0010
0001
1000
0100
0100
0100
,
1000
0001
0100
0000
0010
0000
1000
0000
0400
0000
0000
0000
1300
0001
1000
0001
,
0100
0000
0001
0000
0010
0000
0001
0000
1000
0000
0001
0100
M00M
0100
1000
0001
,
1000
0000
0100
0000
1000
0000
0001
0000
0100
0000
0001
0100
M00M
0100
1000
0001
,
0010
0000
0001
0000
0100
0000
0001
0000
1000
0000
0001
0010
M00M
0010
1000
0001
,
1000
0010
1000
0001
0010
0100
1000
0010
,
0100
0000
0001
0000
0010
0000
0001
0000
1000
0000
0001
0100
M00M
0100
1000
0001
,
1000
0000
0100
0000
1000
0000
0001
0000
0100
0000
0001
0100
M00M
0100
1000
0001
,
0010
0000
0001
0000
0100
0000
0001
0000
1000
0000
0001
0010
M00M
0010
1000
0001
,
1000
0000
0100
0000
0010
0000
0001
0000
0400
0000
0000
0000
0301
0000
0040
0030
,
0100
0000
1000
0000
0010
0000
1000
0000
0001
0000
1000
0100
M00M
0100
0001
1000
,
0001
0000
0100
0000
0001
0000
1000
0000
0100
0000
1000
0100
M00M
0100
0001
1000
,
0010
0000
1000
0000
0100
0000
1000
0000
0001
0000
1000
0010
M00M
0010
0001
1000
,
0001
0010
0001
1000
0010
0100
0001
0010
,
0100
0000
1000
0000
0010
0000
1000
0000
0001
0000
1000
0100
M00M
0100
0001
1000
,
0001
0000
0100
0000
0001
0000
1000
0000
0100
0000
1000
0100
M00M
0100
0001
1000
,
0010
0000
1000
0000
0100
0000
1000
0000
0001
0000
1000
0010
M00M
0010
0001
1000
,
0001
0010
0100
1000
0001
1000
0010
0100
0040
0000
0000
0000
1030
0001
1000
0001
,
0010
0000
0001
0000
0100
0000
0001
0000
1000
0000
0100
0010
0001
1000
0010
1000
,
0001
0000
1000
0000
0010
0000
0100
0000
0001
0000
0010
0100
1000
0001
0100
0010
,
0100
0000
0001
0000
0010
0000
0001
0000
1000
0000
0010
0100
0001
1000
0100
1000
,
0001
0000
1000
0000
0100
0000
0010
0000
0001
0000
0100
0010
1000
0001
1000
0100
,
0010
0000
0001
0000
0100
0000
0001
0000
1000
0000
0100
0010
0001
1000
0010
1000
,
0001
0000
1000
0000
0010
0000
0100
0000
0001
0000
0010
0100
1000
0001
0100
0010
,
0100
0000
0001
0000
0010
0000
0001
0000
1000
0000
0010
0100
0001
1000
0100
1000
,
0001
0010
0100
1000
00M1
0000
0200
0000
M02M
0000
0300
0000
1030
0000
0004
0003
,
MM10
0000
0001
1000
0100
0010
0100
1000
0001
1000
0100
0010
0001
0000
1000
0000
,
0010
0100
0010
1000
0001
1000
0010
0100
0001
0000
1000
0000
0100
0000
1000
0000
,
0001
0000
0100
0010
1000
0001
1000
0010
0100
0010
1000
0001
0100
0000
0001
0000
,
1000
0100
1000
0001
0010
0001
1000
0100
0010
0000
0002
0003
0200
0300
0001
0000
,
2000
3000
0100
1000
0001
0010
0001
1000
0100
1000
0001
0010
0100
0000
1000
0000
,
0001
0100
0001
1000
0010
1000
0001
0100
0010
0000
1000
0000
0200
0300
2000
3002
,
0103
0000
0010
1000
0001
0100
0001
1000
0010
1000
0001
0100
0010
0000
1000
0000
,
0001
0010
0001
0200
0310
1000
0002
4003
,
31MM
0000
1000
0001
0010
0100
0010
0001
1000
0010
0100
0001
1000
0000
0001
0000
,
1000
0100
1000
0001
0010
0001
1000
0001
0100
0000
0001
0000
1000
0000
0001
0000
,
0010
0000
0001
1000
0100
0010
0100
1000
0001
0100
0010
1000
0001
0000
1000
0000
,
0001
0010
0001
1000
0100
1000
0001
1000
0010
0000
2000
3000
0200
0300
1000
0000
,
0002
0003
0100
0001
1000
0010
1000
0001
0100
0001
1000
0010
0100
0000
0001
0000
,
1000
0100
1000
0001
0010
0001
1000
0100
0010
0000
0001
0000
0200
0300
0002
2003
,
3100
0000
0010
0001
1000
0100
1000
0001
0010
0001
1000
0100
0010
0000
0001
1000
,
0001
0000
1000
0010
0100
0000
0001
0000
0040
0000
0000
0000
0130
1000
0100
1000
,
0001
1001
1010
1001
,
1100
1001
0101
1001
,
0011
1001
1010
1001
,
1100
0000
0000
0000
1001
0000
0000
0000
0101
0000
0200
0300
0002
0003
1000
0000
,
2100
3000
0000
0000
0110
0000
0000
0000
0011
0000
0M00
0000
1001
0000
0000
0000
,
1010
0000
0000
0000
0110
0000
0000
0000
0101
0000
0000
0000
0021
0000
0230
2300
,
3001
0101
1010
1001
,
0001
0000
0000
0000
0000
0000
0000
0000
0010
0000
0000
0000
0000
0000
0000
0000
0001
0000
0000
0000
0000
0000
0000
0000
0200
0000
0000
0000
0000
0000
0000
0000
0310
0000
0000
0000
0000
0000
0000
0000
0100
0000
0000
0000
0000
0000
0000
0000
0002
0000
0000
0000
0000
0000
0000
0000
4003
0000
0000
0000
0000
0000
0000
3000
,
1100
1100
1001
0011
,
0101
1010
1001
0101
,
0011
0011
1001
1100
,
1010
0000
0000
0000
0101
0000
0000
0000
0001
0000
0000
0001
0000
0000
4000
0000
,
3001
0000
0011
0000
1100
00M0
1001
0000
,
1010
0000
0000
0000
0110
0000
0000
0000
0101
0000
0000
0000
0021
0000
0230
2300
,
3001
1010
0101
1001
,
1000
0000
0100
0010
0001
0000
0200
0300
0040
0000
0000
0000
0130
0001
0100
0001
,
M020
MM00
0M0M
M000
,
0000
0000
0000
M000
0000
0000
0M3M
0000
M000
0000
0000
M000
0000
0000
M000
0000
,
0000
M000
0000
0000
M000
0000
0000
M000
0000
0000
M000
0000
0000
M000
0000
0000
,
M000
0000
0000
M000
00M0
0000
0000
0000
00M0
0000
0M00
0000
0000
0000
0000
M000
,
0000
M0M0
0000
0000
0000
0M0M
0000
0000
,
0000
0000
0000
0000
0000
0000
0000
0000
0000
M00M
0000
0000
0000
0000
0000
0000
0000
0000
0000
0000
0000
0000
0000
0000
0000
0000
0000
0000
0000
0000
000M
0000
0000
0000
0000
0000
0000
0000
M000
0000
0000
0000
0000
0000
0M00
0000
0000
0000
,
0000
0000
0000
0000
,
0000
0000
0000
0000
,
0002
0003
0000
0000
0100
0000
0000
0000
0100
0000
0000
0000
0100
0000
0000
0000
,
0010
0000
1000
0000
1000
0000
0001
0010
,
0100
1000
0010
1000
,
0001
0010
0100
0000
,
1000
0010
0010
0010
,
0100
0000
0001
0000
0001
0000
1000
0100
,
0010
0001
0100
0001
,
1000
0100
0010
0000
,
1001
0000
0001
0100
0010
0000
0010
0000
1000
0000
0001
0000
1000
0000
0100
0000
,
1000
0010
0100
0100
0001
1000
0001
0010
,
0110
0000
0100
1000
0010
0000
0010
0000
0100
0000
0001
0000
0010
0000
0001
0000
,
1000
0010
0100
0100
0010
1000
0100
1000
,
1001
0000
0001
0100
0010
0000
0010
0000
1000
0000
0001
0000
1000
0000
0100
0000
,
0110
0000
0010
0001
0100
0000
0100
0000
0010
0000
1000
0000
0100
0000
1000
0000
,
1001
0000
0001
0100
0010
0000
0010
0000
1000
0000
0001
0000
1000
0000
0100
0000
,
0110
0000
0010
0001
0100
0000
0100
0000
0010
0000
1000
0000
0100
0000
1000
0000
,
1001
0000
0001
0100
0010
0000
1000
0000
1001
0000
0001
0000
0010
0000
0001
0000
,
1001
0000
1000
0010
0100
0000
0001
0000
1001
0000
1000
0000
0100
0000
1000
0000
,
1001
0000
0001
0100
0010
0000
0100
0001
0010
0000
0100
1000
0001
0000
0100
0001
,
1000
0000
0001
0010
0100
0000
0010
0001
0100
0000
0010
1000
0001
0000
0010
0001
,
1000
0000
0001
0100
0001
0000
0010
0100
0010
0000
0001
1000
0001
0000
1000
0010
,
1000
0000
0001
0010
0001
0000
0100
0010
0100
0000
0001
1000
0001
0000
1000
0001
,
1000
0100
1000
0001
0100
0010
0100
0001
0010
0001
1000
0001
0100
0010
1000
0001
,
1000
0100
1000
0010
0100
0001
0010
0001
M100
0010
1000
0100
1000
0010
0100
0010
,
1000
0000
1000
0000
1000
0200
M320
0032
,
1003
0000
0001
0000
0100
0000
0010
0000
0100
0000
0001
0100
0010
0000
1000
0000
,
0001
0010
0100
0000
0010
0000
0001
0000
0100
0000
0010
1000
0001
0010
0100
0010
,
0001
0000
1000
0000
0010
0000
1000
0000
0100
0000
1000
0001
0010
0000
0001
0000
,
1000
0010
0100
0000
0010
0000
1000
0000
0100
0000
0010
0001
1000
0010
0100
0010
,
1000
0000
0001
0000
0010
0000
0100
0000
0010
0000
0001
0010
0100
1000
0001
1000
,
0001
0100
0010
0000
0100
0000
0001
0000
0010
0000
0100
1000
0001
0000
0100
0000
,
0001
0000
1000
0000
0100
0000
1000
0000
0010
0000
1000
0001
0100
0001
1000
0001
,
0010
0000
0100
0000
1000
0000
0001
0000
0400
0000
0000
0000
0310
1000
0010
1000
,
0001
0000
1000
0000
0100
0000
0010
0000
0100
0000
1000
0100
0010
0000
0001
0000
,
1000
0010
0100
0000
0010
0000
1000
0000
0100
0000
0010
0001
1000
0000
0010
0000
,
1000
0000
0001
0000
0010
0000
0001
0000
0100
0000
0001
1000
0010
0000
1000
0000
,
0001
0010
0100
0000
0010
0000
0001
0000
0100
0000
0010
1000
0001
0000
0001
0000
,
1MM0
0000
0001
0000
0010
0000
0100
0000
0010
0000
0001
0010
0100
0000
1000
0000
,
0001
0100
0010
0000
0100
0000
0001
0000
0010
0000
0100
1000
0001
0000
0100
0000
,
0001
0000
1000
0000
0100
0000
1000
0000
0010
0000
1000
0001
0100
0000
0001
0000
,
1000
0000
0001
0000
0100
0000
0002
0003
0020
0030
0100
1000
0001
0000
4000
3000
,
0001
0100
0010
0100
0001
1000
0010
1000
0001
0100
0010
0100
0001
1000
0010
1000
,
0001
0010
0100
1000
0001
1000
0100
1000
0010
0100
0001
0100
0010
1000
0001
1000
,
0001
0010
0100
0010
0001
1000
0100
1000
0001
0010
0100
0010
0001
1000
0100
1000
,
0001
0100
0010
1000
0001
1000
0010
1000
0100
0010
0001
0010
0100
1000
0001
1000
,
0001
0100
0010
0100
0001
1000
0010
1000
0010
0100
0001
0100
0010
1000
0001
1000
,
0001
0010
0100
1000
0001
1000
0100
0010
0001
0100
0010
0100
0001
1000
0010
1000
,
0001
0010
0100
0010
0001
1000
0100
1000
0100
0010
0001
0010
0100
1000
0001
1000
,
0001
0100
0001
1000
0010
0000
1000
0000
0400
0000
0000
0000
0310
0001
0010
0001
,
1000
0010
0100
0010
1000
0001
0100
0001
1000
0010
0100
0010
1000
0001
0010
0001
,
1000
0010
0100
0001
1000
0001
0100
0001
1000
0010
1000
0100
1000
0001
0100
0001
,
1000
0100
0010
0100
1000
0001
0010
0001
1000
0100
0010
0100
1000
0001
0100
0001
,
1000
0100
0010
0001
1000
0001
0010
0001
1000
0100
1000
0010
1000
0001
0010
0001
,
1000
0010
0100
0010
1000
0001
0100
0001
0100
0010
1000
0010
0100
0001
1000
0100
,
1000
0001
0010
0100
1000
0001
0010
0001
1000
0010
1000
0100
1000
0001
0100
0001
,
1000
0100
0010
0100
1000
0001
0010
0001
0010
0100
1000
0100
0010
0001
1000
0010
,
1M00
0001
1000
0010
010M
0000
0010
1000
040M
0000
0000
0000
0000
0000
43M0
3000
,
0001
1000
0010
1000
0100
0010
0001
1000
0001
0100
0001
0010
0001
1000
0010
1000
,
0001
1000
0100
1000
0010
0100
0001
1000
0001
0010
0001
0100
0001
1000
0100
1000
,
0001
1000
0010
1000
0100
0010
0001
1000
0001
0100
0001
0010
0001
1000
0010
1000
,
0001
1000
0100
1000
0010
0100
0001
1000
0001
0010
0100
1000
0010
0100
0001
0010
,
0001
1000
0010
1000
0100
0010
0001
1000
0001
0100
0001
0010
0001
1000
0010
1000
,
0001
1000
0100
1000
0010
0100
0001
1000
0001
0010
0001
0100
0001
1000
0100
1000
,
0001
1000
0010
1000
0100
0010
0001
1000
0001
0100
0001
0010
0001
1000
0010
1000
,
0001
0010
0100
1000
0001
0010
0100
1000
0040
0000
0000
0000
0130
0001
0100
0001
,
1000
0001
0010
0001
0100
0010
1000
0001
1000
0100
1000
0010
1000
0001
0010
0001
,
1000
0001
0100
0001
0010
0100
1000
0001
1000
0010
1000
0100
0010
0001
0100
0001
,
1000
0001
0010
0001
0100
0010
1000
0001
1000
0100
1000
0010
1000
0001
0010
0001
,
1000
0001
0100
0001
0010
0100
1000
0001
1000
0010
1000
0100
0010
0001
0100
0010
,
1000
0001
0010
0001
0100
0010
1000
0001
1000
0100
1000
0010
1000
0001
0010
0001
,
1000
0001
0100
0001
0010
0100
1000
0001
1000
0010
1000
0100
1000
0001
0100
0001
,
1000
0001
0010
0001
0100
0010
1000
0001
1000
0100
0010
0001
1000
0001
0100
0001
,
10M0
0000
0001
0100
M010
0000
1000
0000
040M
0000
0000
0000
0000
0000
43M0
3000
;

//---------------dance-single - 9 (Prolix)----------------
#NOTES:
     dance-single:
     9 (Prolix):
     Easy:
     9:
     0.719,0.894,0.441,0.248,0.075,1007.000,103.000,58.000,55.000,0.000:

0000
0000
0000
0000
,
0000
0000
0000
0000
,
0000
0000
0000
0000
,
0000
0000
0000
0000
,
0000
0000
0000
0000
,
0000
0000
0000
0000
,
1MM0
0001
0100
0010
1000
0000
0000
0001
,
1000
0000
0000
0000
0100
0000
0010
0000
0200
0000
0000
0300
0000
0000
1000
0000
,
0001
1000
0010
0100
0001
0000
0000
1000
,
0001
0000
0000
0000
0010
0000
0100
0000
0020
0000
0000
0030
0000
0000
0100
0000
,
0010
0001
0100
0010
1000
0000
0000
0010
,
1000
0000
0000
0000
0100
0000
0010
0000
0200
0000
0000
0300
0000
0000
0010
0000
,
0100
1000
0010
0100
0001
0000
0000
0100
,
0001
0000
1000
0001
0020
0000
0000
0030
,
0001
1000
0010
0100
0001
0000
1000
0001
,
1000
0000
0100
1000
0100
0000
0010
0001
,
1000
0001
0100
0010
1000
0000
0001
1000
,
0001
0000
0010
0001
0010
0000
0001
1000
,
0010
1000
0100
0010
0001
0000
0010
0001
,
1000
0000
0010
0100
0010
0000
1000
0001
,
0010
0001
0100
0010
1000
0000
0010
1000
,
010M
010M
010M
004M
,
013M
1000
0010
1000
0001
0000
0010
0001
,
1000
0000
0010
1000
0010
0000
1000
0001
,
0010
0001
0100
0001
1000
0000
0100
1000
,
0001
0000
0100
0001
0100
0000
0001
1000
,
0100
1000
0010
1000
0001
0000
0010
0001
,
1000
0000
0010
0100
0010
0000
1000
0001
,
0010
0001
0100
0001
1000
0000
0100
1000
,
0001
0000
0100
0010
4000
0000
3001
0001
,
0010
0001
0100
0010
1000
0000
0001
1000
,
0100
0000
1000
0010
1000
0000
0001
1000
,
0100
1000
0010
0100
0001
0000
1000
0001
,
0010
0000
0001
0100
0001
0000
1000
0001
,
0100
0001
0010
0001
1000
0000
0001
1000
,
0010
0000
1000
0100
1000
0000
0001
1000
,
0010
1000
0100
1000
0001
0000
0100
0001
,
0M10
0M10
M010
0004
,
1003
0000
0010
1000
0010
0100
0001
0040
,
0130
0000
1000
0100
1000
0020
0230
0302
,
1003
0000
0100
1000
0100
0010
0001
0400
,
0310
0000
1000
0010
1000
0200
0320
0032
,
1003
0000
0010
1000
0010
0100
0001
0040
,
0130
0000
1000
0100
1000
0020
0230
0302
,
1003
0000
0100
1000
0100
0010
0001
0400
,
0301
0000
0000
0000
0001
0000
0000
0000
0004
0000
0023
0000
0230
0000
4300
3000
,
0001
0000
0100
0001
0100
0010
1000
0400
,
0310
0000
0001
0010
0001
0200
0320
2030
,
3M01
0000
0010
0001
0010
0100
1000
0040
,
0130
0000
0001
0100
0001
0020
0230
2300
,
3001
0000
0100
0001
0100
0010
1000
0400
,
0310
0000
0001
0010
0001
0200
0320
2030
,
3001
0000
0100
0010
1000
0001
1000
0400
,
1300
0000
1000
0000
4000
3020
0230
0304
,
0003
1000
0000
0001
0000
1000
0000
0001
,
0000
0010
0000
0001
0000
1000
0010
1000
,
0000
0001
0000
1000
0000
0001
0000
1000
,
0000
0100
0000
1000
0000
0001
0100
0001
,
0000
1000
0000
0001
0000
1000
0100
1000
,
0000
0010
0000
0100
0000
0010
0000
0100
,
0000
0001
0000
1000
0000
0001
0010
0001
,
1000
0000
0010
1000
0400
0000
1300
1000
,
0001
0000
0000
0000
1010
0000
0000
0000
1000
0000
0000
0010
0000
0000
1000
0000
,
0001
0000
0000
0000
0000
0000
0000
0000
0100
0000
0000
0010
0000
0000
0100
0000
,
0001
0000
0000
0000
1100
0000
0000
0000
1000
0000
0000
0100
0000
0000
1000
0000
,
0001
0000
0000
0000
0010
0000
0001
0100
,
0001
0000
0000
0000
1100
0000
0000
0000
1000
0000
0000
0100
0000
0000
1000
0000
,
0001
0000
0000
0000
0000
0000
0000
0000
0010
0000
0000
0100
0000
0000
0010
0000
,
0001
0000
0000
0000
1010
0000
0000
0000
1000
0000
0000
0010
0000
0000
1000
0000
,
0001
0000
0000
0000
1000
0000
0000
0000
0400
0000
0000
0000
1300
0000
0040
0030
,
1000
0000
0000
0000
0011
0000
0000
0000
0001
0000
0000
0010
0000
0000
0001
0000
,
1000
0000
0000
0000
0000
0000
0000
0000
0100
0000
0000
0010
0000
0000
0100
0000
,
1000
0000
0000
0000
0101
0000
0000
0000
0001
0000
0000
0100
0000
0000
0001
0000
,
1000
0000
0000
0000
0010
0000
1000
0100
,
1000
0000
0000
0000
0101
0000
0000
0000
0001
0000
0000
0100
0000
0000
0001
0000
,
1000
0000
0000
0000
0000
0000
0000
0000
0010
0000
0000
0100
0000
0000
0010
0000
,
1000
0000
0000
0000
0011
0000
0000
0000
0001
0000
0000
0010
0000
0000
0001
0000
,
1000
0001
0100
0001
0040
0000
0031
0001
,
1000
0000
0010
0000
1000
0000
0001
0010
,
0100
0000
0010
0000
0001
0100
0010
1000
,
0001
0000
0010
0000
0001
0000
1000
0010
,
0100
0000
0010
0000
1000
0100
1000
0010
,
0100
0000
0010
0000
1000
0000
0001
0010
,
0100
0000
0010
0000
0001
0100
0001
1000
,
0100
0000
0010
0000
0001
0000
1000
0010
,
010M
0000
0000
0000
M001
0000
0020
0000
MM00
0000
0000
0000
0230
0000
4300
3000
,
0001
0100
0000
0010
0000
1000
0000
0001
,
0010
0100
0000
0010
0000
0001
0100
0001
,
1000
0100
0000
0010
0000
0001
0000
1000
,
0001
0000
0100
0000
0000
0000
0001
0000
0000
0000
0020
0030
0200
0300
0000
0000
,
2000
3000
0010
0000
0000
0000
0100
0000
0000
0000
0001
0000
0000
0000
1000
0000
,
0100
0010
0000
0100
0000
1000
0020
2030
,
3001
0010
0000
0100
0000
1000
0000
0001
,
1000
0010
1000
0200
0310
0001
2000
3004
,
0103
0010
1000
0001
0010
0100
0010
0001
,
0100
0010
1000
0001
0010
0100
0010
0001
,
0100
0001
1000
0010
1000
0100
0010
0001
,
0100
0000
0001
0000
1000
0000
0010
0000
1000
0000
0200
0300
2000
3000
0000
0000
,
0002
0003
0100
0000
0001
0000
1000
0000
0010
0000
0100
0000
0001
0000
1000
0000
,
0100
1000
0001
0010
0100
1000
0020
0230
,
0301
1000
0010
0100
0001
1000
0010
0100
,
0001
1000
0010
1000
0400
0000
1300
0010
,
1010
1001
0011
1001
,
0101
1001
1100
1001
,
1010
1001
0011
1001
,
0101
0000
0000
0000
1001
0000
0000
0000
1100
0000
0200
0300
2000
3000
0001
0000
,
0102
0003
0000
0000
0110
0000
0000
0000
1010
0000
0000
0000
1001
0000
0000
0000
,
0011
0000
0110
0000
1100
0000
1020
0230
,
0301
0101
1010
1001
,
0001
0010
0001
0200
0310
1000
0002
4003
,
3100
1100
1001
0011
,
0101
1010
1001
0101
,
0011
0011
1001
1100
,
1010
0000
0000
0000
0101
0000
0000
0000
0001
0000
0000
0001
0000
0000
4000
0000
,
3001
0011
1100
1001
,
1010
0000
0110
0000
0101
0000
0021
0230
,
1300
1100
0011
1001
,
0001
1000
0010
1000
0400
0000
1300
1000
,
002M
000M
MM00
000M
,
0000
0000
0000
000M
0000
0000
MM30
0000
000M
0000
0000
000M
0000
0000
000M
0000
,
0000
000M
0000
0000
000M
0000
0000
000M
0000
0000
000M
0000
0000
000M
0000
0000
,
000M
0000
0000
000M
00M0
0000
0000
0000
00M0
0000
0M00
0000
0000
0000
0000
000M
,
0000
00MM
0000
0000
0000
MM00
0000
0000
,
0000
0000
0000
0000
0000
0000
0000
0000
0000
M00M
0000
0000
0000
0000
0000
0000
0000
0000
0000
0000
0000
0000
0000
0000
0000
0000
0000
0000
0000
0000
000M
0000
0000
0000
0000
0000
0000
0000
M000
0000
0000
0000
0000
0000
0M00
0000
0000
0000
,
0000
0000
0000
0000
,
0000
0000
0000
0000
,
2000
3000
0000
0000
0100
0000
0000
0000
0100
0000
0000
0000
0100
0000
0000
0000
,
0010
0000
0001
0000
0001
0000
1000
0010
,
0100
0001
0010
0001
,
1000
0010
0100
0000
,
0001
0010
0010
0010
,
0100
0000
1000
0000
1000
0000
0001
0100
,
0010
1000
0100
1000
,
0001
0100
0010
0000
,
1100
0100
0010
0000
,
0001
0010
0100
0000
,
1010
0010
0100
0000
,
0001
0100
0010
0000
,
1100
0100
0010
0000
,
0101
0100
0010
0000
,
1100
0100
0010
0000
,
0101
0100
0010
0000
,
1100
0100
0011
0001
,
0101
0100
1010
1000
,
0011
1100
0110
1001
,
1010
0101
0110
1001
,
1000
0100
0000
0010
0000
0001
0000
1000
,
0000
0010
0000
0100
0000
0001
0000
1000
,
0100
0010
0001
1000
0010
0100
0010
1000
,
0100
0010
0001
0100
001M
1000
0100
0010
,
0001
0000
0001
0000
0001
0200
032M
2030
,
3001
0010
0010
0010
,
0100
0000
0010
0001
0100
0000
0001
1000
,
0100
1000
0010
1000
,
0001
0000
0010
0001
0100
0000
0001
0001
,
1000
0100
0100
0100
,
0010
0000
0100
1000
0010
0000
1000
0001
,
0010
0000
0001
0000
0100
0000
0001
1000
,
0100
0000
1000
0001
0400
0000
0310
0010
,
1000
0100
0100
0100
,
0010
0000
0100
1000
0010
0000
1000
0001
,
0100
0001
0010
0001
,
1000
0000
0010
1000
0100
0000
1000
1000
,
0MM1
0100
0100
0100
,
0010
0000
0100
0001
0010
0000
0001
1000
,
0010
0000
1000
0000
0100
0000
1000
0001
,
1000
0000
0000
0000
0010
0000
2000
3000
0200
0300
0000
0000
1000
0000
0004
0003
,
1000
0010
1000
0001
1000
0010
1000
0001
,
0010
0100
0010
0001
0100
0010
1000
0001
,
1000
0100
1000
0001
1000
0100
1000
0001
,
0100
0010
0100
0001
0010
0100
1000
0001
,
1000
0010
1000
0001
0100
0010
0100
0001
,
1000
0100
0010
0001
0100
0010
1000
0001
,
1000
0100
1000
0001
0010
0100
0010
0001
,
1000
0001
0100
0001
0040
0000
0031
0001
,
1000
0010
1000
0001
1000
0010
1000
0100
,
0010
0001
0010
0100
1000
0010
0100
0001
,
1000
0100
1000
0001
1000
0100
1000
0010
,
0100
0001
0100
0010
1000
0100
0010
0001
,
0100
0010
0100
0001
1000
0010
1000
0100
,
0010
0001
0010
0100
1000
0010
0100
0001
,
0010
0100
0010
0001
1000
0100
1000
0001
,
01M0
0000
0000
0000
0010
0000
1000
0000
0200
0000
0000
0000
0000
0000
4300
3000
,
0001
0000
0000
0000
1010
0000
0000
0000
1000
0000
0000
0010
0000
0000
1000
0000
,
0001
0000
0000
0000
0000
0000
0000
0000
0100
0000
0000
0010
0000
0000
0100
0000
,
0001
0000
0000
0000
1100
0000
0000
0000
1000
0000
0000
0100
0000
0000
1000
0000
,
0001
0000
0000
0000
0010
0000
0001
0100
,
0001
0000
0000
0000
1100
0000
0000
0000
1000
0000
0000
0100
0000
0000
1000
0000
,
0001
0000
0000
0000
0000
0000
0000
0000
0010
0000
0000
0100
0000
0000
0010
0000
,
0001
0000
0000
0000
1010
0000
0000
0000
1000
0000
0000
0010
0000
0000
1000
0000
,
0001
0010
0100
1000
0040
0000
1030
1000
,
0001
0000
0010
0000
0001
0000
1000
0010
,
0100
0000
0010
0000
1000
0100
0010
0001
,
1000
0000
0010
0000
1000
0000
0001
0010
,
0100
0000
0010
0000
0001
0100
0001
0010
,
0100
0000
0010
0000
0001
0000
1000
0010
,
0100
0000
0010
0000
1000
0100
1000
0001
,
0100
0000
0010
0000
1000
0000
0001
0010
,
0M01
0000
1000
0000
0M10
0000
1000
0000
020M
0000
0000
0000
0000
0000
43M0
3000
;

//---------------dance-single - 3 (Prolix)----------------
#NOTES:
     dance-single:
     3 (Prolix):
     Beginner:
     3:
     0.154,0.255,0.056,0.000,0.000,239.000,13.000,0.000,0.000,0.000:

0000
0000
0000
0000
,
0000
0000
0000
0000
,
0000
0000
0000
0000
,
0000
0000
0000
0000
,
0000
0000
0000
0000
,
0000
0000
0000
0000
,
1000
0000
0000
0000
,
0001
0000
0000
0000
,
0010
0000
0000
0000
,
0100
0000
0000
0000
,
1000
0000
0000
0000
,
0001
0000
0000
0000
,
0100
0000
0000
0000
,
0001
0000
0010
0000
,
0001
0000
0000
0000
,
1000
0000
0000
0000
,
0010
0000
0000
0000
,
0100
0000
0000
0000
,
0001
0000
0000
0000
,
1000
0000
0000
0000
,
0100
0000
0000
0000
,
1000
0000
1000
0000
,
0001
0000
0000
0000
,
1000
0000
0000
0000
,
0010
0000
0000
0000
,
0100
0000
0000
0000
,
0001
0000
0000
0000
,
1000
0000
0000
0000
,
0100
0000
0000
0000
,
1000
0000
0000
0000
,
0001
0000
0000
0000
,
1000
0000
0000
0000
,
0010
0000
0000
0000
,
0100
0000
0000
0000
,
0001
0000
0000
0000
,
1000
0000
0000
0000
,
0100
0000
0000
0000
,
1000
0000
1000
0000
,
0001
0000
0000
0000
,
0100
0000
0000
0100
,
0000
0000
0000
0000
,
0010
0000
0000
0010
,
0000
0000
0000
0000
,
1000
0000
0000
1000
,
0000
0000
0000
0000
,
0001
0000
0000
0000
,
0010
0000
0000
0000
,
0100
0000
0000
0000
,
1001
0000
0000
0000
,
1000
0000
0000
1000
,
0000
0000
0000
0000
,
0010
0000
0000
0010
,
0000
0000
0000
0000
,
1000
0000
1000
0000
,
0001
0000
0000
0000
,
1000
0000
0010
0000
,
0100
0000
0000
0000
,
0001
0000
1000
0000
,
0100
0000
0010
0000
,
0001
0000
0000
0000
,
1000
0000
0010
0000
,
0100
0000
0000
0000
,
0001
0000
0001
0000
,
0001
0000
0000
0000
,
1000
0000
1000
0000
,
1000
0000
0000
0000
,
0100
0000
0100
0000
,
0100
0000
0000
0000
,
0010
0000
0010
0000
,
0010
0000
0000
0000
,
0001
0000
0001
0000
,
0001
0000
0000
0000
,
1000
0000
1000
0000
,
1000
0000
0000
0000
,
0010
0000
0010
0000
,
0010
0000
0000
0000
,
0100
0000
0100
0000
,
0100
0000
0000
0000
,
0001
0000
0000
0000
,
0001
0000
0000
0010
,
0000
0000
0000
0000
,
0100
0000
0000
1000
,
0000
0000
0000
0000
,
0001
0000
0000
0100
,
0000
0000
0000
0000
,
0010
0000
0000
0000
,
1001
0000
0000
0000
,
0001
0000
0000
0000
,
1000
0000
0000
0000
,
0100
0000
0000
0000
,
0110
0000
0000
0000
,
0001
0000
0000
0000
,
1000
0000
0000
0000
,
0010
0000
0000
0000
,
1000
0000
0000
0000
,
0001
0000
0000
0000
,
1000
0000
0000
0000
,
0100
0000
0000
0000
,
0110
0000
0000
0000
,
1000
0000
0000
0000
,
0001
0000
0000
0000
,
0100
0000
0000
0000
,
0001
0000
0001
0000
,
1000
0000
1000
0000
,
0100
0000
0100
0000
,
0010
0000
0010
0000
,
0100
0000
0100
0000
,
1000
0000
1000
0000
,
0010
0000
0010
0000
,
0100
0000
0000
0000
,
0010
0000
0010
0000
,
1000
0000
1000
0000
,
0001
0000
0001
0000
,
0010
0000
0000
0000
,
0100
0000
0100
0000
,
1000
0000
1000
0000
,
0010
0000
0010
0000
,
0100
0000
0000
0000
,
1001
0000
1001
0000
,
0000
0000
0000
0000
,
0000
0000
0000
0000
,
0000
0000
0000
0000
,
0000
0000
0000
0000
,
0000
0000
0000
0000
,
0000
0000
0000
0000
,
0000
0000
0000
0000
,
1000
0000
0000
0000
,
0100
0000
0000
0000
,
1000
0000
0010
0000
,
0100
0000
0001
0000
,
1000
0000
0000
0000
,
0010
0000
0000
0000
,
1000
0000
0100
0000
,
0010
0000
0001
0000
,
1001
0000
0000
0000
,
1000
0000
0000
0000
,
1001
0000
0000
0000
,
0001
0000
0000
0000
,
1001
0000
0000
0000
,
0110
0000
0000
0000
,
1001
0000
0000
0000
,
0110
0000
0000
0000
,
0001
0000
0001
0000
,
0001
0000
0001
0000
,
1000
0000
1000
0000
,
0100
0000
0100
0000
,
0010
0000
0010
0000
,
0001
0000
0001
0000
,
0100
0000
0000
0000
,
1001
0000
0000
0000
,
0001
0000
0000
0000
,
1000
0000
0000
0000
,
0010
0000
0000
0000
,
1000
0000
0100
0000
,
0010
0000
0001
0000
,
1000
0000
0000
0000
,
0100
0000
0000
0000
,
1000
0000
0010
0000
,
0100
0000
0000
0000
,
0001
0000
0000
0000
,
0100
0000
0000
0000
,
0001
0000
0010
0000
,
0100
0000
1000
0000
,
0001
0000
0000
0000
,
0010
0000
0000
0000
,
0001
0000
0100
0000
,
0010
0000
1000
0000
,
0001
0000
0000
0000
,
1000
0000
0100
0000
,
1000
0000
0000
0000
,
0001
0000
0100
0000
,
0010
0000
0000
0000
,
1000
0000
0100
0000
,
1000
0000
0000
0000
,
0001
0000
0000
0000
,
0100
0000
0000
0000
,
0001
0000
0000
0001
,
0000
0000
0000
0000
,
1000
0000
0000
1000
,
0000
0000
0000
0000
,
0010
0000
0000
0010
,
0000
0000
0000
0000
,
1000
0000
0100
0000
,
1000
0000
0000
0000
,
0001
0000
0000
0100
,
0000
0000
0000
0000
,
0010
0000
0000
1000
,
0000
0000
0000
0000
,
0001
0000
0000
0010
,
0000
0000
0000
0000
,
0001
0000
1000
0000
,
0001
0000
0000
0000
,
1000
0000
0000
0010
,
0000
0000
0000
0000
,
0100
0000
0000
0001
,
0000
0000
0000
0000
,
1000
0000
0000
0100
,
0000
0000
0000
0000
,
1000
0000
0010
0000
;

//---------------dance-single - 13 (Prolix)----------------
#NOTES:
     dance-single:
     13 (Prolix):
     Medium:
     13:
     1.000,1.000,0.321,0.197,0.871,1695.000,75.000,46.000,103.000,0.000:

0000
0000
0000
0000
,
0000
0000
0000
0000
,
0000
0000
0000
0000
,
0000
0000
0000
0000
,
0000
0000
0000
0000
,
0000
0000
0000
0000
,
0MM1
1000
0001
0000
0100
0000
0010
0000
1000
0000
0000
0001
0000
0000
1000
0000
,
0001
0010
0001
0000
1000
0000
0010
0000
2000
0000
0000
3001
0000
0000
0100
0000
,
0001
1000
0001
0000
0010
0000
0100
0000
1000
0000
0000
0001
0000
0000
1000
0000
,
0001
0100
0001
0000
1000
0000
0100
0000
2000
0000
0000
3001
0000
0000
0010
0000
,
0001
1000
0001
0000
0100
0000
0010
0000
1000
0000
0000
0001
0000
0000
1000
0000
,
0001
0010
0001
0000
1000
0000
0010
0000
2000
0000
0000
3001
0000
0000
0100
0000
,
0001
1000
0001
0000
0010
0000
0100
0000
1000
0000
0000
0001
0000
0000
1000
0000
,
0001
0100
0000
0000
0010
0000
1000
0000
0200
0000
0000
0000
0000
0000
0300
0000
,
1000
0001
1000
0000
0010
0000
0100
0000
0001
0000
0000
1000
0010
0000
1000
0000
,
0001
0010
0001
0000
0100
0000
0010
0000
0200
0000
0000
0310
1000
0000
0001
0000
,
1000
0001
1000
0000
0100
0000
0010
0000
0001
0000
0000
1000
0100
0000
1000
0000
,
0001
0100
0001
0000
0010
0000
0100
0000
0020
0000
0000
0130
1000
0000
0001
0000
,
1000
0001
1000
0000
0010
0000
0100
0000
0001
0000
0000
1000
0010
0000
1000
0000
,
0001
0010
0001
0000
0100
0000
0010
0000
0200
0000
0000
0310
1000
0000
0001
0000
,
1000
0001
1000
0000
0100
0000
0010
0000
0001
0000
0000
1000
0100
0000
0010
0001
,
M100
01M0
M100
004M
,
1M30
0001
1000
0000
0100
0000
1000
0000
0001
0000
0010
0100
0010
0000
0001
0000
,
1000
0010
1000
0000
0001
0000
0010
0000
0001
0000
1000
0100
1000
0000
0001
0000
,
1000
0001
1000
0000
0010
0000
1000
0000
0001
0000
0100
0010
0100
0000
0001
0000
,
1000
0100
1000
0000
0001
0000
0100
0000
0001
0000
1000
0010
0100
0000
0100
0000
,
0001
1000
0001
0000
0010
0000
0001
0000
1000
0000
0100
0010
0100
0000
1000
0000
,
0001
0100
0001
0000
1000
0000
0100
0000
1000
0000
0001
0010
0001
0000
1000
0000
,
0001
1000
0001
0000
0100
0000
0010
0000
1000
0000
0001
0100
0001
0000
1000
0000
,
0100
0010
0100
0000
0010
0000
0001
0000
0400
0000
0000
0000
0310
1000
0010
1000
,
0001
0010
0001
0000
0100
0000
0001
0000
1000
0000
0100
0010
0100
0000
1000
0000
,
0001
0100
0001
0000
0010
0000
0100
0000
0010
0000
0001
1000
0001
0000
0100
0000
,
0001
0100
0001
0000
0010
0000
0001
0000
1000
0000
0010
0100
0010
0000
1000
0000
,
0001
0010
0001
0000
0100
0000
0010
0000
0100
0000
0001
1000
0100
0000
0100
0000
,
1000
0100
1000
0000
0010
0000
1000
0000
0001
0000
0010
0100
0010
0000
0001
0000
,
1000
0010
1000
0000
0100
0000
0010
0000
0100
0000
1000
0001
1000
0000
0010
0000
,
1000
0010
1000
0000
0100
0000
1000
0000
0001
0000
0100
0010
0100
0000
0001
0000
,
M010
0000
0000
0000
M010
0000
0000
0000
M010
0100
0000
0010
0004
0000
0000
0000
,
0103
0000
0001
0000
1000
0000
0010
0100
0010
1000
0001
0100
0001
0000
1000
0100
,
0010
0000
0001
0000
1000
0000
0100
0010
0100
1000
0001
0100
0010
0000
1000
0000
,
0100
0000
1000
0000
0001
0000
0010
0100
0010
0001
1000
0100
1000
0000
0001
0100
,
0010
0000
1000
0000
0001
0000
0100
0010
0100
0001
1000
0100
0010
0000
0001
0000
,
0100
0000
0001
0000
1000
0000
0010
0100
0010
1000
0001
0100
0001
0000
1000
0100
,
0010
0000
0001
0000
1000
0000
0100
0010
0100
1000
0001
0100
0010
0000
1000
0000
,
0100
0000
1000
0000
0001
0000
0010
0100
0010
0001
1000
0100
1000
0000
0001
0100
,
0001
0000
1000
0000
0001
0000
1000
0000
0004
0000
0023
0000
0230
0000
4300
3000
,
0010
0000
1000
0000
0001
0000
0100
0010
0100
0001
1000
0010
1000
0000
0001
0010
,
0100
0000
1000
0000
0001
0000
0010
0100
0010
0001
1000
0010
0100
0000
0001
0000
,
MM10
0000
0001
0000
1000
0000
0100
0010
0100
1000
0001
0010
0001
0000
1000
0010
,
0100
0000
0001
0000
1000
0000
0010
0100
0010
1000
0001
0010
0100
0000
1000
0000
,
0010
0000
1000
0000
0001
0000
0100
0010
0100
0001
1000
0010
1000
0000
0001
0010
,
0100
0000
1000
0000
0001
0000
0010
0100
0010
0001
1000
0010
0100
0000
0001
0000
,
0010
0000
0001
0000
1000
0000
0100
1000
0100
0010
0100
0010
0001
0000
1000
0010
,
1000
0000
0000
0000
100M
0000
0M00
000M
1000
0000
010M
0010
0001
0000
4000
0000
,
3001
0100
0010
0100
0001
0100
0010
0100
,
0001
1000
0100
0000
0010
0000
0001
0000
0100
0000
0010
0000
0010
0000
0010
0000
,
1000
0001
0010
0001
1000
0001
0010
0001
,
1000
0010
0100
0000
0010
0000
1000
0000
0100
0000
0010
0000
0100
0000
0100
0000
,
1000
0001
0100
0001
1000
0010
0010
0010
,
1000
0001
0010
0000
0100
0000
1000
0000
0010
0000
0100
0000
0001
0000
0100
0000
,
0001
1000
0100
1000
0001
0010
0010
0010
,
0001
1000
0010
0000
0100
0000
0001
0000
0040
0000
0000
0000
0031
1000
0001
1000
,
0010
0000
1000
0000
0100
0000
1000
0000
0001
0000
1000
0010
M00M
0010
0001
1000
,
0001
0000
0010
0000
0001
0000
1000
0000
0010
0000
1000
0010
M00M
0010
0001
1000
,
0100
0000
1000
0000
0010
0000
1000
0000
0001
0000
1000
0100
M00M
0100
0001
1000
,
0001
0100
0001
1000
0100
0010
0001
0100
,
0010
0000
1000
0000
0100
0000
1000
0000
0001
0000
1000
0010
M00M
0010
0001
1000
,
0001
0000
0010
0000
0001
0000
1000
0000
0010
0000
1000
0010
M00M
0010
0001
1000
,
0100
0000
1000
0000
0010
0000
1000
0000
0001
0000
1000
0100
M00M
0100
0001
1000
,
0001
0000
0010
0000
0100
0000
1000
0000
0040
0000
0000
0000
1030
0000
0400
0300
,
0010
0000
0001
0000
0100
0000
0001
0000
1000
0000
0001
0010
M00M
0010
1000
0001
,
1000
0000
0010
0000
1000
0000
0001
0000
0010
0000
0001
0010
M00M
0010
1000
0001
,
0100
0000
0001
0000
0010
0000
0001
0000
1000
0000
0001
0100
M00M
0100
1000
0001
,
1000
0100
1000
0001
0100
0010
1000
0100
,
0010
0000
0001
0000
0100
0000
0001
0000
1000
0000
0001
0010
M00M
0010
1000
0001
,
1000
0000
0010
0000
1000
0000
0001
0000
0010
0000
0001
0010
M00M
0010
1000
0001
,
0100
0000
0001
0000
0010
0000
0001
0000
1000
0000
0001
0100
M00M
0100
1000
0001
,
1000
0100
0010
0001
1000
0001
0100
0010
0400
0000
0000
0000
0301
1000
0001
1000
,
0100
0000
1000
0000
0010
0000
1000
0000
0001
0000
0010
0100
1000
0001
0100
0001
,
1000
0000
0001
0000
0100
0000
0010
0000
1000
0000
0100
0010
0001
1000
0010
0100
,
0010
0000
1000
0000
0100
0000
1000
0000
0001
0000
0100
0010
1000
0001
0010
0001
,
1000
0000
0001
0000
0010
0000
0100
0000
1000
0000
0010
0100
0001
1000
0001
0010
,
0100
0000
1000
0000
0010
0000
1000
0000
0001
0000
0010
0100
1000
0001
0100
0001
,
1000
0000
0001
0000
0100
0000
0010
0000
1000
0000
0100
0010
0001
1000
0010
0100
,
0010
0000
1000
0000
0100
0000
1000
0000
0001
0000
0100
0010
1000
0001
0010
0001
,
1000
0100
0010
0001
1M00
0000
0020
0000
M20M
0000
0030
0000
0301
0000
4000
3000
,
01MM
0000
1000
0001
0010
0100
0010
0001
1000
0001
0010
0100
1000
0000
0001
0000
,
0100
0010
0100
0001
1000
0001
0100
0010
1000
0000
0001
0000
0010
0000
0001
0000
,
1000
0000
0010
0100
0001
1000
0001
0100
0010
0100
0001
1000
0010
0000
1000
0000
,
0001
0010
0001
1000
0100
1000
0001
0010
0100
0000
2000
3000
0020
0030
1000
0000
,
0002
0003
0010
0001
1000
0100
1000
0001
0010
0001
1000
0100
0010
0000
0001
0000
,
1000
0010
1000
0001
0100
0001
1000
0010
0100
0000
0001
0000
0020
0030
0002
2003
,
3010
0000
0100
0001
1000
0010
1000
0001
0100
0001
1000
0010
0100
0000
0001
0000
,
1000
0100
1000
0020
0130
0001
2000
3004
,
MM13
0000
0001
1000
0100
0010
0100
1000
0001
0100
0010
1000
0001
0000
1000
0000
,
0001
0010
0001
1000
0100
1000
0001
1000
0010
0000
1000
0000
0001
0000
1000
0000
,
0100
0000
1000
0001
0010
0100
0010
0001
1000
0010
0100
0001
1000
0000
0001
0000
,
1000
0100
1000
0001
0010
0001
1000
0001
0100
0000
0002
0003
0020
0030
0001
0000
,
2000
3000
0010
1000
0001
0100
0001
1000
0010
1000
0001
0100
0010
0000
1000
0000
,
0001
0010
0001
1000
0100
1000
0001
0010
0100
0000
1000
0000
0020
0030
2000
3002
,
0013
0000
0100
1000
0001
0010
0001
1000
0100
1000
0001
0010
0100
0000
1000
0001
,
1000
0000
0001
0100
0010
0000
1000
0000
0400
0000
0000
0000
0310
0001
0010
0001
,
1000
1001
0101
1001
,
0011
1001
1010
1001
,
1100
1001
0101
1001
,
0011
0000
0000
0000
1001
0000
0000
0000
1010
0000
0020
0030
2000
3000
0001
0000
,
0012
0003
0000
0000
0110
0000
0000
0000
1100
0000
00M0
0000
1001
0000
0000
0000
,
0101
0000
0000
0000
0110
0000
0000
0000
1010
0000
0000
0000
1200
0000
0320
0032
,
1003
1010
0101
1001
,
1000
0000
0100
0000
1000
0000
0020
0000
0100
0030
0100
0000
0002
0000
4003
3000
,
1100
1100
1001
0011
,
0101
1010
1001
0101
,
0011
0011
1001
1100
,
1010
0000
0000
0000
0101
0000
0000
0000
0001
0000
0000
0001
0000
0000
4000
0000
,
3001
0000
0011
0000
1100
00M0
1001
0000
,
1010
0000
0000
0000
0110
0000
0000
0000
0101
0000
0000
0000
0021
0000
0230
2300
,
3001
1010
0101
1001
,
1000
0000
0100
0010
0001
0000
0200
0300
0040
0000
0000
0000
0130
0001
0100
0001
,
M020
MM00
0M0M
M000
,
0000
0000
0000
M000
0000
0000
0M3M
0000
M000
0000
0000
M000
0000
0000
M000
0000
,
0000
M000
0000
0000
M000
0000
0000
M000
0000
0000
M000
0000
0000
M000
0000
0000
,
M000
0000
0000
M000
00M0
0000
0000
0000
00M0
0000
0M00
0000
0000
0000
0000
M000
,
0000
M0M0
0000
0000
0000
0M0M
0000
0000
,
0000
0000
0000
0000
0000
0000
0000
0000
0000
M00M
0000
0000
0000
0000
0000
0000
0000
0000
0000
0000
0000
0000
0000
0000
0000
0000
0000
0000
0000
0000
000M
0000
0000
0000
0000
0000
0000
0000
M000
0000
0000
0000
0000
0000
0M00
0000
0000
0000
,
0000
0000
0000
0000
,
0000
0000
0000
0000
,
0002
0003
0000
0000
0100
0000
0000
0000
0100
0000
0000
0000
0100
0000
0000
0000
,
0010
0000
1000
0000
1000
0000
0001
0010
,
0100
1000
0010
1000
,
0001
0010
0100
0000
,
1000
0010
0010
0010
,
0100
0000
0001
0000
0001
0000
1000
0100
,
0010
0001
0100
0001
,
1000
0100
0010
0000
,
1001
0000
0001
0100
0010
0000
0010
0000
1000
0000
0001
0000
1000
0000
0100
0000
,
1000
0010
0100
0100
0001
1000
0001
0010
,
0110
0000
0100
1000
0010
0000
0010
0000
0100
0000
0001
0000
0010
0000
0001
0000
,
1000
0010
0100
0100
0010
1000
0100
1000
,
1001
0000
0001
0100
0010
0000
0010
0000
1000
0000
0001
0000
1000
0000
0100
0000
,
0110
0000
0010
0001
0100
0000
0100
0000
0010
0000
1000
0000
0100
0000
1000
0000
,
1001
0000
0001
0100
0010
0000
0010
0000
1000
0000
0001
0000
1000
0000
0100
0000
,
0110
0000
0010
0001
0100
0000
0100
0000
0010
0000
1000
0000
0100
0000
1000
0000
,
1001
0000
0001
0100
0010
0000
1000
0000
1001
0000
0001
0000
0010
0000
0001
0000
,
1001
0000
1000
0010
0100
0000
0001
0000
1001
0000
1000
0000
0100
0000
1000
0000
,
1001
0000
0001
0100
0010
0000
0100
0001
0010
0000
0100
1000
0001
0000
0100
0001
,
1000
0000
0001
0010
0100
0000
0010
0001
0100
0000
0010
1000
0001
0000
0010
0001
,
1000
0000
0001
0100
0001
0000
0010
0100
0010
0000
0001
1000
0001
0000
1000
0010
,
1000
0000
0001
0010
0001
0000
0100
0010
0100
0000
0001
1000
0001
0000
1000
0001
,
1000
0100
1000
0100
0010
0001
0010
0001
1000
0010
1000
0010
0100
0001
0100
0001
,
1000
0100
0010
0001
1000
0010
0100
0010
100M
0100
0010
0001
1000
0010
0100
0010
,
1000
0000
1000
0000
1000
0200
M320
0032
,
1003
0000
0001
0000
0100
0000
0010
0000
0100
0000
0001
0100
0010
0000
1000
0000
,
0001
0010
0100
0000
0010
0000
0001
0000
0100
0000
0010
1000
0001
0010
0100
0010
,
0001
0000
1000
0000
0010
0000
1000
0000
0100
0000
1000
0001
0010
0000
0001
0000
,
1000
0010
0100
0000
0010
0000
1000
0000
0100
0000
0010
0001
1000
0010
0100
0010
,
1000
0000
0001
0000
0010
0000
0100
0000
0010
0000
0001
0010
0100
1000
0001
1000
,
0001
0100
0010
0000
0100
0000
0001
0000
0010
0000
0100
1000
0001
0000
0100
0000
,
0001
0000
1000
0000
0100
0000
1000
0000
0010
0000
1000
0001
0100
0001
1000
0001
,
0010
0000
0100
0000
1000
0000
0010
0000
0400
0000
0000
0000
0310
1000
0010
1000
,
0001
0000
1000
0000
0100
0000
0010
0000
0100
0000
1000
0100
0010
0000
0001
0000
,
1000
0010
0100
0000
0010
0000
1000
0000
0100
0000
0010
0001
1000
0000
0010
0000
,
1000
0000
0001
0000
0010
0000
0001
0000
0100
0000
0001
1000
0010
0000
1000
0000
,
0001
0010
0100
0000
0010
0000
0001
0000
0100
0000
0010
1000
0001
0000
0001
0000
,
1MM0
0000
0001
0000
0010
0000
0100
0000
0010
0000
0001
0010
0100
0000
1000
0000
,
0001
0100
0010
0000
0100
0000
0001
0000
0010
0000
0100
1000
0001
0000
0100
0000
,
0001
0000
1000
0000
0100
0000
1000
0000
0010
0000
1000
0001
0100
0000
0001
0000
,
1000
0000
0001
0000
0100
0000
0002
0003
0020
0030
0100
1000
0001
0000
4000
3000
,
0001
0100
0001
1000
0001
0100
0001
1000
,
0001
0010
0100
0000
0010
0000
0001
0000
0100
0000
0010
0000
1000
0000
0001
0000
,
1000
0100
1000
0001
1000
0100
1000
0001
,
1000
0010
0100
0000
0010
0000
1000
0000
0100
0000
0010
0000
0001
0000
1000
0000
,
0001
0100
0001
1000
0010
0100
0010
1000
,
0001
0010
0100
0000
0010
0000
0001
0000
0100
0000
0010
0000
1000
0000
0001
0000
,
1000
0100
1000
0001
0010
0100
0010
0001
,
1000
0010
1000
0001
0100
0000
0001
0000
0040
0000
0000
0000
0130
1000
0100
1000
,
0001
0000
0100
0000
0001
0000
1000
0000
0001
0000
0100
0000
0001
0000
0010
0100
,
1000
0100
0010
0100
1000
0010
0100
0001
,
1000
0000
0100
0000
1000
0000
0001
0000
1000
0000
0100
0000
1000
0000
0010
0100
,
0001
0100
0010
0100
0001
0010
0100
1000
,
0010
0000
0100
0000
0010
0000
1000
0000
0001
0000
0100
0000
0001
0000
0010
0100
,
1000
0100
0010
0100
1000
0010
0100
0001
,
0010
0000
0100
0000
0010
0000
0001
0000
1000
0000
0100
0000
1000
0000
0010
0100
,
0001
1000
0001
0100
0010
0000
1000
0001
0M20
0000
0000
0000
0000
0000
M034
0003
,
0010
0000
0001
0000
0100
0000
0001
0000
1000
0000
0001
0010
M00M
0010
1000
0001
,
0100
0000
0001
0000
0010
0000
0001
0000
1000
0000
0001
0100
M00M
0100
1000
0001
,
0010
0000
0001
0000
0100
0000
0001
0000
1000
0000
0001
0010
M00M
0010
1000
0001
,
0100
0010
1000
0001
0010
0100
1000
0010
,
0100
0000
0001
0000
0010
0000
0001
0000
1000
0000
0001
0100
M00M
0100
1000
0001
,
0010
0000
0001
0000
0100
0000
0001
0000
1000
0000
0001
0010
M00M
0010
1000
0001
,
0100
0000
0001
0000
0010
0000
0001
0000
1000
0000
0001
0100
M00M
0100
1000
0001
,
1000
0100
0010
0001
1000
0100
0010
0001
0400
0000
0000
0000
0301
1000
0001
1000
,
0100
0000
1000
0000
0010
0000
1000
0000
0001
0000
0010
0100
1000
0001
0100
0001
,
1000
0000
0001
0000
0100
0000
0010
0000
1000
0000
0100
0010
0001
1000
0010
0100
,
0010
0000
1000
0000
0100
0000
1000
0000
0001
0000
0100
0010
1000
0001
0010
0001
,
1000
0000
0001
0000
0010
0000
0100
0000
1000
0000
0010
0100
0001
1000
0001
0010
,
0100
0000
1000
0000
0010
0000
1000
0000
0001
0000
0010
0100
1000
0001
0100
0001
,
1000
0000
0001
0000
0100
0000
0010
0000
1000
0000
0100
0010
0001
1000
0010
0100
,
0010
1000
0100
1000
0001
0100
0001
0010
,
0M01
0000
1000
0100
001M
0000
0001
0000
M200
0000
0000
0000
0000
0000
03M4
0003
;
