#TITLE:SIN;
#SUBTITLE:;
#ARTIST:ESTi;
#TITLETRANSLIT:;
#SUBTITLETRANSLIT:;
#ARTISTTRANSLIT:;
#CREDIT:;
#BANNER:SIN.png;
#BACKGROUND:SIN-bg.png;
#LYRICSPATH:;
#CDTITLE:!ian-cdtitle.png;
#MUSIC:SIN.mp3;
#OFFSET:-0.104;
#SAMPLESTART:22.364;
#SAMPLELENGTH:12.000;
#SELECTABLE:YES;
#BPMS:0.000=190.000;
#STOPS:;
#BGCHANGES:;
// cache tags:
#FIRSTBEAT:0.000;
#LASTBEAT:360.000;
#SONGFILENAME:Songs/Fabulously Fresh Flock of Fantastic Files F5/(MacGyver) Sin/SIN.sm;
#HASMUSIC:1;
#HASBANNER:1;
#MUSICLENGTH:115.565;
// end cache tags

//---------------dance-double - Copied from Challeng----------------
#NOTES:
     dance-double:
     Copied from Challeng:
     Challenge:
     15:
     1.000,1.000,1.000,0.303,1.000,1112.000,481.000,35.000,0.000,128.000:
10000000
00001000
01000000
00000100
00100000
00000010
01000000
00000100
,
00010000
00000001
00100000
00000010
01000000
00000100
00100000
00000010
,
10000000
00001000
01000000
00000100
00100000
00000010
01000000
00000100
,
10000000
00001000
01000000
00000100
00010000
00000001
00100000
00000010
,
10000000
00001000
01000000
00000100
00100000
00000010
01000000
00000100
,
00010000
00000000
00000001
00000000
00100000
00000000
00000010
00000000
01000000
00000000
00000100
00000000
00100000
00000000
10001000
01000000
,
00010000
00100001
01000000
10000010
01000000
00100100
00010000
10001000
,
00010000
10000000
00100001
00000000
01000000
00000000
10000100
00000000
00000001
00000010
00000100
00001000
00010000
00100000
01000000
10000000
,
10001000
01000000
00100000
00010000
10001000
01000000
00100000
00010000
,
10001000
01000000
00100000
00010000
10001000
00100000
10000000
01000000
,
10001000
01000000
00100000
00010000
10001000
01000000
00100000
00010000
,
10001000
01000000
00100000
00010000
01001000
10000000
00010000
00100000
,
10000001
01000000
00100000
00010000
10000001
01000000
00100000
00010000
,
10000001
01000000
00100000
00010000
10000001
00100000
10000000
01000000
,
10000001
00010000
10001000
00010000
10000001
00010000
10001000
00010000
10000001
00010000
10001000
00010000
10000001
00010000
10001000
00010000
,
10000001
00010000
10001000
00010000
10000001
00010000
10001000
00010000
10000001
00010000
10001000
00010000
10000001
00010000
10001000
00010000
,
10000001
00000000
01000000
00100000
01000000
00100000
00010000
00000000
00000010
00000100
00000010
00000100
00001000
00000000
00100000
00000100
,
00100000
00000000
00000000
00000000
00100000
00000100
00100000
00000100
00100000
00000100
00100000
00000100
00100000
00000100
00100000
00000100
00100000
00000000
00000000
00000000
00000000
00000000
00000000
00000000
00000000
00000000
00000000
00000000
00000000
00000000
00000000
00000000
,
10012000
00000000
01000000
00000000
00100000
00000000
01000000
00000000
00000000
00010000
01000000
00000000
00100000
00000000
10000000
00000000
,
01013002
00000000
01000000
00000000
00010000
00000000
00100000
00000000
10000000
01000000
00100000
01000000
10000000
00000000
00100000
00000000
,
10100203
00000000
10000000
00000000
00010000
00000000
00010000
00000000
00000000
10000000
00100000
01000000
00010000
00100000
01000000
10000000
,
01100320
00000000
00100000
00000000
01000000
00000000
00100000
00000000
00010000
00100000
01000000
10000000
01000000
00100000
11000000
00100000
,
10012030
00000000
10010000
00000000
01100000
00000000
10010000
00000000
00000000
00010000
00100000
01000000
00100000
01000000
00100000
01000000
,
10103002
00000000
00100000
00000000
10010000
00000000
00100000
00000000
01000000
00100000
00010000
01000000
00100000
10000000
01000000
00100000
,
01100023
00000000
10000000
00000000
01010000
00000000
00100000
00000000
00000000
00010000
00100000
00000000
10000000
01000000
00100000
00010000
,
01100230
00000000
00100000
00000000
10000000
00000000
00010000
00000000
10000000
01000000
10000000
01000000
00100000
00010000
00100000
00010000
,
10010300
00000000
10010000
00000000
01010000
00000000
00000100
00000010
00001000
00000010
00000100
00000000
00100000
01000000
00010000
01000000
,
00100000
00000000
00001000
00000100
00000010
00000100
00001000
00000000
00010000
00100000
01000000
00100000
10010000
00000000
00000000
00000000
,
11000000
00000000
10000000
00000000
01000000
00000000
10010000
01000000
00010000
10000000
01000000
00000000
00110000
01000000
10000000
01000000
,
00000010
00000000
00000000
00000000
00001010
00000000
00000000
00000000
00000001
00000000
00000000
00000000
00001000
00000000
00000001
00000000
00000110
00000000
00000001
00000000
00001000
00000000
00000000
00000000
00001001
00000000
00000010
00000000
00001000
00000000
00000010
00001000
,
01000001
00000000
00010000
00000000
00100000
00000000
11000000
00100000
01000000
00010000
00100000
00000000
00110000
01000000
00100000
10000000
,
01000100
00000000
00000000
00000000
00000101
00000000
00000000
00000000
00001000
00000000
00000000
00000000
00000010
00000000
00000100
00000000
00001010
00000000
00000001
00000000
00000010
00000000
00000000
00000000
00000110
00000000
00000001
00000000
00000100
00000001
00001000
00000010
,
01000001
00000000
01000000
00000000
10000000
00000000
00100000
01000000
00010000
10000000
00100000
00000000
01000000
00100000
10000000
00010000
,
00000100
00000000
00000100
00000000
00000001
00000000
00001000
00000010
00001000
00000100
00001000
00000000
00000001
00000010
00000001
00000100
,
10000001
00000000
00010000
00000000
10000000
00000000
00100000
10000000
01000000
10000000
00100000
00000000
01000000
00010000
00100000
00010000
,
00000100
00000000
00000000
00000000
00000100
00000000
00000000
00000000
00000010
00000000
00000000
00000000
00001000
00000000
00000100
00000000
00001000
00000000
00000100
00000000
00001000
00000000
00000000
00000000
00000001
00000000
00000010
00000000
00000001
00000100
00000010
00000000
,
10000001
00000000
00000000
00000100
00000000
00000000
00010000
00000000
00000000
01000000
00000000
00000000
01000000
00000000
00000000
00000010
00000000
00000000
00001000
00000000
00000000
00100000
00000000
00000000
10000000
00000000
00000000
10000000
00000000
00000000
00000100
00000000
,
00000000
00010000
00000000
00000000
01000000
00000000
00000000
10000000
00000000
00000000
00000000
00000000
00000001
00000000
00000000
00000000
00000010
00000000
00000000
00000000
00000100
00000000
00000000
00000000
00001000
00000000
00000000
00000000
00000001
00000000
01000000
00000000
,
10000000
00010000
00100000
00000100
00001000
00000010
00000000
00000000
00011000
00000000
00011000
00000000
10000001
00000000
00000000
00000000
,
10000000
01000000
00100000
00010000
00001000
00000100
00000010
00000001
10000000
01000000
00100000
00010000
00001000
00000100
00000010
00000001
,
00000001
00000010
00000100
00001000
00010000
00100000
01000000
10000000
00000001
00000010
00000100
00001000
00010000
00100000
01000000
10000000
,
10000000
00100000
01000000
00010000
00100000
00001000
00010000
00000100
00001000
00000100
00010000
00001000
00100000
00010000
01000000
00100000
,
10000001
00000100
00000010
00001000
00000100
00010000
00001000
00100000
00010000
00100000
00001000
00010000
00000100
00001000
00000010
00000100
,
00000001
00000010
00000100
00001000
00010000
00100000
01000000
10000000
00000001
00000010
00000100
00001000
00010000
00100000
01000000
10000000
,
10000000
01000000
00100000
00010000
00001000
00000100
00000010
00000001
10000000
01000000
00100000
00010000
00001000
00000100
00000010
00000001
,
10000000
00010000
01000000
00001000
00100000
00000100
00010000
00000010
00001000
00000010
00010000
00000100
00100000
00001000
01000000
00010000
,
10000001
00001000
00000010
00010000
00000100
00100000
00001000
01000000
00010000
01000000
00001000
00100000
00000100
00010000
00000010
00001000
,
10000001
00000010
01000100
00001000
00100001
00000010
10000100
01001000
10000001
01000010
00010100
00001000
01000001
00000010
00100100
00001000
,
10101000
00000100
10000010
01000001
00101000
00000100
10010010
00000001
01011000
00000100
01000010
00100001
00011000
00010100
01100010
00000001
,
11000001
00000010
01000100
10001000
00110001
00000010
00100100
00101000
01010001
00000010
00010100
00101000
10010001
00000010
01000100
00101000
,
01011000
00000000
00010100
00000000
10000010
00000000
00000001
00000000
00011000
00000000
00000100
00000000
10000010
00000000
00000001
00000000
10011000
01000000
00100100
00010000
01000010
00000000
00100001
00000000
01001000
00000000
00000100
00000000
11000010
00000000
01000001
00000000
,
00110001
00000010
10000100
00001000
00010001
00000010
01000100
00001000
00100001
01000010
10000100
01001000
00100001
00000010
00010100
00001000
,
11001000
00100100
00010010
00000001
10011000
00100100
01000010
00000001
10101000
00010100
11000010
10000001
10101000
00010100
10000010
00000001
,
01100001
00000010
01000100
00001000
10010001
00000010
01000100
01001000
10100001
00000010
01000100
00001000
00110001
00000010
01000100
00001000
,
01011000
00010100
00100010
01000001
10001000
01000100
00100010
01000001
00101000
00010100
00100010
00010001
00101000
01000100
00100010
01000001
,
10000001
00000000
01001000
00100010
01000100
00100001
10000010
00000001
00100010
01000001
00100100
01000010
00011000
00000100
00101000
01000000
,
00100000
00000000
00000000
00000000
00100000
00000100
00100000
00000100
00100000
00000100
00100000
00000100
00100000
00000100
00100000
00000010
00010000
00000000
00000000
00000000
00000000
00000000
00000000
00000000
00000000
00000000
00000000
00000000
00000000
00000000
00000000
00000000
,
20000002
00000000
00000000
00000000
30000003
00000000
00100010
01000100
10001000
00000000
10000100
00000000
01000010
00000000
00100001
00000000
,
00010012
00000000
01000003
00000000
10000120
00000000
01000030
00000000
00101200
00000000
00010300
00000000
10002001
00000000
01003000
00100000
,
00020220
00000000
00000000
00000000
00030330
00000000
10000100
01000010
00100001
00000000
00010010
00000000
00100100
00000000
01001000
00000000
,
21000001
00000000
30000100
00000000
02011000
00000000
03000100
00000000
00210010
00000000
00300001
00000000
10021000
00000000
00030001
00000010
,
02200200
00000000
00000000
00000000
03300300
00000000
01000010
00100100
00011000
00000000
10000001
00000000
01000010
00000000
10000001
00000000
,
01200110
00300000
01020101
00030000
20101010
30000000
12001100
03000000
,
01010101
00000000
01000010
10001000
00120001
00000000
00130010
00000000
01200100
00000000
10301000
00000000
12000100
00000000
03100010
00000000
,
20010001
00000000
00000000
00000000
31100010
00000000
00000000
00000000
00120100
00000000
00000000
00000000
00000000
00000000
00000000
00000000
01030001
00000000
00000000
00000000
00000000
00000000
00000000
00000000
00000000
00000000
00000000
00000000
00000000
10000000
01000000
00100000
,
10010001
00000000
01000100
00000000
00100010
00000000
00100010
00000000
01000100
00010000
00100010
00000000
01100010
00000000
11000100
00000000
,
00100010
00000000
10001000
00000000
01000100
00000000
00100010
00000000
00010001
10000000
00100010
00000000
11000100
00000000
10001000
00000000
,
01010100
00000000
00100010
00000000
10001000
00000000
01000100
00000000
00100010
00010000
10001000
00000000
01000100
00000000
00100010
00000000
,
11001000
00000000
11000100
00000000
01100010
00000000
00110001
00000000
01010001
10000000
01100010
00000000
11000100
00000000
01010100
00000000
,
10010001
00000000
00100010
00000000
01000100
00000000
01000100
00000000
00100010
10000000
01000100
00000000
01100100
00000000
00110010
00000000
,
01000100
00000000
00010001
00000000
00100010
00000000
01000100
00000000
10001000
00010000
01000100
00000000
00110010
00000000
00010001
00000000
,
10100010
00000000
10001000
00000000
00010100
00000000
00100010
10000000
01001000
10000000
00010100
00000000
00100010
10000000
01001000
10000000
,
00110100
00000000
00011000
10000000
01100100
00010000
10000010
00000000
10100001
00010000
01000010
10000000
00110001
00000000
10000010
00000000
,
10010100
00001000
10100001
00000010
01000100
00001000
01010001
00100010
01000100
00101000
10000001
00000010
00100100
01001000
00100001
01000010
,
00011000
00000010
00010100
00000001
00101000
00000010
10000100
01000001
10001000
00100010
10000100
00000001
01011000
00100010
10010100
01000001
,
00010100
00000010
01010001
00001000
10000100
00000010
00110001
10001000
00100100
01000010
00100001
00001000
01000100
00100010
01000001
00010100
,
01000010
00001000
01000001
00000100
00100010
00001000
10000001
01000100
00100010
00011000
00100001
00000100
00010010
00101000
01010001
10000100
,
01101000
00000100
10010010
00000001
00101000
00000100
01010010
10000001
00101000
01000100
00010010
00000001
10001000
00010100
01000010
00100001
,
10000001
00000010
10000100
00001000
00100001
00000010
01000100
00101000
10000001
01000010
00010100
00001000
00100001
01000010
00010100
00101000
,
11001000
00000100
10010010
00000001
00011000
00000100
01100010
10000001
00101000
01000100
00010010
00000001
00101000
00010100
01000010
00100001
,
10001000
00000010
10100100
00000001
00111000
00000010
11000100
00000001
00011000
00100010
01000100
10000001
00011000
00100010
01000100
10000001
,
11001000
00001000
01000100
00000100
01100010
00000010
00010001
00100001
10001000
00101000
01010100
00000100
00100010
01000010
00010001
01000001
,
10101000
00001000
01000010
00000010
01100100
00000100
00010001
01000001
10001000
01001000
00110010
00000010
10000100
00010100
01000001
00010001
,
10101000
00001000
01000100
00000100
01100010
00000010
00010001
00100001
10000010
00100010
01010100
00000100
00101000
01001000
00010100
01000100
,
10101000
00001000
01000100
00000100
01100010
00000010
00010100
01000100
10000010
01000010
00110001
00000001
00100010
00010010
01000100
00010100
,
10101000
00001000
01000010
00000010
01100100
00000100
00011000
01001000
10000001
00100001
01010010
00000010
00100100
01000100
00011000
01001000
,
10010100
00000100
01000010
00000010
01100001
00000001
00010010
00100010
10000100
01000100
00110010
00000010
10000100
00100100
01001000
10001000
,
01010001
00000001
00100010
00000010
01000100
00000100
10001000
01001000
00100100
01000100
10010010
00000010
00010001
00100001
01000010
00100010
,
10010100
00000100
01001000
00101000
10000100
00100100
01011000
00001000
00100100
01000100
00010010
01000010
20200001
00000001
00000010
00000010
,
00300100
00001000
00010000
00100000
01000000
00000001
00000010
00000100
00001000
00010000
00100000
01000000
00000001
00000010
00000100
00001000
,
30010000
00000000
00000000
00000000
;

//---------------dance-single - ----------------
#NOTES:
     dance-single:
     :
     Hard:
     11:
     1.000,1.000,1.000,0.459,0.485,672.000,147.000,53.000,0.000,3.000:
1000
0100
1000
0100
0010
0100
0010
0100
,
1000
0010
1000
0010
1000
0100
1000
0100
,
1000
0100
0001
0100
0001
0100
0010
0100
,
1000
0100
1000
0100
1000
0001
1000
0001
,
1000
0000
0100
0000
0020
0030
0100
0000
0020
0030
0100
0000
0020
0030
1000
0000
,
0020
0030
0001
0000
0020
0030
0001
0000
0020
0030
0100
0000
0020
0030
0100
0010
,
0001
0010
0100
1000
0010
0100
1000
0100
,
0010
0000
0100
1000
0100
0000
1000
0000
0001
0010
0100
1000
0001
0010
0100
1000
,
0100
1000
0010
0001
0100
1000
0010
0001
,
1000
0100
0010
0001
0010
0100
1000
0010
,
0100
1000
0010
0001
0100
1000
0010
0001
,
1000
0100
0010
0001
0010
0100
0010
0001
,
0100
1000
0010
0001
0100
1000
0010
0001
,
1000
0100
0010
0001
0010
0100
1000
0010
,
2200
0000
0000
0000
,
0000
0000
0000
0000
0000
0000
0000
3300
,
0110
0000
1000
0100
0010
0000
1000
0000
0100
0010
0001
0000
0100
0000
0000
0000
,
0000
2000
0000
0000
3100
0000
0000
0000
,
1100
0000
0010
0000
1000
0000
0100
0000
0000
0010
0100
0010
0100
0000
0010
0000
,
1100
0000
1100
0000
0010
0000
0100
0000
0000
0010
0001
0000
0010
0000
0001
0000
,
1100
0000
1000
0100
0010
0100
0010
0000
0000
0010
1100
0000
1100
0000
0010
0000
,
0110
0000
0000
0000
0110
0000
0000
0000
0000
0000
0010
0000
0001
0000
0000
0000
0011
0000
0000
0000
0010
0000
0100
0000
1000
0000
0000
0000
0002
0003
0000
0000
,
0002
0003
0010
0000
0100
0000
0010
0000
1000
0000
0000
0000
0100
0000
0000
0000
0000
0000
0100
0000
0010
0000
0100
0000
0001
0000
0000
0000
0000
0000
0000
0000
,
1100
0000
1100
0000
0010
0000
0100
0000
0000
0010
0001
0000
0000
0000
1100
0000
,
1100
0000
1000
0010
1000
0010
0100
0000
0000
0100
0011
0000
0000
0000
1100
0000
,
1100
0000
0100
0000
0000
0000
0100
0000
0000
0000
0020
0030
0000
0000
0110
0000
,
1010
0000
1010
0000
0001
0000
1000
0100
0010
0100
0010
0000
1000
0100
1000
0100
,
0010
0000
0100
1000
0100
0010
0001
0000
0100
1000
0100
0010
0200
0000
0300
0000
,
1000
0100
0010
0100
0001
0000
1100
0000
0000
0000
1000
0100
0010
0000
0001
0000
,
1100
0000
1100
0000
0010
0100
0010
0000
0000
0100
0010
0000
0110
0000
0010
0000
,
1000
0100
1000
0000
0100
0000
0100
0000
0000
0100
0010
0000
0100
0000
1000
0000
,
1000
0000
0011
0000
0100
0000
1000
0000
0100
0000
1000
0100
0010
0000
0002
0000
,
0103
1000
0100
0000
0010
0000
1000
0000
0000
0100
0010
0000
0000
0000
0000
0000
,
1100
0000
1100
0000
0010
0000
0100
0000
0000
0010
0100
0000
0000
0000
0010
0100
,
1000
0000
1100
0000
0000
0000
0010
0000
0000
1000
0100
0000
0010
0000
0010
0000
,
0110
0000
0110
0000
0001
0000
0000
0000
0000
0000
0000
0200
0000
0000
1300
0000
,
1000
0000
0000
0000
0100
0000
0010
0000
0000
0100
0000
0000
0000
0000
0100
0000
0000
0000
0000
0000
1000
0000
0100
0000
0000
1000
0000
0000
0000
0000
0100
0000
,
0000
0000
0000
0000
0100
0000
1000
0000
0000
0010
0000
0000
0200
0000
0300
0000
1100
0000
0000
0000
0110
0000
0000
0000
1100
0000
0000
0000
0020
0000
0030
0000
,
0100
0010
0100
0010
0001
0010
0000
0000
1100
0000
1100
0000
0101
0000
0000
0000
,
1100
0000
0010
1100
0000
0110
0000
0110
,
1100
1100
0010
0101
0000
0100
0000
0100
,
2100
0000
3010
0210
0000
0310
0012
0100
,
0000
0013
1100
0010
0000
0100
1010
0000
,
0110
0000
0011
0100
0000
1100
0000
0110
,
0000
1000
0110
0000
1000
1000
0101
0000
,
2010
0000
3010
0201
0000
1300
0020
0000
,
0000
0032
0000
0003
0000
0010
0000
0010
,
1000
0000
1000
0000
0011
0000
0100
1000
0100
1000
0011
0000
0100
0010
0100
0010
,
1100
0200
0311
0200
1310
0110
0110
1100
,
0100
0100
0011
0110
0200
0000
0310
0000
,
0100
0000
0000
0010
0000
0000
0000
0000
0000
0000
0000
0000
0011
0000
0000
0000
0000
0000
0000
0000
0000
0000
0000
0000
2000
0000
0000
0000
0000
0000
3000
0000
0011
0000
0000
0000
0011
0000
0000
0000
0000
0000
1100
0000
0000
0000
0000
0000
,
0000
1100
0011
1100
0000
0010
0000
1000
,
0011
0000
0000
0000
0000
0000
0011
0000
0000
1100
0000
0000
0110
0000
0000
0100
0000
0010
0000
0100
0000
0000
0000
0000
,
1001
0000
0000
0000
0000
0000
0001
0000
0010
0000
0001
0000
0101
0000
0000
0000
0000
0000
1010
0000
0000
0100
0000
0000
,
1100
0000
1100
0000
0110
0000
0100
1000
0110
0000
0200
0000
0311
0000
1000
0000
,
1000
0000
0100
0010
0100
0000
0100
0010
0100
0000
1000
0100
0010
0000
0000
0000
,
0000
2000
0000
0000
0020
3000
0000
0030
,
0012
0000
0000
0000
0000
0000
1003
0100
0010
0000
0100
0000
0010
0000
0100
0000
,
0002
0000
0100
0000
0023
0000
1000
0000
0230
0000
0010
0000
2300
0000
0100
0010
,
3002
0000
0000
0000
0000
0000
1000
0100
0013
0000
0100
0000
1000
0000
0100
0000
,
0020
0000
0100
0000
0032
0000
0100
0000
0023
0000
0100
0000
2030
0000
0100
0010
,
3002
0000
0000
0000
0000
0000
0013
0100
1000
0000
0100
0000
0010
0000
0100
0000
,
0020
0230
2300
3200
,
0301
0000
1000
0100
0010
0000
0100
0000
0010
0000
0100
0000
1000
0000
0100
0000
,
2000
3100
0010
0000
0200
0000
0000
0300
,
1000
0100
0010
1000
0100
0010
1000
0100
,
0010
1000
0100
0010
1000
0200
0302
0013
,
1000
0100
0010
1000
0100
0010
1000
0100
,
0010
1000
0100
0010
0001
0010
0100
1000
,
1000
0100
0010
1000
0100
0010
1000
0100
,
0010
1000
0100
0010
1000
0100
0001
0010
,
0100
0000
0100
0000
0011
0000
1000
0100
1000
0000
0110
0000
0011
0000
0110
0000
,
0011
0010
1000
1000
0220
0000
0000
0330
,
1100
0000
1100
0000
0011
0000
0110
0000
0000
0100
0011
0000
0000
0100
0010
0000
,
1100
0000
1100
0000
0110
0000
1010
0000
0000
0100
0010
0000
0000
0000
0010
0000
,
1010
0000
1010
0000
0010
0000
1100
0000
0000
0010
0001
0000
0000
0000
0010
0000
,
0101
0000
0101
0000
0011
0000
1100
0000
0000
0100
1000
0100
0010
0000
0000
0000
,
1000
0100
1000
0100
0011
0000
1010
0000
0000
0000
0110
0000
0000
0000
0011
0000
,
1100
0000
1100
0000
0010
0000
1100
0000
0000
0100
0010
0000
0001
0000
0000
0000
,
1000
0100
0010
0100
0010
0000
1100
0000
0000
0100
0010
0000
0000
0000
0110
0000
,
0011
0000
0100
0000
0000
0000
0100
0000
0001
0010
0100
1000
0001
0010
0100
1000
,
0100
0000
0000
0000
0010
0000
1100
0000
0000
0010
0100
0000
0000
0010
0001
0000
,
0110
0000
0000
0000
0110
0000
0101
0000
0000
0000
1000
0100
0010
0000
0110
0000
,
1100
0000
0000
0010
0100
0010
0100
0000
0000
0000
1100
0000
1010
0000
0100
0000
,
0101
0000
0000
0100
1010
0000
0101
0000
0000
0000
0010
1000
0100
0000
0100
1000
,
0100
1000
0010
0000
1100
0000
0001
0000
0000
0000
0110
0000
1100
0000
0110
0000
,
1010
0000
1010
0000
0011
0000
0110
0000
0000
1000
0100
0010
1100
0000
0101
0000
,
1010
0000
0000
0000
0000
0000
0000
0000
0000
0100
0000
0000
1010
0000
0000
0000
0000
0000
0110
0000
0000
0000
0000
0000
0010
0000
0000
0000
0010
0000
0000
0000
0011
0000
0000
0000
0100
0000
0000
0000
0000
0000
1000
0000
0000
0100
0000
0000
,
1010
0000
0000
0000
0000
0000
0000
0000
0000
0000
0100
0000
0000
0000
0100
0000
0000
0000
0110
0000
0000
0000
0000
0000
0000
0000
0000
0010
0000
0000
0101
0000
0000
0000
0000
0000
0010
0000
0000
0000
0000
0000
0100
0000
0000
0000
0000
0000
;

//---------------dance-single - Copied from----------------
#NOTES:
     dance-single:
     Copied from:
     Challenge:
     12:
     1.000,1.000,1.000,0.502,0.623,713.000,233.000,58.000,0.000,9.000:
1000
0100
1000
0100
0010
0100
0010
0100
,
1000
0010
1000
0010
1000
0100
1000
0100
,
1000
0100
0001
0100
0001
0100
0010
0100
,
1000
0100
1000
0100
1000
0001
1000
0001
,
1000
0000
0100
0000
0022
0033
0100
0000
0022
0033
0100
0000
0022
0033
1000
0000
,
0220
0330
0001
0000
0220
0330
0001
0000
0022
0033
0100
0000
0022
0033
0100
0010
,
0001
0010
0100
1000
0010
0100
1000
0100
,
0010
0000
0100
1000
0100
0000
1000
0000
0001
0010
0100
1000
0001
0010
0100
1000
,
0100
1000
0010
0001
0100
1000
0010
0001
,
1000
0100
0010
0001
0010
0100
1000
0010
,
0100
1000
0010
0001
0100
1000
0010
0001
,
1000
0100
0010
0001
0010
0100
0010
0001
,
0100
1000
0010
0001
0100
1000
0010
0001
,
1000
0100
0010
0001
0010
0100
1000
0010
,
2200
0000
0000
0000
,
0000
0000
0000
0000
0000
0000
0000
3300
,
0110
0000
1000
0100
0010
0000
1000
0000
0100
0010
0001
0000
0100
0000
0000
0000
,
0000
0000
0000
0000
0001
0010
0100
1000
0001
0010
0100
1000
0001
0010
0100
1000
0100
0000
0000
0000
0000
0000
0000
0000
0000
0000
0000
0000
0000
0000
0000
0000
,
1100
0000
0010
0000
1000
0000
0100
0000
0000
0010
0101
0010
0100
0000
0010
0000
,
1100
0000
1100
0000
0010
0000
0100
0000
0000
0110
0001
0000
0010
0000
0001
0000
,
1100
0000
1000
0100
1010
0100
0110
0000
0000
0000
1100
0000
1100
0000
0010
0000
,
0110
0000
0000
0000
0110
0000
0000
0000
0000
0000
0010
0000
0011
0000
0000
0000
0011
0000
0000
0000
0010
0000
0110
0000
1000
0000
0000
0000
0022
0033
0000
0000
,
0022
0033
0010
0000
0110
0000
0010
0000
1000
0000
0000
0000
0100
0000
0000
0000
0000
0000
0100
0000
0010
0000
0100
0000
0001
0000
0000
0000
0000
0000
0000
0000
,
1100
0000
1100
0000
0010
0000
0100
0000
0000
0000
0001
0000
0000
0010
1100
0000
,
1100
0000
1000
0010
1100
0010
0100
0000
0000
0000
0011
0000
0000
0010
0101
0000
,
1100
0000
0100
0000
0000
1000
0100
0000
0000
0100
0110
0000
0000
0000
0110
0000
,
1010
0000
1010
0000
0011
0000
1010
0100
0011
0100
1001
0000
1010
0100
1000
0100
,
0011
0000
0100
1000
0101
0010
1001
0000
0110
1000
0100
0010
0200
0000
0300
0000
,
1000
0100
1010
0100
0001
0000
1100
0000
0000
0000
1000
0100
1010
0000
0001
0000
,
1100
0000
1100
0000
0010
0100
0011
0000
0000
0000
0110
0000
0110
0000
0010
0000
,
1010
0100
1000
0000
0100
0000
0100
0000
0000
0100
0011
0000
0100
0000
1000
0000
,
1000
0000
0000
0000
0011
0000
0000
0000
0100
0000
0000
0000
1000
0000
0000
0000
0100
0000
0000
0000
1000
0000
0100
0000
0010
0000
0000
0000
0001
0010
0100
0010
,
0100
1000
0100
0000
0010
0000
1000
0000
0000
0100
0011
0000
0000
0000
0000
0000
,
1100
0000
1100
0000
0010
0000
0100
0000
0000
0100
1100
0000
0000
0000
0010
0100
,
1100
0000
1100
0000
0000
0000
0010
0000
0000
1000
0110
0000
0010
0000
0010
0000
,
0110
0000
0110
0000
0001
0000
0000
0000
0000
0000
0000
0200
0000
0000
1300
0000
,
1000
0000
0000
0000
0110
0000
0011
0000
0000
0110
0000
0000
0000
0000
1010
0000
0000
0000
0000
0000
1100
0000
0110
0000
0000
1100
0000
0000
0000
0000
1001
0000
,
0000
0000
0000
0000
0100
0000
1000
0000
0000
0010
0000
0000
0200
0000
0300
0000
1100
0000
0000
0000
0110
0000
0000
0000
1100
0000
0000
0000
0020
0000
0030
0000
,
0100
0010
0100
0010
0001
0010
0000
0000
1100
0000
1100
0000
0101
0000
0000
0000
,
1100
0000
0010
1100
0000
0110
0000
0110
,
1000
0100
0010
0001
0010
0100
1000
0100
0010
0100
1000
0100
0010
0000
0100
0000
,
2100
0000
3010
0210
0000
0310
0012
0100
,
0000
0000
0013
0000
1100
0000
0010
0000
0000
0000
0100
0000
1000
0100
0010
0001
,
0010
0100
1000
0100
0010
0000
0100
0000
0000
0000
1100
0000
0000
0000
0110
0000
,
0000
1000
0110
0000
1000
1000
0101
0000
,
2010
0000
3010
0201
0000
0310
0021
0000
,
0000
0032
0000
0003
0000
0010
0000
0010
,
1000
0000
1000
0000
0011
0000
0110
1000
0100
1000
0011
0000
0101
0010
0100
0010
,
1100
0200
0311
0200
1310
0110
0110
1100
,
1010
1010
0011
0110
0200
0000
0310
0000
,
0100
0000
0000
0010
0000
0000
0000
0000
0000
0000
0000
0000
0011
0000
0000
0000
0000
0000
0000
0000
0000
0000
0000
0000
2000
0000
0000
0000
0000
0000
3000
0000
0011
0000
0000
0000
0011
0000
0000
0000
0000
0000
1100
0000
0000
0000
0000
0000
,
0000
1100
0011
1100
0000
0010
0000
1000
,
0011
0000
0000
0000
0000
0000
0011
0000
0000
1100
0000
0000
0110
0000
0000
1100
0000
1100
0000
1100
0000
0000
0000
0000
,
1001
0000
0000
0000
0000
0000
0101
0000
0101
0000
0101
0000
0011
0000
0000
0000
0000
0000
1010
0000
0000
0100
0000
0000
,
1100
0000
1100
0000
0110
0000
0100
1000
0110
0000
0200
0000
0311
0000
0000
0000
,
1000
0000
0100
1000
0100
0000
0100
1000
0100
0000
1000
0100
0010
0000
0000
0000
,
0000
0000
0000
0000
1000
0100
0010
0001
1000
0100
0010
0001
1000
0100
0010
0001
0220
0000
0000
0000
0000
0000
0000
0000
0000
0000
0000
0000
0330
0000
0000
0000
,
0012
0000
0000
0000
0000
0000
1003
0100
0010
0000
0100
0000
0010
0000
0100
0000
,
0012
0000
0100
0000
0123
0000
1000
0000
1230
0000
0010
0000
2310
0000
0100
0010
,
3002
0000
0000
0000
0000
0000
1000
0100
0013
0000
0100
0000
1000
0000
0100
0000
,
0021
0000
0100
0000
1230
0000
0010
0000
2310
0000
0100
0000
3120
0000
1000
0100
,
0032
0000
0000
0000
0000
0000
0013
0100
1000
0000
0100
0000
0010
0000
0100
0000
,
0020
0230
2300
3200
,
0301
0000
1000
0100
0010
0000
0100
0000
0010
0000
0100
0000
1000
0000
0100
0000
,
1000
0100
0010
0000
0200
0000
0000
0300
,
1000
0100
0010
1000
0100
0010
1000
0100
,
0010
1000
0100
0010
1000
0200
0302
0013
,
1000
0100
0010
1000
0100
0010
1000
0100
,
0010
1000
0100
0010
0001
0010
0100
1000
,
1000
0100
0010
1000
0100
0010
1000
0100
,
0010
1000
0100
0010
1000
0100
0001
0010
,
0100
0000
0100
0000
0011
0000
1000
0100
1000
0000
0110
0000
0011
0000
0110
0000
,
0011
0010
1000
1000
0220
0000
0000
0330
,
1100
0000
1100
0000
0011
0000
0110
0000
0000
0100
0011
0000
0000
0100
1010
0000
,
1100
1100
0110
1010
0000
0011
0000
0010
,
1010
0000
1010
0000
0010
0000
1100
0000
0000
0010
0110
0000
0000
0000
0010
0000
,
0101
0000
0101
0000
0011
0000
1100
0000
0000
0100
1000
0100
0010
0000
0000
0000
,
1000
0100
1010
0100
0011
0000
1010
0000
0000
0010
0110
0000
0000
0000
0011
0000
,
1100
0000
1100
0000
0010
0000
1100
0000
0000
0100
0011
0100
0001
0000
0000
0000
,
1010
0100
0010
0100
0011
0000
1100
0000
0000
0100
0010
0000
0000
0000
0110
0000
,
0011
0000
0100
0000
0000
0000
0100
0000
0001
0010
0100
0010
0100
1000
0010
0100
,
1010
0000
0000
0000
0011
0000
0110
0000
0000
0110
1010
0000
0000
0100
0110
0000
,
1100
0000
0000
0000
0011
0000
0110
0000
0000
1010
0100
0010
0101
0000
0110
0000
,
1100
0000
0110
1000
0011
0000
0100
0000
0000
0000
0110
0000
0000
1000
0100
0000
,
0010
0000
0000
0000
1100
0000
0110
0000
1010
0100
1010
0100
0011
0000
1100
0000
,
0110
1000
0101
0000
0011
0000
1100
0000
0000
0010
1100
0010
0101
0000
1010
0000
,
0110
0110
1001
1100
1100
0110
0110
0011
,
1100
0000
0000
0000
0000
0000
0000
0000
0000
0100
0000
0000
1010
0000
0000
0000
0000
0000
0110
0000
0000
0000
0000
0000
0011
0000
0000
0000
0011
0000
0000
0000
0011
0000
0000
0000
0100
0000
0000
0000
0000
0000
1000
0000
0000
0100
0000
0000
,
1010
0000
0000
0000
0000
0000
0000
0000
0000
0000
0110
0000
0000
0000
0110
0000
0000
0000
0110
0000
0000
0000
0000
0000
0000
0000
0000
0010
0000
0000
0101
0000
0000
0000
0000
0000
1000
0000
0000
0000
0000
0000
0100
0000
0000
0000
0000
0000
;
