#TITLE:Corcovado;
#SUBTITLE:(Ti-Mo Remix Edit);
#ARTIST:Ray Knox feat. Nightcore;
#TITLETRANSLIT:;
#SUBTITLETRANSLIT:;
#ARTISTTRANSLIT:;
#CREDIT:owenviau1;
#BANNER:../owenviau1 Simfiles 5-bn.png;
#BACKGROUND:../owenviau1 Simfiles 5-bg.png;
#LYRICSPATH:;
#CDTITLE:../ov1_title.png;
#MUSIC:Nightcore - Corcovado.mp3;
#OFFSET:-0.186;
#SAMPLESTART:81.782;
#SAMPLELENGTH:29.999;
#SELECTABLE:YES;
#DISPLAYBPM:178.250;
#BPMS:0.000=172.259,1.000=166.416,2.000=178.505,3.000=172.259,4.000=167.950,5.000=172.259,6.000=172.249,8.000=172.259,10.000=172.249,17.000=172.259,19.000=167.053,20.000=172.259,21.000=172.249,23.000=163.841,24.000=172.259,27.000=172.249,33.000=172.259,34.000=172.249,35.000=188.729,36.000=172.249,37.000=172.259,38.000=172.249,41.000=172.259,42.000=172.249,43.000=172.259,44.000=172.249,49.000=172.259,50.000=172.249,51.000=172.259,52.000=172.249,57.000=172.259,58.000=172.249,59.000=172.259,60.000=172.249,66.000=172.259,67.000=171.092,68.000=172.249,71.000=172.259,72.000=172.002,73.000=172.249,74.000=172.259,75.000=172.249,78.000=172.259,79.000=172.249,82.000=172.259,83.000=172.249,86.000=172.259,87.000=172.249,90.000=172.259,91.000=172.249,94.000=172.259,95.000=172.249,98.000=172.259,99.000=172.249,102.000=172.259,103.000=172.249,106.000=172.259,107.000=172.249,110.000=172.259,111.000=172.249,114.000=172.259,115.000=172.249,118.000=172.259,119.000=172.249,122.000=172.259,123.000=172.249,129.000=172.259,130.000=172.249,133.000=156.863,134.000=172.249,140.000=172.259,141.000=172.249,195.000=183.264,196.000=172.249,202.000=172.259,203.000=172.249,231.000=170.022,232.000=172.249,238.000=172.259,239.000=172.249,301.000=172.259,302.000=172.249,323.000=168.401,324.000=172.249,337.000=172.259,338.000=172.249,355.000=170.646,356.000=172.249,369.000=172.259,370.000=172.249,386.000=166.937,387.000=172.249,400.000=172.259,401.000=172.249,456.000=172.259,457.000=172.249,513.000=172.259,514.000=172.249;
#STOPS:;
#BGCHANGES:;
// cache tags:
#FIRSTBEAT:4.000;
#LASTBEAT:523.000;
#SONGFILENAME:Songs/owenviau1 Simfiles 5/Corcovado - [owenviau1] v1.4/Corcovado.sm;
#HASMUSIC:1;
#HASBANNER:1;
#MUSICLENGTH:183.197;
// end cache tags

//---------------dance-single - ----------------
#NOTES:
     dance-single:
     :
     Hard:
     9:
     0.799,0.892,0.136,0.562,0.030,897.000,25.000,103.000,20.000,1.000:
0000
0000
0000
0000
,
MMM2
0000
0000
0000
,
0203
0000
0320
0000
,
2030
0000
0000
0000
,
3020
0000
0230
0000
,
0302
0000
0000
0000
0000
0000
0023
2030
,
3M02
0000
0023
0000
023M
0000
2300
3002
,
00M0
0203
0000
0000
0000
0000
0000
0000
,
2300
0000
3200
0000
,
13M1
0000
0020
0000
2030
0000
3200
0000
0320
0000
0030
00M0
2000
0000
3002
0000
,
0203
0000
0300
0M00
0020
0000
2030
0000
3002
0000
0023
0000
0230
0000
0300
0M00
,
0000
2000
3020
2030
3002
0003
0020
0230
,
2300
3000
0002
2003
3200
0302
0023
0000
,
0031
0000
0100
0000
0010
0000
1000
0000
0001
0000
0010
0000
0100
0000
1000
0001
,
1000
0000
0010
0000
0100
0000
0001
0000
1000
0000
0100
0000
0010
0000
0001
0100
,
0001
0000
0010
0000
0100
0000
1000
0000
0100
0000
0010
0001
0010
0000
0100
0000
,
0010
0000
1000
0000
0100
0000
0010
0001
0010
0000
0100
1000
0100
0000
0010
0000
,
1001
0001
1000
0010
0100
0001
1000
0001
,
0010
0001
0100
0010
1000
0100
1000
0010
,
0100
0001
0010
0100
1000
0010
1000
0001
,
0100
0001
1000
0100
0010
0001
0010
0100
,
1000
0001
0100
0010
1000
0001
0100
0001
,
1000
0010
0100
0010
1000
0100
0010
0001
,
0100
0001
1000
0100
1000
0010
1000
0001
,
0100
0001
0010
0100
1000
0001
0000
0001
,
1001
1000
0001
0010
0100
1000
0001
1000
,
0100
0010
0001
1000
0001
0100
0010
1000
,
0100
1000
0010
0100
0001
0010
0001
1000
,
0010
0100
0001
0010
0100
1000
0001
1000
,
0010
0100
0010
1000
0100
0010
0001
0100
,
0001
1000
0100
0010
0001
0010
0100
1000
,
0010
1000
0001
0100
0001
1000
0100
0010
,
0002
0000
0203
0000
0320
0000
2030
3002
,
0103
0010
0000
0100
1000
0001
0000
0001
,
0100
0010
1000
0010
0100
0001
1000
0001
,
0010
0100
0000
1000
0001
0010
0000
0100
,
1000
0100
0010
0001
0100
00M0
1000
0010
,
0100
0001
0000
1000
0100
0001
0000
0001
,
0100
1000
0010
0100
0001
0010
0001
0100
,
0010
1000
0000
0001
0100
0010
0000
1000
,
0100
0010
0001
1000
0010
0M00
0001
1000
,
0010
1000
0000
0010
1000
0001
0000
0010
,
0100
0001
1000
0010
0100
0001
1000
0001
,
0010
0100
0000
1000
0001
0010
0000
0100
,
1000
0100
0010
0001
0100
00M0
1000
0010
,
0100
0001
0000
1000
0010
0100
0000
0001
,
0100
1000
0010
0100
0001
0010
0001
0100
,
0010
1000
0000
0001
0100
0010
0000
1000
,
0100
0010
0001
1000
0010
0M00
0001
1000
,
1001
1010
0110
0011
,
1100
0000
0110
0000
1001
0000
0010
0100
,
0001
1010
0110
0011
,
0110
0000
1001
0000
1010
0000
0001
0010
,
0100
1000
0001
0010
0100
1000
0010
0100
,
0001
0010
0001
1000
0001
0100
0010
1000
,
0100
1000
0010
0100
0001
1000
0100
0010
,
0002
0000
0203
0000
0320
0000
2030
3002
,
1003
0100
0010
0001
0100
0001
1000
0001
,
1001
1000
0001
0010
1000
0100
0010
0001
,
0100
0001
1000
0010
1000
0100
1000
0010
,
0100
0001
0010
0001
1000
0010
0100
0010
,
1000
0001
1000
0010
1000
0100
0010
0001
,
0100
0001
0010
0100
1000
0010
1000
0001
,
0100
0001
0010
0100
1000
0100
0010
0001
,
0100
0001
1000
0001
0100
0010
1000
0001
,
1001
1000
0001
0100
1000
0010
0100
0001
,
1000
0001
0100
0001
0010
0100
1000
0010
,
1000
0100
0010
0001
0100
0001
1000
0010
,
0100
0001
0010
0100
1000
0010
0100
0001
,
1000
0001
0010
0001
0100
0010
1000
0100
,
1000
0001
0100
0001
0010
0100
1000
0010
,
1000
0001
0100
0010
0100
0001
1000
0010
,
0100
0010
1000
0001
0100
0010
1000
0100
,
0110
0001
1000
0001
0010
0001
0100
0010
,
1000
0100
1000
0001
0010
0001
1000
0010
,
0100
0001
1000
0001
0010
0100
1000
0010
,
0100
0001
1000
0001
0010
0001
0100
0010
,
1000
0100
1000
0001
0100
0010
1000
0100
,
0010
0001
0100
0001
1000
0100
0010
0001
,
0100
0001
0010
0100
1000
0010
1000
0001
,
0100
0001
0010
0001
1000
0010
0100
0001
,
1001
1000
0001
0010
0100
0001
1000
0001
,
0010
0001
0100
0010
1000
0100
1000
0010
,
0100
0001
0010
0100
1000
0010
1000
0001
,
0100
0001
1000
0100
0010
0001
0010
0100
,
1000
0001
0100
0010
1000
0001
0100
0001
,
1000
0010
0100
0010
1000
0100
0010
0001
,
0100
0001
1000
0100
1000
0010
1000
0001
,
0100
0001
0010
0100
1000
0001
0000
0001
,
1001
0000
0020
0000
2030
0000
3200
0000
0320
0000
0030
00M0
2000
0000
3002
0000
,
0203
0000
0300
0M00
0020
0000
2030
0000
3002
0000
0023
0000
0230
0000
0300
0M00
,
0000
2000
3020
2030
3002
0003
0020
0230
,
2300
3000
0002
2003
3020
0230
0302
0000
,
0003
0000
0000
0200
0000
0300
0020
2030
,
3M02
0000
0023
0000
023M
0000
2300
3002
,
00M0
0203
0000
0300
0000
0000
2000
3200
,
0320
0000
0032
0000
2003
0000
3020
0230
,
0301
1000
0001
0010
0100
1000
0001
0100
,
0010
1000
0100
1000
0001
0100
0001
0010
,
0100
1000
0001
0100
0010
1000
0100
1000
,
0010
0100
0001
1000
0001
0100
0001
0010
,
0100
1000
0000
0100
1000
0001
0000
1000
,
0001
0010
0000
0001
1000
0100
0000
0010
,
0001
1000
0001
0100
1000
0001
0100
0010
,
2000
0000
0002
3003
2000
3000
0002
0003
,
0100
0010
0001
1000
0000
0100
0004
1003
,
1001
0010
0001
0010
1000
0100
0010
0001
,
0100
0001
1000
0010
1000
0100
1000
0010
,
0100
0001
0010
0001
1000
0010
0100
0010
,
1000
0001
1000
0010
1000
0100
0010
0001
,
0100
0001
0010
0100
1000
0010
1000
0001
,
0100
0001
0010
0100
1000
0100
0010
0001
,
0100
0001
1000
0001
0100
0010
1000
0001
,
1001
1000
0001
0100
1000
0010
0100
0001
,
1000
0001
0100
0001
0010
0100
1000
0010
,
1000
0100
0010
0001
0100
0001
1000
0010
,
0100
0001
0010
0100
1000
0010
0100
0001
,
1000
0001
0010
0001
0100
0010
1000
0100
,
1000
0001
0100
0001
0010
0100
1000
0010
,
1000
0001
0100
0010
0100
0001
1000
0010
,
0100
0010
1000
0001
0100
0010
1000
0100
,
0110
0001
1000
0001
0010
0001
0100
0010
,
1000
0100
1000
0001
0010
0001
1000
0010
,
0100
0001
1000
0001
0010
0100
1000
0010
,
0100
0001
1000
0001
0010
0001
0100
0010
,
1000
0100
1000
0001
0100
0010
1000
0100
,
0010
0001
0100
0001
1000
0100
0010
0001
,
0100
0001
0010
0100
0000
1000
0002
0203
,
0320
0000
2030
0000
3002
0000
0023
0230
,
0300
2000
0000
0000
0000
0000
0000
0000
,
0000
0000
0000
3000
,
0000
0000
0000
0000
;

//---------------dance-single - ----------------
#NOTES:
     dance-single:
     :
     Challenge:
     11:
     1.000,0.999,1.000,0.573,0.161,946.000,324.000,105.000,25.000,4.000:
0000
0000
0000
0000
,
MMM2
0000
0000
0000
,
0203
0000
0320
0000
,
2030
0000
0000
0000
,
3020
0000
0230
0000
,
0302
0000
0000
0000
0000
0000
0023
2030
,
3M02
0000
0023
0000
023M
0000
2300
3002
,
00M0
0203
0000
0000
0000
0000
0000
0000
,
2300
0000
3200
0000
,
13M1
0000
0020
0000
2030
0000
3200
0000
0320
0000
0030
00M0
2000
0000
3002
0000
,
0203
0000
0300
0M00
0020
0000
2030
0000
3002
0000
0023
0000
0230
0000
0300
0M00
,
0000
2000
3020
2030
3002
0003
0020
0230
,
2300
3000
0002
2003
3200
0302
0023
0000
,
1031
0000
0000
0100
0000
0000
0011
0000
0000
1000
0000
0000
0101
0000
0000
0010
0000
0000
1100
0000
0000
0001
1000
0001
,
1000
0000
0000
0010
0000
0000
0101
0000
0000
1000
0000
0000
0011
0000
0000
1000
0000
0000
1010
0000
0000
0001
0100
0001
,
0100
0000
0001
0000
1010
0000
0100
0000
1001
0000
0010
0100
0010
0000
0001
0000
,
1010
0000
0100
0000
0101
0000
0010
1000
0001
0000
0010
0100
1000
0000
0001
0000
,
1010
0001
0110
1000
0011
0100
1100
0010
,
1001
0100
0110
0001
0101
1000
0011
0001
,
1100
0001
1010
1000
0101
0010
1010
0001
,
1100
1000
0011
0100
1001
0001
0110
1000
,
0101
0010
1100
0001
1010
0001
1100
1000
,
0011
0001
0110
1000
1001
0010
0101
0010
,
1001
0100
1100
0001
0110
1000
0101
0010
,
1001
0100
0110
0001
1001
0110
M00M
0100
,
1001
0100
0011
1000
1100
0001
0110
1000
,
1001
0100
0011
1000
0101
0010
1001
0100
,
0110
0001
1100
0001
0110
1000
1001
0100
,
0011
1000
0101
0010
1001
0100
0110
0001
,
1100
0010
0101
1000
0011
0001
1100
0010
,
1001
0100
0110
0001
1010
1000
0101
0010
,
1100
0001
0110
0100
1001
0010
1100
0010
,
0002
0000
0203
0000
0320
0000
2030
3002
,
0103
0010
0000
0100
1000
0001
0000
0001
,
0100
0010
1000
0010
0100
0001
1000
0001
,
0010
0100
0000
1000
0001
0010
0000
0100
,
1000
0100
0010
0001
0100
00M0
1000
0010
,
0100
0001
0000
1000
0100
0001
0000
0001
,
0100
1000
0010
0100
0001
0010
0001
0100
,
0010
1000
0000
0001
0100
0010
0000
1000
,
0100
0010
0001
1000
0010
0M00
0001
1000
,
0010
1000
0000
0010
1000
0001
0000
0010
,
0100
0001
1000
0010
0100
0001
1000
0001
,
0010
0100
0000
1000
0001
0010
0000
0100
,
1000
0100
0010
0001
0100
00M0
1000
0010
,
0100
0001
0000
1000
0010
0100
0000
0001
,
0100
1000
0010
0100
0001
0010
0001
0100
,
0010
1000
0000
0001
0100
0010
0000
1000
,
0100
0010
0001
1000
0010
0M00
0001
1000
,
1001
1010
0110
0011
,
1100
0000
0110
0000
1001
0000
1100
0100
,
0011
1010
0110
0011
,
0110
0000
1001
0000
1010
0000
0011
0100
,
1000
0000
0100
0010
0001
0000
1000
0000
0010
0000
0100
0001
0010
0000
0100
0000
,
1000
0000
0001
1000
0010
0000
0100
0000
0001
0000
1000
0100
0010
0000
0001
0010
,
0100
0000
1000
0001
0010
0000
0100
0000
1000
0001
1000
0100
0010
0000
0100
1000
,
0002
0000
0203
0000
0320
0000
2030
3002
,
1103
0110
0011
1001
0110
0001
1000
0110
,
1001
0000
0100
0000
0110
0000
0001
0000
1100
0000
0001
0000
0110
0000
0001
1000
,
0110
0100
1001
0010
0101
0010
1010
0100
,
1001
0010
0101
1000
0011
0100
0110
1000
,
1001
0000
0100
0010
1010
0000
0010
0000
0101
0000
0001
0000
1010
0000
1000
0000
,
0110
0000
0001
0000
1001
0000
0100
0000
1010
0000
0100
0000
0011
0000
0100
0001
,
1000
0010
1100
0001
0110
1000
1001
0100
,
0011
1000
0110
0001
1000
0110
0101
1000
,
1001
0000
0010
0100
1001
0000
1000
0000
0110
0000
0001
0000
1100
0000
0001
0000
,
0110
0000
0010
0000
1001
0000
0100
0000
1010
0000
1000
0000
0101
0000
0001
1000
,
0110
0100
1001
0010
0101
0010
1010
0100
,
1001
0010
0101
1000
0011
0100
0110
1000
,
1001
0000
0100
0010
1010
0000
0010
0000
0101
0000
0001
0000
1010
0000
1000
0000
,
0110
0000
0001
0000
1001
0000
0100
0000
1010
0000
0100
0000
0011
0000
0100
0001
,
1010
0001
1100
0001
0110
1000
1001
0100
,
0011
1000
0110
0001
1100
0010
0101
1000
,
1001
0000
0001
1000
1010
0000
0100
0000
1001
0000
0010
0000
0101
0000
0010
0000
,
1010
0100
1001
0010
0101
1000
0011
0100
,
1010
0000
0001
0100
1001
0000
0100
0000
1010
0000
0001
0000
0110
0000
1000
0000
,
0110
0001
1001
0100
1010
0100
0011
1000
,
0101
0000
0010
0100
1001
0000
0010
0000
1100
0000
0001
0000
0110
0000
1000
0000
,
1001
0100
0011
1000
0110
0001
1001
0010
,
0101
0000
1000
0001
0110
0000
0010
0000
1001
0000
0100
0000
0011
0000
1000
0000
,
1100
0010
1001
0100
0110
1000
0101
1010
,
1001
0010
0110
1000
0011
0100
1100
0010
,
1001
0100
0110
0001
0101
1000
0011
0001
,
1100
0001
1010
1000
0101
0010
1010
0001
,
1100
1000
0011
0100
1001
0001
0110
1000
,
0101
0010
1100
0001
1010
0001
1100
1000
,
0011
0001
0110
1000
1001
0010
0101
0010
,
1001
0100
1100
0001
0110
1000
0101
0010
,
1001
0000
0100
0010
000M
0000
0001
0000
1000
0000
0100
0010
000M
0000
0100
0000
,
1001
0000
0020
0000
2030
0000
3200
0000
0320
0000
0030
00M0
2000
0000
3002
0000
,
0203
0000
0300
0M00
0020
0000
2030
0000
3002
0000
0023
0000
0230
0000
0300
0M00
,
0000
2000
3020
2030
3002
0003
0020
0230
,
2300
3000
0002
2003
3020
0230
0302
0000
,
0003
0000
0000
0200
0000
0300
0020
2030
,
3M02
0000
0023
0000
023M
0000
2300
3002
,
00M0
0203
0000
0300
0000
0000
2000
3200
,
0320
0000
0032
0000
2003
0000
3020
0230
,
13M1
0100
0011
0000
0110
1000
0101
0000
,
1001
0100
0011
1000
1010
0100
0101
1000
,
0110
0001
1100
1000
0011
0100
1010
0100
,
1001
0110
0101
1001
0110
1001
0011
0110
,
1000
0000
0010
0000
0001
0010
0100
0000
1000
0000
0001
0000
0100
0010
1000
0000
,
0001
0000
0010
0000
1000
0001
0010
0000
1000
0000
0100
0000
0001
0010
0100
0000
,
1001
0010
0100
1000
0001
0100
0010
1000
0010
0100
0001
0010
0100
1000
0001
0100
,
2000
0000
0002
3003
2002
3003
2002
3003
,
0100
0000
0010
0001
1000
0000
0010
0000
0000
0000
0100
0000
0004
0000
1003
0000
,
0110
0000
1000
0000
0101
0000
0010
0000
1100
0000
0001
0000
0110
0000
0001
1000
,
0110
0100
1001
0010
0101
0010
1010
0100
,
1001
0010
0101
1000
0011
0100
0110
1000
,
1001
0000
0100
0010
1010
0000
0010
0000
0101
0000
0001
0000
1010
0000
1000
0000
,
0110
0000
0001
0000
1001
0000
0100
0000
1010
0000
0100
0000
0011
0000
0100
0001
,
1000
0010
1100
0001
0110
1000
1001
0100
,
0011
1000
0110
0001
1000
0110
0101
1000
,
1001
0000
0010
0100
1001
0000
1000
0000
0110
0000
0001
0000
1100
0000
0001
0000
,
0110
0000
0010
0000
1001
0000
0100
0000
1010
0000
1000
0000
0101
0000
0001
1000
,
0110
0100
1001
0010
0101
0010
1010
0100
,
1001
0010
0101
1000
0011
0100
0110
1000
,
1001
0000
0100
0010
1010
0000
0010
0000
0101
0000
0001
0000
1010
0000
1000
0000
,
0110
0000
0001
0000
1001
0000
0100
0000
1010
0000
0100
0000
0011
0000
0100
0001
,
1010
0001
1100
0001
0110
1000
1001
0100
,
0011
1000
0110
0001
1100
0010
0101
1000
,
1001
0000
0001
1000
1010
0000
0100
0000
1001
0000
0010
0000
0101
0000
0010
0000
,
1010
0100
1001
0010
0101
1000
0011
0100
,
1010
0000
0001
0100
1001
0000
0100
0000
1010
0000
0001
0000
0110
0000
1000
0000
,
0110
0001
1001
0100
1010
0100
0011
1000
,
0101
0000
0010
0100
1001
0000
0010
0000
1100
0000
0001
0000
0110
0000
1000
0000
,
1001
0100
0011
1000
0110
0001
1001
0010
,
0101
0000
1000
0001
0010
0000
0100
0000
0000
0000
1000
0000
0002
0000
0203
0000
,
0320
0000
2030
0000
3002
0000
0023
0230
,
0000
2000
0000
0000
0000
0000
0000
0000
,
0000
0000
0000
3300
,
0000
0000
0000
0000
;
