#TITLE:Over 400bpm Extream Pop Music;
#SUBTITLE:;
#ARTIST:m1dy;
#TITLETRANSLIT:;
#SUBTITLETRANSLIT:;
#ARTISTTRANSLIT:;
#CREDIT:;
#BANNER:over 400 bpm bn.png;
#BACKGROUND:over 400 bpm bg.png;
#LYRICSPATH:;
#CDTITLE:;
#MUSIC:16 - m1dy - Over 400bpm Extream Pop Music.ogg;
#OFFSET:-0.086;
#SAMPLESTART:94.578;
#SAMPLELENGTH:12.000;
#SELECTABLE:YES;
#BPMS:0.000=200.000;
#STOPS:;
#BGCHANGES:;
// cache tags:
#FIRSTBEAT:11.000;
#LASTBEAT:422.500;
#SONGFILENAME:Songs/SPEEEDCOOOORE 3/Over 400bpm Extream Pop Music - [Rynker]/over400bpm.sm;
#HASMUSIC:1;
#HASBANNER:1;
#MUSICLENGTH:127.333;
// end cache tags

//---------------dance-single - Rynker----------------
#NOTES:
     dance-single:
     Rynker:
     Challenge:
     15:
     1.000,1.000,0.039,0.031,1.000,1173.000,5.000,4.000,7.000,0.000:
0000
0000
0000
0000
,
0000
0000
0000
0000
,
0000
0000
0000
0000
0000
0000
0000
0000
0000
0000
0000
0000
1000
0001
0100
0010
,
0100
0001
1000
0100
0010
0100
1000
0001
1000
0001
0100
0010
0100
0001
1000
0100
,
0010
0100
1000
0001
0100
0010
0100
0001
1000
0100
0010
0001
1000
0001
0100
0010
,
0100
0001
1000
0100
0010
0001
1000
0001
0100
0010
0100
0001
1000
0100
0010
0001
,
1000
0001
0100
0010
0100
0001
1000
0100
0010
0100
1000
0001
0100
0010
1000
0001
,
0100
0010
0100
0001
1000
0100
0010
0001
1000
0001
0100
0010
0100
0001
1000
0100
,
0010
0001
1000
0001
0100
0010
0100
0001
1000
0010
0100
0001
1000
0010
0100
0001
,
0010
0100
1000
0100
0010
0001
0100
0010
1000
0001
1000
0010
0100
0000
0000
0000
,
0000
0000
0000
0000
0000
0000
0001
1000
0001
0000
0000
0000
1001
0000
1000
0001
,
0100
0001
0000
1000
0100
0000
0010
0001
1000
0001
0000
1000
0001
0000
0100
0010
,
0100
0001
0000
1000
0100
0000
0010
0100
1000
0100
0000
0010
0001
0000
0100
0001
,
0100
0010
0000
0100
0001
0000
0100
0001
1000
0100
0000
1000
0001
0000
0010
0100
,
1000
0001
0000
0010
0100
1000
0001
1000
0002
0000
0000
0000
1003
0000
0001
0010
,
0001
0000
1000
0010
1000
0000
0001
0100
0001
0000
0100
0010
0100
0000
0010
1000
,
0010
0000
1000
0001
1000
0000
0001
0010
0001
0000
0010
0100
0010
0000
0100
0000
,
1000
0001
0100
0010
1000
0001
0020
0000
,
0030
0000
0001
0010
0100
0000
0000
1000
0001
0000
1000
0010
0100
0000
0001
0100
,
0001
1000
0010
0100
0001
0000
1000
0100
1000
0100
0010
0001
1000
0000
0001
0000
,
0100
0010
0000
1000
0000
0001
0010
0000
0100
1000
0100
1000
0001
0000
0100
0010
,
1000
0001
0010
0100
0010
0000
0001
1000
0100
1000
0001
0010
0001
0000
0100
0000
,
0010
1000
0000
0001
0000
0010
0100
0010
0001
0000
1000
0000
0001
0000
1000
0100
,
0010
0001
1000
0001
0100
0000
0010
1000
0010
0100
0001
1000
0100
0000
0010
0000
,
0001
1000
0000
0010
0000
0100
0001
0000
1000
0100
1000
0100
0010
0000
0001
1000
,
0001
0100
0010
0100
0001
0000
1000
0100
0010
0100
1000
0001
0100
0000
0000
0000
,
0000
0000
0000
0000
0000
0000
0000
0000
0000
0000
0000
0000
0001
0000
1000
0001
,
0010
0001
0100
0010
0100
0000
0001
1000
0010
1000
0100
0010
0100
0000
0010
0000
,
0001
1000
0000
0010
0000
0100
0001
0000
1000
0100
0010
0100
1000
0000
0010
1000
,
0001
1000
0100
0010
0001
0000
0010
0001
1000
0001
0100
0001
1000
0000
0010
0000
,
0100
0001
0000
0010
0000
0001
0100
0010
1000
0000
0100
0000
0010
0000
0001
0100
,
0010
0100
0001
0010
0001
0000
1000
0010
0100
0010
1000
0100
0010
0000
0001
0000
,
1000
0001
0000
0010
0000
0100
1000
0000
0010
0100
0001
1000
0001
0000
0100
0001
,
0010
0100
1000
0100
0010
0000
0100
0010
0001
0100
0010
1000
0010
0000
1000
0000
,
0001
0100
0000
0001
0000
0100
0001
0100
0010
0000
1000
0000
0001
0000
1000
0001
,
0010
0001
0100
0010
0100
0000
0001
1000
0100
1000
0010
0100
0001
0000
0100
0001
,
0010
0100
1000
0100
0010
0000
0100
0010
0001
0100
0010
1000
0001
0000
0100
0010
,
0100
0001
1000
0010
0100
0000
0010
0100
0010
1000
0001
0100
0010
0000
1000
0000
,
0001
0010
0100
1000
0000
0001
0100
0000
0010
0000
1000
0000
0100
0000
0010
0001
,
1000
0001
0010
0100
1000
0000
0010
1000
0001
1000
0010
0100
0001
0000
1000
0100
,
0010
0100
1000
0001
1000
0000
0001
0100
0010
0100
0001
1000
0001
0000
0010
0100
,
1000
0001
0010
0100
1000
0000
0001
0100
0010
1000
0001
0100
0010
0000
1000
0000
,
0001
0010
0000
0100
0000
1000
0001
0000
1000
0001
1000
0001
1000
0000
0001
0100
,
0010
0100
0001
1000
0100
0000
0010
0001
0010
0100
1000
0001
0100
0000
0010
0100
,
0001
1000
0100
1000
0001
0000
0010
0001
1000
0010
0100
0001
0010
0000
0100
1000
,
0100
0010
0001
0100
0010
0000
0100
0001
0010
0100
1000
0100
0010
0000
0001
1000
,
0010
0100
0001
1000
0010
0000
0100
0001
1000
0100
1000
0001
0010
0000
0001
1000
,
0010
0000
0100
0001
1000
0000
0100
0010
0001
0000
0010
0100
1000
0000
0001
0100
,
0010
0000
0100
0001
1000
0000
0100
0010
0001
0000
0010
0100
1000
0000
0100
0000
,
0010
0000
0001
0000
0100
0000
0010
0000
1000
0000
0100
0000
0010
0001
0010
0001
,
1000
0001
0000
0010
0000
0100
1000
0100
1000
0000
0000
0000
0000
0000
0001
0000
,
0000
0001
0000
0000
0100
0000
0000
0001
0000
0000
0000
0000
0000
1000
0000
0000
,
1000
0000
0000
1000
0000
0000
0100
0000
1000
0000
0000
0000
0000
0000
0001
0000
,
0000
0001
0000
0000
0100
0000
0000
0001
0000
0000
0000
0000
1001
0000
0000
0000
,
0000
0000
0000
0000
0000
0000
0001
0100
,
0010
0100
0001
1000
0100
0010
0001
0010
,
0100
1000
0001
0100
0010
0100
0001
1000
,
0100
0010
0100
1000
0001
0100
0010
0100
,
0001
1000
0010
0100
0001
1000
0100
0010
,
0100
1000
0001
0100
0010
0100
0001
0010
,
0100
1000
0010
0100
0001
0010
0100
1000
,
0010
0100
0001
1000
0100
0010
0001
0000
,
0000
0000
0000
0000
0000
0000
0000
0000
0001
1000
0004
0000
1003
0001
0010
0001
,
0100
0010
0100
0001
1000
0100
0010
0100
1000
0001
0100
0010
0100
0001
1000
0100
,
1000
0001
0010
0001
1000
0010
0100
0001
0100
0010
1000
0010
0100
0001
1000
0100
,
0010
0100
1000
0001
0010
0100
0010
0001
1000
0010
0100
0001
0100
0001
0010
0100
,
1000
0001
0100
0001
1000
0010
1000
0100
0010
0100
1000
0001
0010
0100
1000
0001
,
0100
0010
0100
0001
0010
0100
1000
0100
0010
0001
1000
0001
0100
0010
0100
0001
,
0010
0100
1000
0100
0010
0001
1000
0001
1000
0010
0100
0001
1000
0100
1000
0001
,
0010
0001
1000
0010
1000
0100
0010
0001
0100
0010
0100
0001
0000
1000
0000
0001
,
1000
0100
1000
0001
0100
0000
0000
0000
0000
0000
0000
0000
0001
1000
0100
0010
,
0001
0010
0100
1000
0010
0100
0001
1000
0010
0100
0001
0010
0100
0010
0001
1000
,
0001
0100
0010
1000
0010
0100
0001
1000
0100
1000
0001
0010
0100
1000
0001
0100
,
0010
0100
0001
0010
0100
1000
0010
0100
0010
1000
0001
0100
0010
0100
0001
1000
,
0100
0010
0001
0010
0100
1000
0001
0100
0010
0100
0001
1000
0100
0010
0100
1000
,
0010
0100
0001
0100
0010
1000
0001
0010
0100
1000
0001
0100
0010
0100
0001
1000
,
0100
0010
0001
1000
0010
0100
0001
0010
0001
0100
0010
1000
0010
0100
0001
0010
,
0100
1000
0010
1000
0100
0010
0001
1000
0001
0100
0010
0100
0001
0000
1000
0000
,
0100
0010
0000
0001
0000
0010
0100
1000
0001
0000
0100
0000
0010
0000
1000
0001
,
0010
0001
0010
0100
1000
0000
0001
0100
0010
1000
0010
1000
0001
0000
0010
0000
,
0100
1000
0000
0010
0000
1000
0100
0000
0010
0001
0100
0001
0010
0000
0100
1000
,
0001
1000
0100
0010
0001
0000
1000
0001
0100
0010
0100
0001
1000
0000
0100
0000
,
0010
0001
0010
0100
0000
1000
0100
0010
0001
0000
1000
0000
0010
0000
0100
0001
,
1000
0010
0100
0001
0100
0000
0001
1000
0100
0010
0001
1000
0001
0000
1000
0000
,
0100
0010
0000
0001
0000
0100
0010
0000
1000
0100
0010
0001
1000
0000
0001
0100
,
0010
1000
0100
0010
0001
0000
1000
0001
0010
0001
1000
0001
0100
0000
0010
1000
,
0001
0000
0010
0000
0000
0000
0100
0000
000M
0000
000M
0000
000M
0000
000M
0000
000M
000M
000M
0000
0000
0000
0000
0000
1000
0000
0000
0000
0001
0000
1000
0000
,
0100
1000
0100
0010
0001
0000
1000
0010
0100
0001
0100
0001
1000
0000
0100
0000
,
0010
0001
0000
0100
0000
0001
0010
0000
0100
1000
0010
1000
0100
0000
0010
0001
,
1000
0001
0010
0100
1000
0000
0001
1000
0010
0100
0010
1000
0001
0000
0010
0000
,
0100
1000
0100
0010
0000
0001
0010
0100
1000
0000
0001
0000
0100
0000
0010
1000
,
0001
0100
0010
1000
0010
0000
1000
0001
0010
0100
1000
0001
1000
0000
0001
0000
,
0010
0100
0000
1000
0000
0010
0100
0000
0001
0010
0100
1000
0001
0000
1000
0010
,
0100
0001
0010
0100
1000
0000
0001
1000
0100
1000
0001
1000
0010
0000
0000
0000
,
0000
0000
0000
0000
0000
0000
0000
0000
0000
0000
0000
0000
1001
0000
0001
0100
,
0001
1000
0100
0010
0001
0000
1000
0001
0010
0001
1000
0010
0100
0000
0001
0100
,
0010
1000
0001
0010
0100
0000
0010
0001
1000
0010
0100
0001
1000
0000
0001
0010
,
0100
0010
0001
1000
0010
0000
0100
0010
0100
0001
1000
0100
0010
0000
0000
0000
,
0001
0000
0000
0000
1000
0001
0000
1000
0000
0000
0000
0000
0001
0000
0100
0010
,
1000
0000
0010
0100
0001
0000
1000
0100
0010
0000
0100
1000
0001
0000
0100
0010
,
1000
0000
0001
0100
0010
0000
0100
0001
1000
0000
0100
0010
0001
0000
1000
0000
,
0001
0010
0100
1000
0010
0100
0000
0000
,
0000
0000
0000
2002
,
0000
0000
0000
0000
,
0000
0000
0000
0000
,
0000
0000
0000
0000
0000
3003
0000
0000
;
